  0
SECTION
  2
HEADER
  9
$ACADVER
  1
AC1021
  9
$ACADMAINTVER
 70
     1
  9
$DWGCODEPAGE
  3
ANSI_936
  9
$LASTSAVEDBY
  1
Administrator
  9
$INSBASE
 10
0.0
 20
0.0
 30
0.0
  9
$EXTMIN
 10
551.3733426011766
 20
254.069732310165
 30
0.0
  9
$EXTMAX
 10
1125.617772037334
 20
981.8752129365178
 30
0.0
  9
$LIMMIN
 10
0.0
 20
0.0
  9
$LIMMAX
 10
420.0
 20
297.0
  9
$ORTHOMODE
 70
     1
  9
$REGENMODE
 70
     1
  9
$FILLMODE
 70
     1
  9
$QTEXTMODE
 70
     0
  9
$MIRRTEXT
 70
     0
  9
$LTSCALE
 40
1.0
  9
$ATTMODE
 70
     1
  9
$TEXTSIZE
 40
2.5
  9
$TRACEWID
 40
1.0
  9
$TEXTSTYLE
  7
Standard
  9
$CLAYER
  8
0
  9
$CELTYPE
  6
ByLayer
  9
$CECOLOR
 62
   256
  9
$CELTSCALE
 40
1.0
  9
$DISPSILH
 70
     0
  9
$DIMSCALE
 40
1.0
  9
$DIMASZ
 40
7.5
  9
$DIMEXO
 40
0.625
  9
$DIMDLI
 40
3.75
  9
$DIMRND
 40
0.0
  9
$DIMDLE
 40
0.0
  9
$DIMEXE
 40
1.25
  9
$DIMTP
 40
0.0
  9
$DIMTM
 40
0.0
  9
$DIMTXT
 40
7.5
  9
$DIMCEN
 40
2.5
  9
$DIMTSZ
 40
0.0
  9
$DIMTOL
 70
     0
  9
$DIMLIM
 70
     0
  9
$DIMTIH
 70
     0
  9
$DIMTOH
 70
     0
  9
$DIMSE1
 70
     0
  9
$DIMSE2
 70
     0
  9
$DIMTAD
 70
     0
  9
$DIMZIN
 70
     8
  9
$DIMBLK
  1

  9
$DIMASO
 70
     1
  9
$DIMSHO
 70
     1
  9
$DIMPOST
  1

  9
$DIMAPOST
  1

  9
$DIMALT
 70
     0
  9
$DIMALTD
 70
     3
  9
$DIMALTF
 40
0.03937007874016
  9
$DIMLFAC
 40
1.0
  9
$DIMTOFL
 70
     1
  9
$DIMTVP
 40
0.0
  9
$DIMTIX
 70
     0
  9
$DIMSOXD
 70
     0
  9
$DIMSAH
 70
     0
  9
$DIMBLK1
  1

  9
$DIMBLK2
  1

  9
$DIMSTYLE
  2
ISO-25
  9
$DIMCLRD
 70
     0
  9
$DIMCLRE
 70
     0
  9
$DIMCLRT
 70
     0
  9
$DIMTFAC
 40
1.0
  9
$DIMGAP
 40
0.625
  9
$DIMJUST
 70
     0
  9
$DIMSD1
 70
     0
  9
$DIMSD2
 70
     0
  9
$DIMTOLJ
 70
     0
  9
$DIMTZIN
 70
     8
  9
$DIMALTZ
 70
     0
  9
$DIMALTTZ
 70
     0
  9
$DIMUPT
 70
     0
  9
$DIMDEC
 70
     2
  9
$DIMTDEC
 70
     2
  9
$DIMALTU
 70
     2
  9
$DIMALTTD
 70
     3
  9
$DIMTXSTY
  7
Standard
  9
$DIMAUNIT
 70
     0
  9
$DIMADEC
 70
     0
  9
$DIMALTRND
 40
0.0
  9
$DIMAZIN
 70
     0
  9
$DIMDSEP
 70
    44
  9
$DIMATFIT
 70
     3
  9
$DIMFRAC
 70
     0
  9
$DIMLDRBLK
  1

  9
$DIMLUNIT
 70
     2
  9
$DIMLWD
 70
    -2
  9
$DIMLWE
 70
    -2
  9
$DIMTMOVE
 70
     0
  9
$DIMFXL
 40
1.0
  9
$DIMFXLON
 70
     0
  9
$DIMJOGANG
 40
0.7853981633974483
  9
$DIMTFILL
 70
     0
  9
$DIMTFILLCLR
 70
     0
  9
$DIMARCSYM
 70
     0
  9
$DIMLTYPE
  6

  9
$DIMLTEX1
  6

  9
$DIMLTEX2
  6

  9
$LUNITS
 70
     2
  9
$LUPREC
 70
     4
  9
$SKETCHINC
 40
1.0
  9
$FILLETRAD
 40
10.0
  9
$AUNITS
 70
     0
  9
$AUPREC
 70
     0
  9
$MENU
  1
.
  9
$ELEVATION
 40
0.0
  9
$PELEVATION
 40
0.0
  9
$THICKNESS
 40
0.0
  9
$LIMCHECK
 70
     0
  9
$CHAMFERA
 40
0.0
  9
$CHAMFERB
 40
0.0
  9
$CHAMFERC
 40
0.0
  9
$CHAMFERD
 40
0.0
  9
$SKPOLY
 70
     0
  9
$TDCREATE
 40
2458246.655258855
  9
$TDUCREATE
 40
2458246.321925521
  9
$TDUPDATE
 40
2458319.767008750
  9
$TDUUPDATE
 40
2458319.433675417
  9
$TDINDWG
 40
0.0835511458
  9
$TDUSRTIMER
 40
0.0835504167
  9
$USRTIMER
 70
     1
  9
$ANGBASE
 50
0.0
  9
$ANGDIR
 70
     0
  9
$PDMODE
 70
     0
  9
$PDSIZE
 40
0.0
  9
$PLINEWID
 40
0.0
  9
$SPLFRAME
 70
     0
  9
$SPLINETYPE
 70
     6
  9
$SPLINESEGS
 70
     8
  9
$HANDSEED
  5
587
  9
$SURFTAB1
 70
     6
  9
$SURFTAB2
 70
     6
  9
$SURFTYPE
 70
     6
  9
$SURFU
 70
     6
  9
$SURFV
 70
     6
  9
$UCSBASE
  2

  9
$UCSNAME
  2

  9
$UCSORG
 10
0.0
 20
0.0
 30
0.0
  9
$UCSXDIR
 10
1.0
 20
0.0
 30
0.0
  9
$UCSYDIR
 10
0.0
 20
1.0
 30
0.0
  9
$UCSORTHOREF
  2

  9
$UCSORTHOVIEW
 70
     0
  9
$UCSORGTOP
 10
0.0
 20
0.0
 30
0.0
  9
$UCSORGBOTTOM
 10
0.0
 20
0.0
 30
0.0
  9
$UCSORGLEFT
 10
0.0
 20
0.0
 30
0.0
  9
$UCSORGRIGHT
 10
0.0
 20
0.0
 30
0.0
  9
$UCSORGFRONT
 10
0.0
 20
0.0
 30
0.0
  9
$UCSORGBACK
 10
0.0
 20
0.0
 30
0.0
  9
$PUCSBASE
  2

  9
$PUCSNAME
  2

  9
$PUCSORG
 10
0.0
 20
0.0
 30
0.0
  9
$PUCSXDIR
 10
1.0
 20
0.0
 30
0.0
  9
$PUCSYDIR
 10
0.0
 20
1.0
 30
0.0
  9
$PUCSORTHOREF
  2

  9
$PUCSORTHOVIEW
 70
     0
  9
$PUCSORGTOP
 10
0.0
 20
0.0
 30
0.0
  9
$PUCSORGBOTTOM
 10
0.0
 20
0.0
 30
0.0
  9
$PUCSORGLEFT
 10
0.0
 20
0.0
 30
0.0
  9
$PUCSORGRIGHT
 10
0.0
 20
0.0
 30
0.0
  9
$PUCSORGFRONT
 10
0.0
 20
0.0
 30
0.0
  9
$PUCSORGBACK
 10
0.0
 20
0.0
 30
0.0
  9
$USERI1
 70
     0
  9
$USERI2
 70
     0
  9
$USERI3
 70
     0
  9
$USERI4
 70
     0
  9
$USERI5
 70
     0
  9
$USERR1
 40
0.0
  9
$USERR2
 40
0.0
  9
$USERR3
 40
0.0
  9
$USERR4
 40
0.0
  9
$USERR5
 40
0.0
  9
$WORLDVIEW
 70
     1
  9
$SHADEDGE
 70
     3
  9
$SHADEDIF
 70
    70
  9
$TILEMODE
 70
     1
  9
$MAXACTVP
 70
    64
  9
$PINSBASE
 10
0.0
 20
0.0
 30
0.0
  9
$PLIMCHECK
 70
     0
  9
$PEXTMIN
 10
0.0
 20
0.0
 30
0.0
  9
$PEXTMAX
 10
0.0
 20
0.0
 30
0.0
  9
$PLIMMIN
 10
0.0
 20
0.0
  9
$PLIMMAX
 10
12.0
 20
9.0
  9
$UNITMODE
 70
     0
  9
$VISRETAIN
 70
     1
  9
$PLINEGEN
 70
     0
  9
$PSLTSCALE
 70
     1
  9
$TREEDEPTH
 70
  3020
  9
$CMLSTYLE
  2
Standard
  9
$CMLJUST
 70
     0
  9
$CMLSCALE
 40
20.0
  9
$PROXYGRAPHICS
 70
     1
  9
$MEASUREMENT
 70
     1
  9
$CELWEIGHT
370
    -1
  9
$ENDCAPS
280
     0
  9
$JOINSTYLE
280
     0
  9
$LWDISPLAY
290
     1
  9
$INSUNITS
 70
     4
  9
$HYPERLINKBASE
  1

  9
$STYLESHEET
  1

  9
$XEDIT
290
     1
  9
$CEPSNTYPE
380
     0
  9
$PSTYLEMODE
290
     1
  9
$FINGERPRINTGUID
  2
{B61F48B6-C13F-4D0A-B1DF-5654CC6AE0FA}
  9
$VERSIONGUID
  2
{1F977CFD-2ADD-4A31-8FF7-E35B9C252462}
  9
$EXTNAMES
290
     1
  9
$PSVPSCALE
 40
0.0
  9
$OLESTARTUP
290
     0
  9
$SORTENTS
280
   127
  9
$INDEXCTL
280
     0
  9
$HIDETEXT
280
     1
  9
$XCLIPFRAME
290
     0
  9
$HALOGAP
280
     0
  9
$OBSCOLOR
 70
   257
  9
$OBSLTYPE
280
     0
  9
$INTERSECTIONDISPLAY
280
     0
  9
$INTERSECTIONCOLOR
 70
   257
  9
$DIMASSOC
280
     2
  9
$PROJECTNAME
  1

  9
$CAMERADISPLAY
290
     0
  9
$LENSLENGTH
 40
50.0
  9
$CAMERAHEIGHT
 40
0.0
  9
$STEPSPERSEC
 40
2.0
  9
$STEPSIZE
 40
6.0
  9
$3DDWFPREC
 40
2.0
  9
$PSOLWIDTH
 40
5.0
  9
$PSOLHEIGHT
 40
80.0
  9
$LOFTANG1
 40
1.570796326794896
  9
$LOFTANG2
 40
1.570796326794896
  9
$LOFTMAG1
 40
0.0
  9
$LOFTMAG2
 40
0.0
  9
$LOFTPARAM
 70
     7
  9
$LOFTNORMALS
280
     1
  9
$LATITUDE
 40
37.795
  9
$LONGITUDE
 40
-122.394
  9
$NORTHDIRECTION
 40
0.0
  9
$TIMEZONE
 70
 -8000
  9
$LIGHTGLYPHDISPLAY
280
     1
  9
$TILEMODELIGHTSYNCH
280
     1
  9
$CMATERIAL
347
ED
  9
$SOLIDHIST
280
     1
  9
$SHOWHIST
280
     1
  9
$DWFFRAME
280
     2
  9
$DGNFRAME
280
     0
  9
$REALWORLDSCALE
290
     1
  9
$INTERFERECOLOR
 62
     1
  9
$INTERFEREOBJVS
345
FA
  9
$INTERFEREVPVS
346
F7
  9
$CSHADOW
280
     0
  9
$SHADOWPLANELOCATION
 40
0.0
  0
ENDSEC
  0
SECTION
  2
CLASSES
  0
CLASS
  1
ACDBDICTIONARYWDFLT
  2
AcDbDictionaryWithDefault
  3
ObjectDBX Classes
 90
        0
 91
        1
280
     0
281
     0
  0
CLASS
  1
DICTIONARYVAR
  2
AcDbDictionaryVar
  3
ObjectDBX Classes
 90
        0
 91
        3
280
     0
281
     0
  0
CLASS
  1
TABLESTYLE
  2
AcDbTableStyle
  3
ObjectDBX Classes
 90
     4095
 91
        1
280
     0
281
     0
  0
CLASS
  1
MATERIAL
  2
AcDbMaterial
  3
ObjectDBX Classes
 90
     1024
 91
        3
280
     0
281
     0
  0
CLASS
  1
VISUALSTYLE
  2
AcDbVisualStyle
  3
ObjectDBX Classes
 90
     4095
 91
       16
280
     0
281
     0
  0
CLASS
  1
SORTENTSTABLE
  2
AcDbSortentsTable
  3
ObjectDBX Classes
 90
        0
 91
        1
280
     0
281
     0
  0
CLASS
  1
DIMASSOC
  2
AcDbDimAssoc
  3
"AcDbDimAssoc|Product Desc:     AcDim ARX App For Dimension|Company:          Autodesk, Inc.|WEB Address:      www.autodesk.com"
 90
        0
 91
        3
280
     0
281
     0
  0
ENDSEC
  0
SECTION
  2
TABLES
  0
TABLE
  2
VPORT
  5
8
330
0
100
AcDbSymbolTable
 70
     1
  0
VPORT
  5
EB
330
8
100
AcDbSymbolTableRecord
100
AcDbViewportTableRecord
  2
*Active
 70
     0
 10
0.0
 20
0.0
 11
1.0
 21
1.0
 12
904.659403050427
 22
627.9706077799674
 13
0.0
 23
0.0
 14
10.0
 24
10.0
 15
10.0
 25
10.0
 16
0.0
 26
0.0
 36
1.0
 17
0.0
 27
0.0
 37
0.0
 40
771.7432469864752
 41
2.223150357995226
 42
50.0
 43
0.0
 44
0.0
 50
0.0
 51
0.0
 71
     0
 72
  1000
 73
     1
 74
     3
 75
     0
 76
     0
 77
     0
 78
     0
281
     0
 65
     1
110
0.0
120
0.0
130
0.0
111
1.0
121
0.0
131
0.0
112
0.0
122
1.0
132
0.0
 79
     0
146
0.0
348
F6
 60
     2
 61
     5
292
     1
282
     1
141
0.0
142
0.0
 63
   250
421
  3355443
  0
ENDTAB
  0
TABLE
  2
LTYPE
  5
5
330
0
100
AcDbSymbolTable
 70
     3
  0
LTYPE
  5
14
330
5
100
AcDbSymbolTableRecord
100
AcDbLinetypeTableRecord
  2
ByBlock
 70
     0
  3

 72
    65
 73
     0
 40
0.0
  0
LTYPE
  5
15
330
5
100
AcDbSymbolTableRecord
100
AcDbLinetypeTableRecord
  2
ByLayer
 70
     0
  3

 72
    65
 73
     0
 40
0.0
  0
LTYPE
  5
16
330
5
100
AcDbSymbolTableRecord
100
AcDbLinetypeTableRecord
  2
Continuous
 70
     0
  3
Solid line
 72
    65
 73
     0
 40
0.0
  0
LTYPE
  5
12A
330
5
100
AcDbSymbolTableRecord
100
AcDbLinetypeTableRecord
  2
ACAD_ISO02W100
 70
     0
  3
ISO dash __ __ __ __ __ __ __ __ __ __ __ __ __
 72
    65
 73
     2
 40
15.0
 49
12.0
 74
     0
 49
-3.0
 74
     0
  0
LTYPE
  5
12B
330
5
100
AcDbSymbolTableRecord
100
AcDbLinetypeTableRecord
  2
ACAD_ISO04W100
 70
     0
  3
ISO long-dash dot ____ . ____ . ____ . ____ . _
 72
    65
 73
     4
 40
30.0
 49
24.0
 74
     0
 49
-3.0
 74
     0
 49
0.0
 74
     0
 49
-3.0
 74
     0
  0
ENDTAB
  0
TABLE
  2
LAYER
  5
2
102
{ACAD_XDICTIONARY
360
12C
102
}
330
0
100
AcDbSymbolTable
 70
     7
  0
LAYER
  5
10
330
2
100
AcDbSymbolTableRecord
100
AcDbLayerTableRecord
  2
0
 70
     0
 62
     7
  6
Continuous
370
    -3
390
F
347
EF
  0
LAYER
  5
123
330
2
100
AcDbSymbolTableRecord
100
AcDbLayerTableRecord
  2
con
 70
     0
 62
     7
  6
Continuous
370
    30
390
F
347
EF
1001
AcAecLayerStandard
1000

1000

  0
LAYER
  5
125
330
2
100
AcDbSymbolTableRecord
100
AcDbLayerTableRecord
  2
dim
 70
     0
 62
     7
  6
Continuous
370
    -3
390
F
347
EF
1001
AcAecLayerStandard
1000

1000

  0
LAYER
  5
126
330
2
100
AcDbSymbolTableRecord
100
AcDbLayerTableRecord
  2
dash
 70
     0
 62
     6
  6
ACAD_ISO02W100
370
    -3
390
F
347
EF
1001
AcAecLayerStandard
1000

1000

  0
LAYER
  5
127
330
2
100
AcDbSymbolTableRecord
100
AcDbLayerTableRecord
  2
center
 70
     0
 62
     1
  6
ACAD_ISO04W100
370
    -3
390
F
347
EF
1001
AcAecLayerStandard
1000

1000

  0
LAYER
  5
173
330
2
100
AcDbSymbolTableRecord
100
AcDbLayerTableRecord
  2
Defpoints
 70
     0
 62
     7
  6
Continuous
290
     0
370
    -3
390
F
347
EF
  0
LAYER
  5
537
330
2
100
AcDbSymbolTableRecord
100
AcDbLayerTableRecord
  2
图层1
 70
     0
 62
     7
  6
ACAD_ISO02W100
370
    -3
390
F
347
EF
1001
AcAecLayerStandard
1000

1000

  0
ENDTAB
  0
TABLE
  2
STYLE
  5
3
330
0
100
AcDbSymbolTable
 70
     2
  0
STYLE
  5
11
330
3
100
AcDbSymbolTableRecord
100
AcDbTextStyleTableRecord
  2
Standard
 70
     0
 40
0.0
 41
1.0
 50
0.0
 71
     0
 42
2.5
  3
txt
  4
gbcbig.shx
  0
STYLE
  5
129
330
3
100
AcDbSymbolTableRecord
100
AcDbTextStyleTableRecord
  2

 70
     1
 40
0.0
 41
1.0
 50
0.0
 71
     0
 42
2.5
  3
ltypeshp.shx
  4

  0
ENDTAB
  0
TABLE
  2
VIEW
  5
6
330
0
100
AcDbSymbolTable
 70
     0
  0
ENDTAB
  0
TABLE
  2
UCS
  5
7
330
0
100
AcDbSymbolTable
 70
     0
  0
ENDTAB
  0
TABLE
  2
APPID
  5
9
330
0
100
AcDbSymbolTable
 70
     4
  0
APPID
  5
12
330
9
100
AcDbSymbolTableRecord
100
AcDbRegAppTableRecord
  2
ACAD
 70
     0
  0
APPID
  5
9E
330
9
100
AcDbSymbolTableRecord
100
AcDbRegAppTableRecord
  2
ACAD_PSEXT
 70
     0
  0
APPID
  5
124
330
9
100
AcDbSymbolTableRecord
100
AcDbRegAppTableRecord
  2
AcAecLayerStandard
 70
     0
  0
APPID
  5
130
330
9
100
AcDbSymbolTableRecord
100
AcDbRegAppTableRecord
  2
ACAD_EXEMPT_FROM_CAD_STANDARDS
 70
     0
  0
ENDTAB
  0
TABLE
  2
DIMSTYLE
  5
A
330
0
100
AcDbSymbolTable
 70
     1
100
AcDbDimStyleTable
 71
     1
340
27
  0
DIMSTYLE
105
27
102
{ACAD_REACTORS
330
172
330
18D
330
1C1
330
1F9
330
213
330
22D
330
318
330
452
330
48A
102
}
330
A
100
AcDbSymbolTableRecord
100
AcDbDimStyleTableRecord
  2
ISO-25
 70
     0
 41
7.5
 42
0.625
 43
3.75
 44
1.25
 73
     0
 74
     0
 78
     8
140
7.5
141
2.5
143
0.03937007874016
147
0.625
171
     3
172
     1
271
     2
272
     2
274
     3
278
    44
283
     0
284
     8
340
11
  0
ENDTAB
  0
TABLE
  2
BLOCK_RECORD
  5
1
330
0
100
AcDbSymbolTable
 70
    12
  0
BLOCK_RECORD
  5
1F
102
{ACAD_XDICTIONARY
360
14B
102
}
330
1
100
AcDbSymbolTableRecord
100
AcDbBlockTableRecord
  2
*Model_Space
340
22
 70
     0
280
     1
281
     0
  0
BLOCK_RECORD
  5
D2
330
1
100
AcDbSymbolTableRecord
100
AcDbBlockTableRecord
  2
*Paper_Space
340
D3
 70
     0
280
     1
281
     0
  0
BLOCK_RECORD
  5
D6
330
1
100
AcDbSymbolTableRecord
100
AcDbBlockTableRecord
  2
*Paper_Space0
340
D7
 70
     0
280
     1
281
     0
  0
BLOCK_RECORD
  5
174
330
1
100
AcDbSymbolTableRecord
100
AcDbBlockTableRecord
  2
*D1
340
0
 70
     0
280
     1
281
     0
  0
BLOCK_RECORD
  5
18E
330
1
100
AcDbSymbolTableRecord
100
AcDbBlockTableRecord
  2
*D2
340
0
 70
     0
280
     1
281
     0
  0
BLOCK_RECORD
  5
1A8
330
1
100
AcDbSymbolTableRecord
100
AcDbBlockTableRecord
  2
*D3
340
0
 70
     0
280
     1
281
     0
  0
BLOCK_RECORD
  5
1C2
330
1
100
AcDbSymbolTableRecord
100
AcDbBlockTableRecord
  2
*D4
340
0
 70
     0
280
     1
281
     0
  0
BLOCK_RECORD
  5
1FA
330
1
100
AcDbSymbolTableRecord
100
AcDbBlockTableRecord
  2
*D5
340
0
 70
     0
280
     1
281
     0
  0
BLOCK_RECORD
  5
214
330
1
100
AcDbSymbolTableRecord
100
AcDbBlockTableRecord
  2
*D6
340
0
 70
     0
280
     1
281
     0
  0
BLOCK_RECORD
  5
22E
330
1
100
AcDbSymbolTableRecord
100
AcDbBlockTableRecord
  2
*D7
340
0
 70
     0
280
     1
281
     0
  0
BLOCK_RECORD
  5
319
330
1
100
AcDbSymbolTableRecord
100
AcDbBlockTableRecord
  2
*D8
340
0
 70
     0
280
     1
281
     0
  0
BLOCK_RECORD
  5
439
330
1
100
AcDbSymbolTableRecord
100
AcDbBlockTableRecord
  2
*D9
340
0
 70
     0
280
     1
281
     0
  0
BLOCK_RECORD
  5
453
330
1
100
AcDbSymbolTableRecord
100
AcDbBlockTableRecord
  2
*D10
340
0
 70
     0
280
     1
281
     0
  0
BLOCK_RECORD
  5
48B
330
1
100
AcDbSymbolTableRecord
100
AcDbBlockTableRecord
  2
*D11
340
0
 70
     0
280
     1
281
     0
  0
ENDTAB
  0
ENDSEC
  0
SECTION
  2
BLOCKS
  0
BLOCK
  5
20
330
1F
100
AcDbEntity
  8
0
100
AcDbBlockBegin
  2
*Model_Space
 70
     0
 10
0.0
 20
0.0
 30
0.0
  3
*Model_Space
  1

  0
ENDBLK
  5
21
330
1F
100
AcDbEntity
  8
0
100
AcDbBlockEnd
  0
BLOCK
  5
D4
330
D2
100
AcDbEntity
 67
     1
  8
0
100
AcDbBlockBegin
  2
*Paper_Space
 70
     0
 10
0.0
 20
0.0
 30
0.0
  3
*Paper_Space
  1

  0
ENDBLK
  5
D5
330
D2
100
AcDbEntity
 67
     1
  8
0
100
AcDbBlockEnd
  0
BLOCK
  5
D8
330
D6
100
AcDbEntity
 67
     1
  8
0
100
AcDbBlockBegin
  2
*Paper_Space0
 70
     0
 10
0.0
 20
0.0
 30
0.0
  3
*Paper_Space0
  1

  0
ENDBLK
  5
D9
330
D6
100
AcDbEntity
 67
     1
  8
0
100
AcDbBlockEnd
  0
BLOCK
  5
17F
330
174
100
AcDbEntity
  8
0
100
AcDbBlockBegin
  2
*D1
 70
     1
 10
0.0
 20
0.0
 30
0.0
  3
*D1
  1

  0
LINE
  5
3F4
330
174
100
AcDbEntity
  8
dim
 62
     0
370
    -2
100
AcDbLine
 10
630.6177720373344
 20
778.7502129365175
 30
0.0
 11
630.6177720373344
 21
524.1685046124508
 31
0.0
  0
LINE
  5
3F5
330
174
100
AcDbEntity
  8
dim
 62
     0
370
    -2
100
AcDbLine
 10
1125.617772037334
 20
778.7502129365175
 30
0.0
 11
1125.617772037334
 21
524.1685046124508
 31
0.0
  0
LINE
  5
3F6
330
174
100
AcDbEntity
  8
dim
 62
     0
370
    -2
100
AcDbLine
 10
638.1177720373344
 20
525.4185046124507
 30
0.0
 11
856.242772037334
 21
525.4185046124507
 31
0.0
  0
LINE
  5
3F7
330
174
100
AcDbEntity
  8
dim
 62
     0
370
    -2
100
AcDbLine
 10
1118.117772037334
 20
525.4185046124507
 30
0.0
 11
899.992772037334
 21
525.4185046124507
 31
0.0
  0
SOLID
  5
3F8
330
174
100
AcDbEntity
  8
dim
 62
     0
100
AcDbTrace
 10
638.1177720373344
 20
526.6685046124507
 30
0.0
 11
638.1177720373344
 21
524.1685046124508
 31
0.0
 12
630.6177720373344
 22
525.4185046124507
 32
0.0
 13
630.6177720373344
 23
525.4185046124507
 33
0.0
  0
SOLID
  5
3F9
330
174
100
AcDbEntity
  8
dim
 62
     0
100
AcDbTrace
 10
1118.117772037334
 20
526.6685046124507
 30
0.0
 11
1118.117772037334
 21
524.1685046124508
 31
0.0
 12
1125.617772037334
 22
525.4185046124507
 32
0.0
 13
1125.617772037334
 23
525.4185046124507
 33
0.0
  0
MTEXT
  5
3FA
330
174
100
AcDbEntity
  8
dim
 62
     0
100
AcDbMText
 10
878.117772037334
 20
525.4185046124507
 30
0.0
 40
7.5
 41
0.0
 46
0.0
 71
     5
 72
     1
  1
19-1/2"
 73
     1
 44
1.0
  0
POINT
  5
3FB
330
174
100
AcDbEntity
  8
Defpoints
 62
     0
100
AcDbPoint
 10
630.6177720373344
 20
779.3752129365175
 30
0.0
  0
POINT
  5
3FC
330
174
100
AcDbEntity
  8
Defpoints
 62
     0
100
AcDbPoint
 10
1125.617772037334
 20
779.3752129365175
 30
0.0
  0
POINT
  5
3FD
330
174
100
AcDbEntity
  8
Defpoints
 62
     0
100
AcDbPoint
 10
1125.617772037334
 20
525.4185046124507
 30
0.0
  0
ENDBLK
  5
180
330
174
100
AcDbEntity
  8
0
100
AcDbBlockEnd
  0
BLOCK
  5
199
330
18E
100
AcDbEntity
  8
0
100
AcDbBlockBegin
  2
*D2
 70
     1
 10
0.0
 20
0.0
 30
0.0
  3
*D2
  1

  0
LINE
  5
3FE
330
18E
100
AcDbEntity
  8
dim
 62
     0
370
    -2
100
AcDbLine
 10
655.6177720373344
 20
778.7502129365175
 30
0.0
 11
655.6177720373344
 21
549.1846399470363
 31
0.0
  0
LINE
  5
3FF
330
18E
100
AcDbEntity
  8
dim
 62
     0
370
    -2
100
AcDbLine
 10
1100.617772037334
 20
778.7502129365175
 30
0.0
 11
1100.617772037334
 21
549.1846399470363
 31
0.0
  0
LINE
  5
400
330
18E
100
AcDbEntity
  8
dim
 62
     0
370
    -2
100
AcDbLine
 10
663.1177720373344
 20
550.4346399470363
 30
0.0
 11
856.242772037334
 21
550.4346399470363
 31
0.0
  0
LINE
  5
401
330
18E
100
AcDbEntity
  8
dim
 62
     0
370
    -2
100
AcDbLine
 10
1093.117772037334
 20
550.4346399470363
 30
0.0
 11
899.992772037334
 21
550.4346399470363
 31
0.0
  0
SOLID
  5
402
330
18E
100
AcDbEntity
  8
dim
 62
     0
100
AcDbTrace
 10
663.1177720373344
 20
551.6846399470363
 30
0.0
 11
663.1177720373344
 21
549.1846399470363
 31
0.0
 12
655.6177720373344
 22
550.4346399470363
 32
0.0
 13
655.6177720373344
 23
550.4346399470363
 33
0.0
  0
SOLID
  5
403
330
18E
100
AcDbEntity
  8
dim
 62
     0
100
AcDbTrace
 10
1093.117772037334
 20
551.6846399470363
 30
0.0
 11
1093.117772037334
 21
549.1846399470363
 31
0.0
 12
1100.617772037334
 22
550.4346399470363
 32
0.0
 13
1100.617772037334
 23
550.4346399470363
 33
0.0
  0
MTEXT
  5
404
330
18E
100
AcDbEntity
  8
dim
 62
     0
100
AcDbMText
 10
878.117772037334
 20
550.4346399470363
 30
0.0
 40
7.5
 41
0.0
 46
0.0
 71
     5
 72
     1
  1
17-1/2"
 73
     1
 44
1.0
  0
POINT
  5
405
330
18E
100
AcDbEntity
  8
Defpoints
 62
     0
100
AcDbPoint
 10
655.6177720373344
 20
779.3752129365175
 30
0.0
  0
POINT
  5
406
330
18E
100
AcDbEntity
  8
Defpoints
 62
     0
100
AcDbPoint
 10
1100.617772037334
 20
779.3752129365175
 30
0.0
  0
POINT
  5
407
330
18E
100
AcDbEntity
  8
Defpoints
 62
     0
100
AcDbPoint
 10
1100.617772037334
 20
550.4346399470363
 30
0.0
  0
ENDBLK
  5
19A
330
18E
100
AcDbEntity
  8
0
100
AcDbBlockEnd
  0
BLOCK
  5
1B3
330
1A8
100
AcDbEntity
  8
0
100
AcDbBlockBegin
  2
*D3
 70
     1
 10
0.0
 20
0.0
 30
0.0
  3
*D3
  1

  0
LINE
  5
1E5
330
1A8
100
AcDbEntity
  8
dim
 62
     0
370
    -2
100
AcDbLine
 10
877.4927720373343
 20
981.8752129365176
 30
0.0
 11
531.2969691893187
 21
981.8752129365176
 31
0.0
  0
LINE
  5
1E6
330
1A8
100
AcDbEntity
  8
dim
 62
     0
370
    -2
100
AcDbLine
 10
877.4927720373343
 20
596.8752129365175
 30
0.0
 11
531.2969691893187
 21
596.8752129365176
 31
0.0
  0
LINE
  5
1E7
330
1A8
100
AcDbEntity
  8
dim
 62
     0
370
    -2
100
AcDbLine
 10
532.5469691893188
 20
969.8752129365177
 30
0.0
 11
532.5469691893188
 21
796.0002129365172
 31
0.0
  0
LINE
  5
1E8
330
1A8
100
AcDbEntity
  8
dim
 62
     0
370
    -2
100
AcDbLine
 10
532.5469691893187
 20
608.8752129365176
 30
0.0
 11
532.5469691893187
 21
762.7502129365171
 31
0.0
  0
SOLID
  5
1E9
330
1A8
100
AcDbEntity
  8
dim
 62
     0
100
AcDbTrace
 10
530.5469691893188
 20
969.8752129365177
 30
0.0
 11
534.5469691893188
 21
969.8752129365177
 31
0.0
 12
532.5469691893188
 22
981.8752129365176
 32
0.0
 13
532.5469691893188
 23
981.8752129365176
 33
0.0
  0
SOLID
  5
1EA
330
1A8
100
AcDbEntity
  8
dim
 62
     0
100
AcDbTrace
 10
530.5469691893184
 20
608.8752129365176
 30
0.0
 11
534.5469691893184
 21
608.8752129365176
 31
0.0
 12
532.5469691893187
 22
596.8752129365176
 32
0.0
 13
532.5469691893187
 23
596.8752129365176
 33
0.0
  0
MTEXT
  5
1EB
330
1A8
100
AcDbEntity
  8
dim
 62
     0
100
AcDbMText
 10
532.5469691893186
 20
779.3752129365175
 30
0.0
 40
12.0
 41
0.0
 46
0.0
 71
     5
 72
     1
  1
385
 11
0.0000000000000001
 21
1.0
 31
0.0
 73
     1
 44
1.0
  0
POINT
  5
1EC
330
1A8
100
AcDbEntity
  8
Defpoints
 62
     0
100
AcDbPoint
 10
878.1177720373344
 20
981.8752129365176
 30
0.0
  0
POINT
  5
1ED
330
1A8
100
AcDbEntity
  8
Defpoints
 62
     0
100
AcDbPoint
 10
878.1177720373344
 20
596.8752129365175
 30
0.0
  0
POINT
  5
1EE
330
1A8
100
AcDbEntity
  8
Defpoints
 62
     0
100
AcDbPoint
 10
532.5469691893187
 20
596.8752129365176
 30
0.0
  0
ENDBLK
  5
1B4
330
1A8
100
AcDbEntity
  8
0
100
AcDbBlockEnd
  0
BLOCK
  5
1CD
330
1C2
100
AcDbEntity
  8
0
100
AcDbBlockBegin
  2
*D4
 70
     1
 10
0.0
 20
0.0
 30
0.0
  3
*D4
  1

  0
LINE
  5
408
330
1C2
100
AcDbEntity
  8
dim
 62
     0
370
    -2
100
AcDbLine
 10
877.4927720373344
 20
961.8752129365176
 30
0.0
 11
599.2567726445013
 21
961.8752129365176
 31
0.0
  0
LINE
  5
409
330
1C2
100
AcDbEntity
  8
dim
 62
     0
370
    -2
100
AcDbLine
 10
877.4927720373344
 20
596.8752129365175
 30
0.0
 11
599.2567726445011
 21
596.8752129365176
 31
0.0
  0
LINE
  5
40A
330
1C2
100
AcDbEntity
  8
dim
 62
     0
370
    -2
100
AcDbLine
 10
600.5067726445012
 20
954.3752129365175
 30
0.0
 11
600.5067726445012
 21
802.5002129365171
 31
0.0
  0
LINE
  5
40B
330
1C2
100
AcDbEntity
  8
dim
 62
     0
370
    -2
100
AcDbLine
 10
600.5067726445012
 20
604.3752129365176
 30
0.0
 11
600.5067726445012
 21
756.2502129365172
 31
0.0
  0
SOLID
  5
40C
330
1C2
100
AcDbEntity
  8
dim
 62
     0
100
AcDbTrace
 10
599.2567726445013
 20
954.3752129365175
 30
0.0
 11
601.7567726445013
 21
954.3752129365175
 31
0.0
 12
600.5067726445012
 22
961.8752129365176
 32
0.0
 13
600.5067726445012
 23
961.8752129365176
 33
0.0
  0
SOLID
  5
40D
330
1C2
100
AcDbEntity
  8
dim
 62
     0
100
AcDbTrace
 10
599.2567726445011
 20
604.3752129365176
 30
0.0
 11
601.7567726445012
 21
604.3752129365176
 31
0.0
 12
600.5067726445012
 22
596.8752129365176
 32
0.0
 13
600.5067726445012
 23
596.8752129365176
 33
0.0
  0
MTEXT
  5
40E
330
1C2
100
AcDbEntity
  8
dim
 62
     0
100
AcDbMText
 10
600.5067726445012
 20
779.3752129365175
 30
0.0
 40
7.5
 41
0.0
 46
0.0
 71
     5
 72
     1
  1
14-3/8"
 11
0.0000000000000001
 21
1.0
 31
0.0
 73
     1
 44
1.0
  0
POINT
  5
40F
330
1C2
100
AcDbEntity
  8
Defpoints
 62
     0
100
AcDbPoint
 10
878.1177720373344
 20
961.8752129365176
 30
0.0
  0
POINT
  5
410
330
1C2
100
AcDbEntity
  8
Defpoints
 62
     0
100
AcDbPoint
 10
878.1177720373344
 20
596.8752129365175
 30
0.0
  0
POINT
  5
411
330
1C2
100
AcDbEntity
  8
Defpoints
 62
     0
100
AcDbPoint
 10
600.5067726445012
 20
596.8752129365176
 30
0.0
  0
ENDBLK
  5
1CE
330
1C2
100
AcDbEntity
  8
0
100
AcDbBlockEnd
  0
BLOCK
  5
205
330
1FA
100
AcDbEntity
  8
0
100
AcDbBlockBegin
  2
*D5
 70
     1
 10
0.0
 20
0.0
 30
0.0
  3
*D5
  1

  0
LINE
  5
412
330
1FA
100
AcDbEntity
  8
dim
 62
     0
370
    -2
100
AcDbLine
 10
877.4927720373344
 20
459.0697323101649
 30
0.0
 11
558.6052006997406
 21
459.0697323101649
 31
0.0
  0
LINE
  5
413
330
1FA
100
AcDbEntity
  8
dim
 62
     0
370
    -2
100
AcDbLine
 10
877.4927720373344
 20
254.069732310165
 30
0.0
 11
558.6052006997404
 21
254.0697323101651
 31
0.0
  0
LINE
  5
414
330
1FA
100
AcDbEntity
  8
dim
 62
     0
370
    -2
100
AcDbLine
 10
559.8552006997406
 20
451.5697323101647
 30
0.0
 11
559.8552006997406
 21
375.944732310165
 31
0.0
  0
LINE
  5
415
330
1FA
100
AcDbEntity
  8
dim
 62
     0
370
    -2
100
AcDbLine
 10
559.8552006997406
 20
261.5697323101652
 30
0.0
 11
559.8552006997406
 21
337.194732310165
 31
0.0
  0
SOLID
  5
416
330
1FA
100
AcDbEntity
  8
dim
 62
     0
100
AcDbTrace
 10
558.6052006997406
 20
451.5697323101647
 30
0.0
 11
561.1052006997406
 21
451.5697323101647
 31
0.0
 12
559.8552006997406
 22
459.0697323101649
 32
0.0
 13
559.8552006997406
 23
459.0697323101649
 33
0.0
  0
SOLID
  5
417
330
1FA
100
AcDbEntity
  8
dim
 62
     0
100
AcDbTrace
 10
558.6052006997406
 20
261.5697323101652
 30
0.0
 11
561.1052006997406
 21
261.5697323101652
 31
0.0
 12
559.8552006997405
 22
254.0697323101651
 32
0.0
 13
559.8552006997405
 23
254.0697323101651
 33
0.0
  0
MTEXT
  5
418
330
1FA
100
AcDbEntity
  8
dim
 62
     0
100
AcDbMText
 10
559.8552006997405
 20
356.5697323101651
 30
0.0
 40
7.5
 41
0.0
 46
0.0
 71
     5
 72
     1
  1
8-1/8"
 11
0.0000000000000001
 21
1.0
 31
0.0
 73
     1
 44
1.0
  0
POINT
  5
419
330
1FA
100
AcDbEntity
  8
Defpoints
 62
     0
100
AcDbPoint
 10
878.1177720373344
 20
459.0697323101649
 30
0.0
  0
POINT
  5
41A
330
1FA
100
AcDbEntity
  8
Defpoints
 62
     0
100
AcDbPoint
 10
878.1177720373344
 20
254.069732310165
 30
0.0
  0
POINT
  5
41B
330
1FA
100
AcDbEntity
  8
Defpoints
 62
     0
100
AcDbPoint
 10
559.8552006997405
 20
254.0697323101651
 30
0.0
  0
ENDBLK
  5
206
330
1FA
100
AcDbEntity
  8
0
100
AcDbBlockEnd
  0
BLOCK
  5
21F
330
214
100
AcDbEntity
  8
0
100
AcDbBlockBegin
  2
*D6
 70
     1
 10
0.0
 20
0.0
 30
0.0
  3
*D6
  1

  0
LINE
  5
41C
330
214
100
AcDbEntity
  8
dim
 62
     0
370
    -2
100
AcDbLine
 10
877.4927720373344
 20
459.0697323101649
 30
0.0
 11
604.1189296648999
 21
459.0697323101649
 31
0.0
  0
LINE
  5
41D
330
214
100
AcDbEntity
  8
dim
 62
     0
370
    -2
100
AcDbLine
 10
877.4927720373344
 20
295.0697323101648
 30
0.0
 11
604.1189296648999
 21
295.0697323101648
 31
0.0
  0
LINE
  5
41E
330
214
100
AcDbEntity
  8
dim
 62
     0
370
    -2
100
AcDbLine
 10
605.3689296648999
 20
451.5697323101647
 30
0.0
 11
605.3689296648999
 21
396.4447323101649
 31
0.0
  0
LINE
  5
41F
330
214
100
AcDbEntity
  8
dim
 62
     0
370
    -2
100
AcDbLine
 10
605.3689296648999
 20
302.5697323101649
 30
0.0
 11
605.3689296648999
 21
357.6947323101649
 31
0.0
  0
SOLID
  5
420
330
214
100
AcDbEntity
  8
dim
 62
     0
100
AcDbTrace
 10
604.1189296648999
 20
451.5697323101647
 30
0.0
 11
606.6189296649
 21
451.5697323101647
 31
0.0
 12
605.3689296648999
 22
459.0697323101649
 32
0.0
 13
605.3689296648999
 23
459.0697323101649
 33
0.0
  0
SOLID
  5
421
330
214
100
AcDbEntity
  8
dim
 62
     0
100
AcDbTrace
 10
604.1189296648999
 20
302.5697323101649
 30
0.0
 11
606.6189296649
 21
302.5697323101649
 31
0.0
 12
605.3689296648999
 22
295.0697323101648
 32
0.0
 13
605.3689296648999
 23
295.0697323101648
 33
0.0
  0
MTEXT
  5
422
330
214
100
AcDbEntity
  8
dim
 62
     0
100
AcDbMText
 10
605.3689296648997
 20
377.069732310165
 30
0.0
 40
7.5
 41
0.0
 46
0.0
 71
     5
 72
     1
  1
6-1/2"
 11
0.0000000000000001
 21
1.0
 31
0.0
 73
     1
 44
1.0
  0
POINT
  5
423
330
214
100
AcDbEntity
  8
Defpoints
 62
     0
100
AcDbPoint
 10
878.1177720373344
 20
459.0697323101649
 30
0.0
  0
POINT
  5
424
330
214
100
AcDbEntity
  8
Defpoints
 62
     0
100
AcDbPoint
 10
878.1177720373344
 20
295.0697323101648
 30
0.0
  0
POINT
  5
425
330
214
100
AcDbEntity
  8
Defpoints
 62
     0
100
AcDbPoint
 10
605.3689296648999
 20
295.0697323101648
 30
0.0
  0
ENDBLK
  5
220
330
214
100
AcDbEntity
  8
0
100
AcDbBlockEnd
  0
BLOCK
  5
239
330
22E
100
AcDbEntity
  8
0
100
AcDbBlockBegin
  2
*D7
 70
     1
 10
0.0
 20
0.0
 30
0.0
  3
*D7
  1

  0
LINE
  5
426
330
22E
100
AcDbEntity
  8
dim
 62
     0
370
    -2
100
AcDbLine
 10
877.4927720373344
 20
981.8752129365176
 30
0.0
 11
553.8733426011768
 21
981.8752129365178
 31
0.0
  0
LINE
  5
427
330
22E
100
AcDbEntity
  8
dim
 62
     0
370
    -2
100
AcDbLine
 10
877.4927720373344
 20
576.8752129365176
 30
0.0
 11
553.8733426011766
 21
576.8752129365177
 31
0.0
  0
LINE
  5
428
330
22E
100
AcDbEntity
  8
dim
 62
     0
370
    -2
100
AcDbLine
 10
555.1233426011768
 20
974.3752129365176
 30
0.0
 11
555.1233426011768
 21
789.4772682756189
 31
0.0
  0
LINE
  5
429
330
22E
100
AcDbEntity
  8
dim
 62
     0
370
    -2
100
AcDbLine
 10
555.1233426011767
 20
584.3752129365177
 30
0.0
 11
555.1233426011768
 21
773.2272682756189
 31
0.0
  0
SOLID
  5
42A
330
22E
100
AcDbEntity
  8
dim
 62
     0
100
AcDbTrace
 10
553.8733426011768
 20
974.3752129365176
 30
0.0
 11
556.3733426011769
 21
974.3752129365176
 31
0.0
 12
555.1233426011768
 22
981.8752129365178
 32
0.0
 13
555.1233426011768
 23
981.8752129365178
 33
0.0
  0
SOLID
  5
42B
330
22E
100
AcDbEntity
  8
dim
 62
     0
100
AcDbTrace
 10
553.8733426011766
 20
584.3752129365177
 30
0.0
 11
556.3733426011769
 21
584.3752129365177
 31
0.0
 12
555.1233426011767
 22
576.8752129365177
 32
0.0
 13
555.1233426011767
 23
576.8752129365177
 33
0.0
  0
MTEXT
  5
42C
330
22E
100
AcDbEntity
  8
dim
 62
     0
100
AcDbMText
 10
555.1233426011767
 20
781.352268275619
 30
0.0
 40
7.5
 41
0.0
 46
0.0
 71
     5
 72
     1
  1
16"
 11
0.0000000000000001
 21
1.0
 31
0.0
 73
     1
 44
1.0
  0
POINT
  5
42D
330
22E
100
AcDbEntity
  8
Defpoints
 62
     0
100
AcDbPoint
 10
878.1177720373344
 20
981.8752129365176
 30
0.0
  0
POINT
  5
42E
330
22E
100
AcDbEntity
  8
Defpoints
 62
     0
100
AcDbPoint
 10
878.1177720373344
 20
576.8752129365176
 30
0.0
  0
POINT
  5
42F
330
22E
100
AcDbEntity
  8
Defpoints
 62
     0
100
AcDbPoint
 10
555.1233426011767
 20
576.8752129365177
 30
0.0
  0
ENDBLK
  5
23A
330
22E
100
AcDbEntity
  8
0
100
AcDbBlockEnd
  0
BLOCK
  5
322
330
319
100
AcDbEntity
  8
0
100
AcDbBlockBegin
  2
*D8
 70
     1
 10
0.0
 20
0.0
 30
0.0
  3
*D8
  1

  0
LINE
  5
430
330
319
100
AcDbEntity
  8
dim
 62
     0
370
    -2
100
AcDbLine
 10
814.3916487383203
 20
847.7320947903898
 30
0.0
 11
849.122288196002
 21
848.3450999123911
 31
0.0
  0
LINE
  5
431
330
319
100
AcDbEntity
  8
dim
 62
     0
370
    -2
100
AcDbLine
 10
907.113255878667
 20
849.3686560799243
 30
0.0
 11
914.6120879065977
 21
849.5010124808981
 31
0.0
  0
MTEXT
  5
432
330
319
100
AcDbEntity
  8
dim
 62
     0
100
AcDbMText
 10
797.14430007953
 20
847.4276744504862
 30
0.0
 40
7.5
 41
0.0
 46
0.0
 71
     5
 72
     1
  1
{\H1.4x;%%C1\H0.7x;\S11/16;\H1.4286x;"}
 11
0.9998442703907771
 21
0.0176475201298807
 31
0.0
 73
     1
 44
1.0
  0
LINE
  5
433
330
319
100
AcDbEntity
  8
dim
 62
     0
370
    -2
100
AcDbLine
 10
899.6144238507364
 20
849.23629967895
 30
0.0
 11
856.6211202239328
 21
848.4774563133651
 31
0.0
  0
SOLID
  5
434
330
319
100
AcDbEntity
  8
dim
 62
     0
100
AcDbTrace
 10
907.0911964785048
 20
850.6184614179126
 30
0.0
 11
907.1353152788297
 21
848.1188507419354
 31
0.0
 12
899.6144238507364
 22
849.23629967895
 32
0.0
 13
899.6144238507364
 23
849.23629967895
 33
0.0
  0
SOLID
  5
435
330
319
100
AcDbEntity
  8
dim
 62
     0
100
AcDbTrace
 10
849.1002287958396
 20
849.5949052503796
 30
0.0
 11
849.1443475961641
 21
847.0952945744025
 31
0.0
 12
856.6211202239328
 22
848.4774563133651
 32
0.0
 13
856.6211202239328
 23
848.4774563133651
 33
0.0
  0
POINT
  5
436
330
319
100
AcDbEntity
  8
Defpoints
 62
     0
100
AcDbPoint
 10
856.6211202239328
 20
848.4774563133651
 30
0.0
  0
POINT
  5
437
330
319
100
AcDbEntity
  8
Defpoints
 62
     0
100
AcDbPoint
 10
899.6144238507364
 20
849.23629967895
 30
0.0
  0
ENDBLK
  5
323
330
319
100
AcDbEntity
  8
0
100
AcDbBlockEnd
  0
BLOCK
  5
444
330
439
100
AcDbEntity
  8
0
100
AcDbBlockBegin
  2
*D9
 70
     1
 10
0.0
 20
0.0
 30
0.0
  3
*D9
  1

  0
LINE
  5
447
330
439
100
AcDbEntity
  8
dash
 62
     0
370
    -2
100
AcDbLine
 10
878.7427720373344
 20
950.2502129365176
 30
0.0
 11
879.3677720373345
 21
950.2502129365176
 31
0.0
  0
LINE
  5
448
330
439
100
AcDbEntity
  8
dash
 62
     0
370
    -2
100
AcDbLine
 10
877.4927720373344
 20
607.2502129365175
 30
0.0
 11
876.8677720373345
 21
607.2502129365175
 31
0.0
  0
LINE
  5
449
330
439
100
AcDbEntity
  8
dash
 62
     0
370
    -2
100
AcDbLine
 10
878.1177720373346
 20
942.7502129365176
 30
0.0
 11
878.1177720373346
 21
789.3752129365175
 31
0.0
  0
LINE
  5
44A
330
439
100
AcDbEntity
  8
dash
 62
     0
370
    -2
100
AcDbLine
 10
878.1177720373344
 20
614.7502129365175
 30
0.0
 11
878.1177720373346
 21
768.1252129365175
 31
0.0
  0
SOLID
  5
44B
330
439
100
AcDbEntity
  8
dash
 62
     0
100
AcDbTrace
 10
876.8677720373345
 20
942.7502129365176
 30
0.0
 11
879.3677720373345
 21
942.7502129365176
 31
0.0
 12
878.1177720373346
 22
950.2502129365176
 32
0.0
 13
878.1177720373346
 23
950.2502129365176
 33
0.0
  0
SOLID
  5
44C
330
439
100
AcDbEntity
  8
dash
 62
     0
100
AcDbTrace
 10
876.8677720373345
 20
614.7502129365175
 30
0.0
 11
879.3677720373345
 21
614.7502129365175
 31
0.0
 12
878.1177720373344
 22
607.2502129365175
 32
0.0
 13
878.1177720373344
 23
607.2502129365175
 33
0.0
  0
MTEXT
  5
44D
330
439
100
AcDbEntity
  8
dash
 62
     0
100
AcDbMText
 10
878.1177720373344
 20
778.7502129365178
 30
0.0
 40
7.5
 41
0.0
 46
0.0
 71
     5
 72
     1
  1
343
 11
0.0000000000000001
 21
1.0
 31
0.0
 73
     1
 44
1.0
  0
POINT
  5
44E
330
439
100
AcDbEntity
  8
Defpoints
 62
     0
100
AcDbPoint
 10
878.1177720373344
 20
950.2502129365176
 30
0.0
  0
POINT
  5
44F
330
439
100
AcDbEntity
  8
Defpoints
 62
     0
100
AcDbPoint
 10
878.1177720373344
 20
607.2502129365175
 30
0.0
  0
POINT
  5
450
330
439
100
AcDbEntity
  8
Defpoints
 62
     0
100
AcDbPoint
 10
878.1177720373344
 20
607.2502129365175
 30
0.0
  0
ENDBLK
  5
445
330
439
100
AcDbEntity
  8
0
100
AcDbBlockEnd
  0
BLOCK
  5
45E
330
453
100
AcDbEntity
  8
0
100
AcDbBlockBegin
  2
*D10
 70
     1
 10
0.0
 20
0.0
 30
0.0
  3
*D10
  1

  0
LINE
  5
522
330
453
100
AcDbEntity
  8
0
 62
     0
370
    -2
100
AcDbLine
 10
878.7427720373344
 20
950.2502129365176
 30
0.0
 11
879.3677720373349
 21
950.2502129365176
 31
0.0
  0
LINE
  5
523
330
453
100
AcDbEntity
  8
0
 62
     0
370
    -2
100
AcDbLine
 10
878.7427720373344
 20
607.2502129365175
 30
0.0
 11
879.3677720373349
 21
607.2502129365175
 31
0.0
  0
LINE
  5
524
330
453
100
AcDbEntity
  8
0
 62
     0
370
    -2
100
AcDbLine
 10
878.1177720373349
 20
942.7502129365176
 30
0.0
 11
878.1177720373348
 21
735.2574564816133
 31
0.0
  0
LINE
  5
525
330
453
100
AcDbEntity
  8
0
 62
     0
370
    -2
100
AcDbLine
 10
878.1177720373348
 20
614.7502129365175
 30
0.0
 11
878.1177720373348
 21
691.5074564816133
 31
0.0
  0
SOLID
  5
526
330
453
100
AcDbEntity
  8
0
 62
     0
100
AcDbTrace
 10
876.8677720373347
 20
942.7502129365176
 30
0.0
 11
879.3677720373349
 21
942.7502129365176
 31
0.0
 12
878.1177720373349
 22
950.2502129365176
 32
0.0
 13
878.1177720373349
 23
950.2502129365176
 33
0.0
  0
SOLID
  5
527
330
453
100
AcDbEntity
  8
0
 62
     0
100
AcDbTrace
 10
876.8677720373347
 20
614.7502129365175
 30
0.0
 11
879.3677720373349
 21
614.7502129365175
 31
0.0
 12
878.1177720373348
 22
607.2502129365175
 32
0.0
 13
878.1177720373348
 23
607.2502129365175
 33
0.0
  0
MTEXT
  5
528
330
453
100
AcDbEntity
  8
0
 62
     0
100
AcDbMText
 10
878.1177720373348
 20
713.3824564816136
 30
0.0
 40
7.5
 41
0.0
 46
0.0
 71
     5
 72
     1
  1
13-1/2"
 11
0.0000000000000001
 21
1.0
 31
0.0
 73
     1
 44
1.0
  0
POINT
  5
529
330
453
100
AcDbEntity
  8
Defpoints
 62
     0
100
AcDbPoint
 10
878.1177720373344
 20
950.2502129365176
 30
0.0
  0
POINT
  5
52A
330
453
100
AcDbEntity
  8
Defpoints
 62
     0
100
AcDbPoint
 10
878.1177720373344
 20
607.2502129365175
 30
0.0
  0
POINT
  5
52B
330
453
100
AcDbEntity
  8
Defpoints
 62
     0
100
AcDbPoint
 10
878.1177720373348
 20
607.2502129365175
 30
0.0
  0
ENDBLK
  5
45F
330
453
100
AcDbEntity
  8
0
100
AcDbBlockEnd
  0
BLOCK
  5
496
330
48B
100
AcDbEntity
  8
0
100
AcDbBlockBegin
  2
*D11
 70
     1
 10
0.0
 20
0.0
 30
0.0
  3
*D11
  1

  0
LINE
  5
518
330
48B
100
AcDbEntity
  8
0
 62
     0
370
    -2
100
AcDbLine
 10
667.1177720373345
 20
779.3752129365175
 30
0.0
 11
667.1177720373345
 21
780.0002129365175
 31
0.0
  0
LINE
  5
519
330
48B
100
AcDbEntity
  8
0
 62
     0
370
    -2
100
AcDbLine
 10
1089.117772037334
 20
779.3752129365175
 30
0.0
 11
1089.117772037334
 21
780.0002129365175
 31
0.0
  0
LINE
  5
51A
330
48B
100
AcDbEntity
  8
0
 62
     0
370
    -2
100
AcDbLine
 10
674.6177720373345
 20
778.7502129365175
 30
0.0
 11
752.0389809014741
 21
778.7502129365175
 31
0.0
  0
LINE
  5
51B
330
48B
100
AcDbEntity
  8
0
 62
     0
370
    -2
100
AcDbLine
 10
1081.617772037334
 20
778.7502129365175
 30
0.0
 11
798.2889809014741
 21
778.7502129365175
 31
0.0
  0
SOLID
  5
51C
330
48B
100
AcDbEntity
  8
0
 62
     0
100
AcDbTrace
 10
674.6177720373345
 20
780.0002129365175
 30
0.0
 11
674.6177720373345
 21
777.5002129365175
 31
0.0
 12
667.1177720373345
 22
778.7502129365175
 32
0.0
 13
667.1177720373345
 23
778.7502129365175
 33
0.0
  0
SOLID
  5
51D
330
48B
100
AcDbEntity
  8
0
 62
     0
100
AcDbTrace
 10
1081.617772037334
 20
780.0002129365175
 30
0.0
 11
1081.617772037334
 21
777.5002129365175
 31
0.0
 12
1089.117772037334
 22
778.7502129365175
 32
0.0
 13
1089.117772037334
 23
778.7502129365175
 33
0.0
  0
MTEXT
  5
51E
330
48B
100
AcDbEntity
  8
0
 62
     0
100
AcDbMText
 10
775.1639809014741
 20
778.7502129365175
 30
0.0
 40
7.5
 41
0.0
 46
0.0
 71
     5
 72
     1
  1
16-5/8"
 73
     1
 44
1.0
  0
POINT
  5
51F
330
48B
100
AcDbEntity
  8
Defpoints
 62
     0
100
AcDbPoint
 10
667.1177720373345
 20
778.7502129365175
 30
0.0
  0
POINT
  5
520
330
48B
100
AcDbEntity
  8
Defpoints
 62
     0
100
AcDbPoint
 10
1089.117772037334
 20
778.7502129365175
 30
0.0
  0
POINT
  5
521
330
48B
100
AcDbEntity
  8
Defpoints
 62
     0
100
AcDbPoint
 10
1089.117772037334
 20
778.7502129365175
 30
0.0
  0
ENDBLK
  5
497
330
48B
100
AcDbEntity
  8
0
100
AcDbBlockEnd
  0
ENDSEC
  0
SECTION
  2
ENTITIES
  0
ELLIPSE
  5
13C
330
1F
100
AcDbEntity
  8
con
100
AcDbEllipse
 10
878.1177720373344
 20
779.3752129365175
 30
0.0
 11
-247.5
 21
0.0
 31
0.0
210
0.0
220
0.0
230
1.0
 40
0.8181818181818181
 41
0.0
 42
6.283185307179584
  0
ELLIPSE
  5
141
330
1F
100
AcDbEntity
  8
con
100
AcDbEllipse
 10
878.1177720373344
 20
779.3752129365175
 30
0.0
 11
-222.5
 21
0.0
 31
0.0
210
0.0
220
0.0
230
1.0
 40
0.8202247191011235
 41
0.0
 42
6.283185307179584
  0
CIRCLE
  5
143
102
{ACAD_REACTORS
330
32D
102
}
330
1F
100
AcDbEntity
  8
con
100
AcDbCircle
 10
878.1177720373344
 20
848.8568779961575
 30
0.0
 40
21.5
  0
LINE
  5
146
330
1F
100
AcDbEntity
  8
con
100
AcDbLine
 10
1120.617772037334
 20
459.0697323101649
 30
0.0
 11
635.6177720373342
 21
459.0697323101649
 31
0.0
  0
LINE
  5
147
330
1F
100
AcDbEntity
  8
con
100
AcDbLine
 10
1125.617772037334
 20
454.069732310165
 30
0.0
 11
1125.617772037334
 21
439.0697323101647
 31
0.0
  0
LINE
  5
149
330
1F
100
AcDbEntity
  8
con
100
AcDbLine
 10
630.6177720373344
 20
439.0697323101647
 30
0.0
 11
630.6177720373344
 21
454.0697323101648
 31
0.0
  0
LINE
  5
14F
330
1F
100
AcDbEntity
  8
con
100
AcDbLine
 10
630.6177720373344
 20
439.0697323101647
 30
0.0
 11
819.1696560225789
 21
439.0697323101647
 31
0.0
  0
LINE
  5
150
330
1F
100
AcDbEntity
  8
con
100
AcDbLine
 10
898.6437140299566
 20
254.069732310165
 30
0.0
 11
857.5918300447122
 21
254.069732310165
 31
0.0
  0
LINE
  5
15A
330
1F
100
AcDbEntity
  8
con
100
AcDbLine
 10
839.1405014881291
 20
420.1492374704646
 30
0.0
 11
847.6064073119371
 21
263.529979730015
 31
0.0
  0
LINE
  5
15B
330
1F
100
AcDbEntity
  8
con
100
AcDbLine
 10
917.0950425865397
 20
420.1492374704646
 30
0.0
 11
908.6291367627318
 21
263.529979730015
 31
0.0
  0
LINE
  5
15C
330
1F
100
AcDbEntity
  8
con
100
AcDbLine
 10
630.6177720373344
 20
439.0697323101647
 30
0.0
 11
642.9913624954004
 21
439.0697323101647
 31
0.0
  0
SPLINE
  5
162
330
1F
100
AcDbEntity
  8
图层1
100
AcDbSpline
210
0.0
220
0.0
230
1.0
 70
     8
 71
     3
 72
     9
 73
     5
 74
     3
 42
0.0000000001
 43
0.0000000001
 44
0.0000000001
 40
0.0
 40
0.0
 40
0.0
 40
0.0
 40
95.4796071439992
 40
258.1261020455485
 40
258.1261020455485
 40
258.1261020455485
 40
258.1261020455485
 10
676.1810848760935
 20
459.0697323101649
 30
0.0
 10
680.2265348497435
 20
425.1171994046437
 30
0.0
 10
691.1632810718309
 20
333.3275991368318
 30
0.0
 10
786.0886350233108
 20
309.8580241022511
 30
0.0
 10
845.9015558211181
 20
295.0697323101648
 30
0.0
 11
676.1810848760935
 21
459.0697323101649
 31
0.0
 11
699.8089628744882
 21
366.5598476401178
 31
0.0
 11
845.9015558211181
 21
295.0697323101648
 31
0.0
  0
SPLINE
  5
164
330
1F
100
AcDbEntity
  8
图层1
100
AcDbSpline
210
0.0
220
0.0
230
1.0
 70
     8
 71
     3
 72
     9
 73
     5
 74
     3
 42
0.0000000001
 43
0.0000000001
 44
0.0000000001
 40
0.0
 40
0.0
 40
0.0
 40
0.0
 40
95.47960714399929
 40
258.126102045548
 40
258.126102045548
 40
258.126102045548
 40
258.126102045548
 10
1080.054459198575
 20
459.0697323101649
 30
0.0
 10
1076.009009224925
 20
425.1171994046437
 30
0.0
 10
1065.072263002837
 20
333.327599136832
 30
0.0
 10
970.1469090513574
 20
309.8580241022513
 30
0.0
 10
910.3339882535506
 20
295.0697323101648
 30
0.0
 11
1080.054459198575
 21
459.0697323101649
 31
0.0
 11
1056.42658120018
 21
366.5598476401178
 31
0.0
 11
910.3339882535506
 21
295.0697323101648
 31
0.0
  0
LINE
  5
165
330
1F
100
AcDbEntity
  8
图层1
100
AcDbLine
 10
845.9015558211181
 20
295.0697323101648
 30
0.0
 11
910.3339882535506
 21
295.0697323101648
 31
0.0
  0
SPLINE
  5
166
330
1F
100
AcDbEntity
  8
con
100
AcDbSpline
210
0.0
220
0.0
230
1.0
 70
     8
 71
     3
 72
     9
 73
     5
 74
     0
 42
0.0000000001
 43
0.0000000001
 40
7.14271982746898
 40
7.14271982746898
 40
7.14271982746898
 40
7.14271982746898
 40
112.6271965073104
 40
280.801959598463
 40
280.801959598463
 40
280.801959598463
 40
280.801959598463
 10
652.6326225548317
 20
431.7241822468665
 30
0.0
 10
662.5800419649736
 20
395.5940386237669
 30
0.0
 10
690.0480213044333
 20
303.5751527593173
 30
0.0
 10
785.4756841806667
 20
281.6649387411924
 30
0.0
 10
847.183143886907
 20
271.3603530930725
 30
0.0
  0
SPLINE
  5
167
330
1F
100
AcDbEntity
  8
con
100
AcDbSpline
210
0.0
220
0.0
230
1.0
 70
     8
 71
     3
 72
     9
 73
     5
 74
     0
 42
0.0000000001
 43
0.0000000001
 40
7.142719827467987
 40
7.142719827467987
 40
7.142719827467987
 40
7.142719827467987
 40
112.6271965073104
 40
280.801959598463
 40
280.801959598463
 40
280.801959598463
 40
280.801959598463
 10
1103.602921519837
 20
431.7241822468675
 30
0.0
 10
1093.655502109695
 20
395.5940386237677
 30
0.0
 10
1066.187522770236
 20
303.5751527593175
 30
0.0
 10
970.759859894002
 20
281.6649387411924
 30
0.0
 10
909.0524001877616
 20
271.3603530930725
 30
0.0
  0
ARC
  5
168
330
1F
100
AcDbEntity
  8
con
100
AcDbCircle
 10
635.6177720373342
 20
454.0697323101648
 30
0.0
 40
5.0
100
AcDbArc
 50
90.0
 51
180.0
  0
ARC
  5
169
330
1F
100
AcDbEntity
  8
con
100
AcDbCircle
 10
1120.617772037334
 20
454.069732310165
 30
0.0
 40
5.0
100
AcDbArc
 50
0.0
 51
90.0
  0
ARC
  5
16A
330
1F
100
AcDbEntity
  8
con
100
AcDbCircle
 10
819.1696560225789
 20
419.0697323101647
 30
0.0
 40
20.0
100
AcDbArc
 50
3.094058058917078
 51
90.0
  0
LINE
  5
16B
330
1F
100
AcDbEntity
  8
con
100
AcDbLine
 10
1113.244181579266
 20
439.0697323101647
 30
0.0
 11
1125.617772037334
 21
439.0697323101647
 31
0.0
  0
ARC
  5
16C
330
1F
100
AcDbEntity
  8
con
100
AcDbCircle
 10
937.0658880520897
 20
419.0697323101647
 30
0.0
 40
20.0
100
AcDbArc
 50
90.0
 51
176.9059419410829
  0
ARC
  5
16D
330
1F
100
AcDbEntity
  8
con
100
AcDbCircle
 10
857.5918300447122
 20
264.069732310165
 30
0.0
 40
10.0
100
AcDbArc
 50
183.0940580589171
 51
270.0
  0
ARC
  5
16E
330
1F
100
AcDbEntity
  8
con
100
AcDbCircle
 10
898.6437140299566
 20
264.069732310165
 30
0.0
 40
10.0
100
AcDbArc
 50
270.0
 51
356.9059419410828
  0
ARC
  5
16F
330
1F
100
AcDbEntity
  8
con
100
AcDbCircle
 10
642.991362495402
 20
429.0697323101648
 30
0.0
 40
10.0
100
AcDbArc
 50
15.39339606369126
 51
90.00000000000843
  0
ARC
  5
170
330
1F
100
AcDbEntity
  8
con
100
AcDbCircle
 10
1113.244181579266
 20
429.0697323101642
 30
0.0
 40
10.0
100
AcDbArc
 50
90.00000000000129
 51
164.6066039362992
  0
LINE
  5
171
330
1F
100
AcDbEntity
  8
con
100
AcDbLine
 10
937.0658880520897
 20
439.0697323101647
 30
0.0
 11
1113.244181579266
 21
439.0697323101647
 31
0.0
  0
DIMENSION
  5
172
330
1F
100
AcDbEntity
  8
dim
100
AcDbDimension
  2
*D1
 10
1125.617772037334
 20
525.4185046124507
 30
0.0
 11
878.117772037334
 21
525.4185046124507
 31
0.0
 70
    32
  1
19-1/2"
 71
     5
 42
494.9999999999994
 73
     0
 74
     0
 75
     0
  3
ISO-25
100
AcDbAlignedDimension
 13
630.6177720373344
 23
779.3752129365175
 33
0.0
 14
1125.617772037334
 24
779.3752129365175
 34
0.0
100
AcDbRotatedDimension
  0
DIMENSION
  5
18D
330
1F
100
AcDbEntity
  8
dim
100
AcDbDimension
  2
*D2
 10
1100.617772037334
 20
550.4346399470363
 30
0.0
 11
878.117772037334
 21
550.4346399470363
 31
0.0
 70
    32
  1
17-1/2"
 71
     5
 42
444.9999999999994
 73
     0
 74
     0
 75
     0
  3
ISO-25
100
AcDbAlignedDimension
 13
655.6177720373344
 23
779.3752129365175
 33
0.0
 14
1100.617772037334
 24
779.3752129365175
 34
0.0
100
AcDbRotatedDimension
  0
DIMENSION
  5
1C1
330
1F
100
AcDbEntity
  8
dim
100
AcDbDimension
  2
*D4
 10
600.5067726445012
 20
596.8752129365176
 30
0.0
 11
600.5067726445012
 21
779.3752129365175
 31
0.0
 70
   160
  1
14-3/8"
 71
     5
 42
365.0000000000002
 73
     0
 74
     0
 75
     0
  3
ISO-25
100
AcDbAlignedDimension
 13
878.1177720373344
 23
961.8752129365176
 33
0.0
 14
878.1177720373344
 24
596.8752129365175
 34
0.0
 50
90.0
100
AcDbRotatedDimension
  0
DIMENSION
  5
1F9
330
1F
100
AcDbEntity
  8
dim
100
AcDbDimension
  2
*D5
 10
559.8552006997405
 20
254.0697323101651
 30
0.0
 11
559.8552006997405
 21
356.5697323101651
 31
0.0
 70
    32
  1
8-1/8"
 71
     5
 42
204.9999999999998
 73
     0
 74
     0
 75
     0
  3
ISO-25
100
AcDbAlignedDimension
 13
878.1177720373344
 23
459.0697323101649
 33
0.0
 14
878.1177720373344
 24
254.069732310165
 34
0.0
 50
90.0
100
AcDbRotatedDimension
  0
DIMENSION
  5
213
330
1F
100
AcDbEntity
  8
dim
100
AcDbDimension
  2
*D6
 10
605.3689296648999
 20
295.0697323101648
 30
0.0
 11
605.3689296648997
 21
377.069732310165
 31
0.0
 70
    32
  1
6-1/2"
 71
     5
 42
164.0
 73
     0
 74
     0
 75
     0
  3
ISO-25
100
AcDbAlignedDimension
 13
878.1177720373344
 23
459.0697323101649
 33
0.0
 14
878.1177720373344
 24
295.0697323101648
 34
0.0
 50
90.0
100
AcDbRotatedDimension
  0
DIMENSION
  5
22D
330
1F
100
AcDbEntity
  8
dim
100
AcDbDimension
  2
*D7
 10
555.1233426011767
 20
576.8752129365177
 30
0.0
 11
555.1233426011767
 21
781.352268275619
 31
0.0
 70
   160
  1
16"
 71
     5
 42
405.0
 73
     0
 74
     0
 75
     0
  3
ISO-25
100
AcDbAlignedDimension
 13
878.1177720373344
 23
981.8752129365176
 33
0.0
 14
878.1177720373344
 24
576.8752129365176
 34
0.0
 50
90.0
100
AcDbRotatedDimension
  0
DIMENSION
  5
318
102
{ACAD_XDICTIONARY
360
324
102
}
102
{ACAD_REACTORS
330
32D
102
}
330
1F
100
AcDbEntity
  8
dim
100
AcDbDimension
  2
*D8
 10
899.6144238507364
 20
849.23629967895
 30
0.0
 11
797.14430007953
 21
847.4276744504862
 31
0.0
 70
   163
  1
{\H1.4x;%%C1\H0.7x;\S11/16;\H1.4286x;"}
 71
     5
 42
43.0000000000001
 73
     0
 74
     0
 75
     0
  3
ISO-25
100
AcDbDiametricDimension
 15
856.6211202239328
 25
848.4774563133651
 35
0.0
 40
0.0
1001
ACAD
1000
DSTYLE
1002
{
1070
   288
1070
     1
1002
}
  0
LINE
  5
3AC
102
{ACAD_REACTORS
330
4A3
102
}
330
1F
100
AcDbEntity
  8
dash
100
AcDbLine
 10
878.1177720373344
 20
778.7502129365175
 30
0.0
 11
1089.117772037334
 21
778.7502129365175
 31
0.0
  0
LINE
  5
3AD
102
{ACAD_REACTORS
330
46B
102
}
330
1F
100
AcDbEntity
  8
dash
100
AcDbLine
 10
878.1177720373344
 20
778.7502129365175
 30
0.0
 11
878.1177720373344
 21
950.2502129365176
 31
0.0
  0
ELLIPSE
  5
3AF
330
1F
100
AcDbEntity
  8
dash
100
AcDbEllipse
 10
878.1177720373344
 20
778.7502129365175
 30
0.0
 11
-210.9999999999999
 21
0.0
 31
0.0
210
0.0
220
0.0
230
1.0
 40
0.8127962085308061
 41
0.0
 42
6.283185307179585
  0
DIMENSION
  5
452
102
{ACAD_XDICTIONARY
360
460
102
}
102
{ACAD_REACTORS
330
46B
102
}
330
1F
100
AcDbEntity
  8
0
100
AcDbDimension
  2
*D10
 10
878.1177720373348
 20
607.2502129365175
 30
0.0
 11
878.1177720373348
 21
713.3824564816136
 31
0.0
 70
   160
  1
13-1/2"
 71
     5
 42
343.0
 73
     0
 74
     0
 75
     0
  3
ISO-25
100
AcDbAlignedDimension
 13
878.1177720373344
 23
950.2502129365176
 33
0.0
 14
878.1177720373344
 24
607.2502129365175
 34
0.0
 50
90.0
100
AcDbRotatedDimension
  0
DIMENSION
  5
48A
102
{ACAD_XDICTIONARY
360
498
102
}
102
{ACAD_REACTORS
330
4A3
102
}
330
1F
100
AcDbEntity
  8
0
100
AcDbDimension
  2
*D11
 10
1089.117772037334
 20
778.7502129365175
 30
0.0
 11
775.1639809014741
 21
778.7502129365175
 31
0.0
 70
   160
  1
16-5/8"
 71
     5
 42
421.9999999999997
 73
     0
 74
     0
 75
     0
  3
ISO-25
100
AcDbAlignedDimension
 13
667.1177720373345
 23
778.7502129365175
 33
0.0
 14
1089.117772037334
 24
778.7502129365175
 34
0.0
100
AcDbRotatedDimension
  0
LEADER
  5
52C
330
1F
100
AcDbEntity
  8
0
100
AcDbLeader
  3
ISO-25
 73
     0
 40
7.812290127602418
 41
117.2901276024177
 76
     3
 10
1064.365086799979
 20
698.0878647062844
 30
0.0
 10
1050.916812300447
 20
716.4144001359886
 30
0.0
 10
1036.653486091065
 20
716.4144001359886
 30
0.0
340
52D
213
0.0
223
3.75
233
0.0
1001
ACAD
1000
DSTYLE
1002
{
1070
   147
1040
0.625
1070
    77
1070
     0
1002
}
  0
MTEXT
  5
52D
102
{ACAD_REACTORS
330
52C
102
}
330
1F
100
AcDbEntity
  8
0
100
AcDbMText
 10
1036.028486091065
 20
712.6644001359887
 30
0.0
 40
7.5
 41
0.0
 46
0.0
 71
     9
 72
     1
  1
{\fVerdana|b0|i0|c0|p34;CUT\fVerdana|b0|i0|c134|p34; \fVerdana|b0|i0|c0|p34;ALONG\fVerdana|b0|i0|c134|p34; \fVerdana|b0|i0|c0|p34;THIS\fVerdana|b0|i0|c134|p34; \fVerdana|b0|i0|c0|p34;LINE}
 73
     1
 44
1.0
  0
ENDSEC
  0
SECTION
  2
OBJECTS
  0
DICTIONARY
  5
C
330
0
100
AcDbDictionary
281
     1
  3
ACAD_COLOR
350
6B
  3
ACAD_GROUP
350
D
  3
ACAD_LAYOUT
350
1A
  3
ACAD_MATERIAL
350
6A
  3
ACAD_MLINESTYLE
350
17
  3
ACAD_PLOTSETTINGS
350
19
  3
ACAD_PLOTSTYLENAME
350
E
  3
ACAD_TABLESTYLE
350
7E
  3
ACAD_VISUALSTYLE
350
F0
  3
AcDbVariableDictionary
350
5E
  0
DICTIONARY
  5
12C
330
2
100
AcDbDictionary
280
     1
281
     1
  3
ACAD_LAYERFILTERS
360
539
  3
ACLYDICTIONARY
360
538
  0
DICTIONARY
  5
14B
330
1F
100
AcDbDictionary
280
     1
281
     1
  3
ACAD_SORTENTS
360
14C
  0
DICTIONARY
  5
324
330
318
100
AcDbDictionary
280
     1
281
     1
  3
ACAD_DIMASSOC
360
32D
  0
DICTIONARY
  5
460
330
452
100
AcDbDictionary
280
     1
281
     1
  3
ACAD_DIMASSOC
360
46B
  0
DICTIONARY
  5
498
330
48A
100
AcDbDictionary
280
     1
281
     1
  3
ACAD_DIMASSOC
360
4A3
  0
DICTIONARY
  5
6B
102
{ACAD_REACTORS
330
C
102
}
330
C
100
AcDbDictionary
281
     1
  0
DICTIONARY
  5
D
102
{ACAD_REACTORS
330
C
102
}
330
C
100
AcDbDictionary
281
     1
  0
DICTIONARY
  5
1A
102
{ACAD_REACTORS
330
C
102
}
330
C
100
AcDbDictionary
281
     1
  3
Model
350
22
  3
布局1
350
D3
  3
布局2
350
D7
  0
DICTIONARY
  5
6A
102
{ACAD_REACTORS
330
C
102
}
330
C
100
AcDbDictionary
281
     1
  3
ByBlock
350
EE
  3
ByLayer
350
ED
  3
Global
350
EF
  0
DICTIONARY
  5
17
102
{ACAD_REACTORS
330
C
102
}
330
C
100
AcDbDictionary
281
     1
  3
Standard
350
18
  0
DICTIONARY
  5
19
102
{ACAD_REACTORS
330
C
102
}
330
C
100
AcDbDictionary
281
     1
  0
ACDBDICTIONARYWDFLT
  5
E
102
{ACAD_REACTORS
330
C
102
}
330
C
100
AcDbDictionary
281
     1
  3
Normal
350
F
100
AcDbDictionaryWithDefault
340
F
  0
DICTIONARY
  5
7E
102
{ACAD_REACTORS
330
C
102
}
330
C
100
AcDbDictionary
281
     1
  3
Standard
350
7F
  0
DICTIONARY
  5
F0
102
{ACAD_REACTORS
330
C
102
}
330
C
100
AcDbDictionary
281
     1
  3
2dWireframe
350
F6
  3
3D Hidden
350
F8
  3
3dWireframe
350
F7
  3
Basic
350
F5
  3
Brighten
350
FC
  3
ColorChange
350
100
  3
Conceptual
350
F9
  3
Dim
350
FB
  3
Facepattern
350
FF
  3
Flat
350
F1
  3
FlatWithEdges
350
F2
  3
Gouraud
350
F3
  3
GouraudWithEdges
350
F4
  3
Linepattern
350
FE
  3
Realistic
350
FA
  3
Thicken
350
FD
  0
DICTIONARY
  5
5E
102
{ACAD_REACTORS
330
C
102
}
330
C
100
AcDbDictionary
281
     1
  3
CTABLESTYLE
350
84
  3
DIMASSOC
350
5F
  3
HIDETEXT
350
63
  0
DICTIONARY
  5
539
102
{ACAD_REACTORS
330
12C
102
}
330
12C
100
AcDbDictionary
281
     1
  0
DICTIONARY
  5
538
102
{ACAD_REACTORS
330
12C
102
}
330
12C
100
AcDbDictionary
281
     1
1001
ACAD
1000
<All
  0
SORTENTSTABLE
  5
14C
102
{ACAD_REACTORS
330
14B
102
}
330
14B
100
AcDbSortentsTable
330
1F
331
16C
  5
16E
331
167
  5
16C
331
143
  5
143
331
162
  5
168
331
150
  5
14E
331
16A
  5
164
331
165
  5
16A
331
146
  5
146
331
141
  5
141
331
15B
  5
165
331
13C
  5
13C
331
149
  5
151
331
16D
  5
162
331
168
  5
15C
331
16B
  5
16D
331
147
  5
14F
331
166
  5
16B
331
15C
  5
167
331
14F
  5
15F
331
16E
  5
166
331
169
  5
150
331
164
  5
169
331
15A
  5
160
  0
DIMASSOC
  5
32D
102
{ACAD_REACTORS
330
324
102
}
330
324
100
AcDbDimAssoc
330
318
 90
        2
 70
     0
 71
     0
  1
AcDbOsnapPointRef
 72
     3
331
143
 73
     2
 91
        0
 40
0.0
 10
0.0
 20
0.0
 30
0.0
 75
     0
  0
DIMASSOC
  5
46B
102
{ACAD_REACTORS
330
460
102
}
330
460
100
AcDbDimAssoc
330
452
 90
        1
 70
     0
 71
     0
  1
AcDbOsnapPointRef
 72
     1
331
3AD
 73
     2
 91
        0
 40
1.0
 10
0.0
 20
0.0
 30
2.000000000000000E+50
 75
     0
  0
DIMASSOC
  5
4A3
102
{ACAD_REACTORS
330
498
102
}
330
498
100
AcDbDimAssoc
330
48A
 90
        2
 70
     0
 71
     0
  1
AcDbOsnapPointRef
 72
     1
331
3AC
 73
     2
 91
        0
 40
1.0
 10
0.0
 20
0.0
 30
2.000000000000000E+50
 75
     0
  0
LAYOUT
  5
22
102
{ACAD_REACTORS
330
1A
102
}
330
1A
100
AcDbPlotSettings
  1

  2
none_device
  4
ISO_A4_(210.00_x_297.00_MM)
  6

 40
7.5
 41
20.0
 42
7.5
 43
20.0
 44
210.0
 45
297.0
 46
11.54999923706054
 47
-13.65000009536743
 48
0.0
 49
0.0
140
0.0
141
0.0
142
1.0
143
8.704084754739808
 70
 11952
 72
     1
 73
     0
 74
     0
  7

 75
     0
147
0.1148885871608098
 76
     0
 77
     2
 78
   300
148
0.0
149
0.0
100
AcDbLayout
  1
Model
 70
     1
 71
     0
 10
0.0
 20
0.0
 11
12.0
 21
9.0
 12
0.0
 22
0.0
 32
0.0
 14
0.0
 24
0.0
 34
0.0
 15
0.0
 25
0.0
 35
0.0
146
0.0
 13
0.0
 23
0.0
 33
0.0
 16
1.0
 26
0.0
 36
0.0
 17
0.0
 27
1.0
 37
0.0
 76
     0
330
1F
331
EB
1001
ACAD_PSEXT
1000
None
1000
None
1000
Not applicable
1000
The layout will not be plotted unless a new plotter configuration name is selected.
1070
     0
  0
LAYOUT
  5
D3
102
{ACAD_REACTORS
330
1A
102
}
330
1A
100
AcDbPlotSettings
  1

  2
C:\Documents and Settings\basas\Application Data\Autodesk\AutoCAD 2005\R16.1\enu\plotters\Default Windows System Printer.pc3
  4

  6

 40
0.0
 41
0.0
 42
0.0
 43
0.0
 44
0.0
 45
0.0
 46
0.0
 47
0.0
 48
0.0
 49
0.0
140
0.0
141
0.0
142
1.0
143
1.0
 70
   688
 72
     0
 73
     0
 74
     5
  7

 75
    16
147
1.0
 76
     0
 77
     2
 78
   300
148
0.0
149
0.0
100
AcDbLayout
  1
布局1
 70
     1
 71
     1
 10
0.0
 20
0.0
 11
12.0
 21
9.0
 12
0.0
 22
0.0
 32
0.0
 14
0.0
 24
0.0
 34
0.0
 15
0.0
 25
0.0
 35
0.0
146
0.0
 13
0.0
 23
0.0
 33
0.0
 16
1.0
 26
0.0
 36
0.0
 17
0.0
 27
1.0
 37
0.0
 76
     0
330
D2
  0
LAYOUT
  5
D7
102
{ACAD_REACTORS
330
1A
102
}
330
1A
100
AcDbPlotSettings
  1

  2
C:\Documents and Settings\basas\Application Data\Autodesk\AutoCAD 2005\R16.1\enu\plotters\Default Windows System Printer.pc3
  4

  6

 40
0.0
 41
0.0
 42
0.0
 43
0.0
 44
0.0
 45
0.0
 46
0.0
 47
0.0
 48
0.0
 49
0.0
140
0.0
141
0.0
142
1.0
143
1.0
 70
   688
 72
     0
 73
     0
 74
     5
  7

 75
    16
147
1.0
 76
     0
 77
     2
 78
   300
148
0.0
149
0.0
100
AcDbLayout
  1
布局2
 70
     1
 71
     2
 10
0.0
 20
0.0
 11
12.0
 21
9.0
 12
0.0
 22
0.0
 32
0.0
 14
0.0
 24
0.0
 34
0.0
 15
0.0
 25
0.0
 35
0.0
146
0.0
 13
0.0
 23
0.0
 33
0.0
 16
1.0
 26
0.0
 36
0.0
 17
0.0
 27
1.0
 37
0.0
 76
     0
330
D6
  0
MATERIAL
  5
EE
102
{ACAD_REACTORS
330
6A
102
}
330
6A
100
AcDbMaterial
  1
ByBlock
  0
MATERIAL
  5
ED
102
{ACAD_REACTORS
330
6A
102
}
330
6A
100
AcDbMaterial
  1
ByLayer
  0
MATERIAL
  5
EF
102
{ACAD_REACTORS
330
6A
102
}
330
6A
100
AcDbMaterial
  1
Global
  0
MLINESTYLE
  5
18
102
{ACAD_REACTORS
330
17
102
}
330
17
100
AcDbMlineStyle
  2
STANDARD
 70
     0
  3

 62
   256
 51
90.0
 52
90.0
 71
     2
 49
0.5
 62
   256
  6
BYLAYER
 49
-0.5
 62
   256
  6
BYLAYER
  0
ACDBPLACEHOLDER
  5
F
102
{ACAD_REACTORS
330
E
102
}
330
E
  0
TABLESTYLE
  5
7F
102
{ACAD_REACTORS
330
7E
102
}
330
7E
100
AcDbTableStyle
  3
Standard
 70
     0
 71
     0
 40
1.5
 41
1.5
280
     0
281
     0
  7
Standard
140
4.5
170
     2
 62
     0
 63
     7
283
     0
 90
      512
 91
        0
  1

274
    -2
284
     1
 64
     0
275
    -2
285
     1
 65
     0
276
    -2
286
     1
 66
     0
277
    -2
287
     1
 67
     0
278
    -2
288
     1
 68
     0
279
    -2
289
     1
 69
     0
  7
Standard
140
6.0
170
     5
 62
     0
 63
     7
283
     0
 90
      512
 91
        0
  1

274
    -2
284
     1
 64
     0
275
    -2
285
     1
 65
     0
276
    -2
286
     1
 66
     0
277
    -2
287
     1
 67
     0
278
    -2
288
     1
 68
     0
279
    -2
289
     1
 69
     0
  7
Standard
140
4.5
170
     5
 62
     0
 63
     7
283
     0
 90
      512
 91
        0
  1

274
    -2
284
     1
 64
     0
275
    -2
285
     1
 65
     0
276
    -2
286
     1
 66
     0
277
    -2
287
     1
 67
     0
278
    -2
288
     1
 68
     0
279
    -2
289
     1
 69
     0
  0
VISUALSTYLE
  5
F6
102
{ACAD_REACTORS
330
F0
102
}
330
F0
100
AcDbVisualStyle
  2
2dWireframe
 70
     4
 71
     0
 72
     2
 73
     1
 90
        0
 40
-0.6
 41
-30.0
 62
     5
 63
     7
421
 16777215
 74
     1
 91
        4
 64
     7
 65
   257
 75
     1
175
     1
 42
1.0
 92
        0
 66
   257
 43
1.0
 76
     1
 77
     6
 78
     2
 67
     7
 79
     5
170
     0
171
     0
290
     0
174
     0
 93
        1
 44
0.0
173
     0
291
     0
 45
0.0
  0
VISUALSTYLE
  5
F8
102
{ACAD_REACTORS
330
F0
102
}
330
F0
100
AcDbVisualStyle
  2
3D Hidden
 70
     6
 71
     1
 72
     2
 73
     2
 90
        0
 40
-0.6
 41
-30.0
 62
     5
 63
     7
421
 16777215
 74
     2
 91
        2
 64
     7
 65
   257
 75
     2
175
     1
 42
40.0
 92
        0
 66
   257
 43
1.0
 76
     1
 77
     6
 78
     2
 67
     7
 79
     3
170
     0
171
     0
290
     0
174
     0
 93
        1
 44
0.0
173
     0
291
     0
 45
0.0
  0
VISUALSTYLE
  5
F7
102
{ACAD_REACTORS
330
F0
102
}
330
F0
100
AcDbVisualStyle
  2
3dWireframe
 70
     5
 71
     0
 72
     2
 73
     1
 90
        0
 40
-0.6
 41
-30.0
 62
     5
 63
     7
421
 16777215
 74
     1
 91
        4
 64
     7
 65
   257
 75
     1
175
     1
 42
1.0
 92
        0
 66
   257
 43
1.0
 76
     1
 77
     6
 78
     2
 67
     7
 79
     5
170
     0
171
     0
290
     0
174
     0
 93
        1
 44
0.0
173
     0
291
     0
 45
0.0
  0
VISUALSTYLE
  5
F5
102
{ACAD_REACTORS
330
F0
102
}
330
F0
100
AcDbVisualStyle
  2
Basic
 70
     7
 71
     1
 72
     0
 73
     1
 90
        0
 40
-0.6
 41
-30.0
 62
     5
 63
     7
421
 16777215
 74
     0
 91
        4
 64
     7
 65
   257
 75
     1
175
     1
 42
1.0
 92
        8
 66
     7
 43
1.0
 76
     1
 77
     6
 78
     2
 67
     7
 79
     5
170
     0
171
     0
290
     0
174
     0
 93
        1
 44
0.0
173
     0
291
     1
 45
0.0
  0
VISUALSTYLE
  5
FC
102
{ACAD_REACTORS
330
F0
102
}
330
F0
100
AcDbVisualStyle
  2
Brighten
 70
    12
 71
     2
 72
     2
 73
     1
 90
        0
 40
-0.6
 41
-30.0
 62
     5
 63
     7
421
 16777215
 74
     1
 91
        4
 64
     7
 65
   257
 75
     1
175
     1
 42
1.0
 92
        8
 66
     7
 43
1.0
 76
     1
 77
     6
 78
     2
 67
     7
 79
     5
170
     0
171
     0
290
     0
174
     0
 93
        1
 44
50.0
173
     0
291
     1
 45
0.0
  0
VISUALSTYLE
  5
100
102
{ACAD_REACTORS
330
F0
102
}
330
F0
100
AcDbVisualStyle
  2
ColorChange
 70
    16
 71
     2
 72
     2
 73
     3
 90
        0
 40
-0.6
 41
-30.0
 62
     5
 63
     8
421
  8421504
 74
     1
 91
        4
 64
     7
 65
   257
 75
     1
175
     1
 42
1.0
 92
        8
 66
     8
424
  8421504
 43
1.0
 76
     1
 77
     6
 78
     2
 67
     7
 79
     5
170
     0
171
     0
290
     0
174
     0
 93
        1
 44
0.0
173
     0
291
     1
 45
0.0
  0
VISUALSTYLE
  5
F9
102
{ACAD_REACTORS
330
F0
102
}
330
F0
100
AcDbVisualStyle
  2
Conceptual
 70
     9
 71
     3
 72
     2
 73
     1
 90
        0
 40
-0.6
 41
-30.0
 62
     5
 63
     7
421
 16777215
 74
     2
 91
        2
 64
     7
 65
   257
 75
     1
175
     1
 42
40.0
 92
        8
 66
     7
 43
1.0
 76
     1
 77
     6
 78
     2
 67
     7
 79
     3
170
     0
171
     0
290
     0
174
     0
 93
        1
 44
0.0
173
     0
291
     0
 45
0.0
  0
VISUALSTYLE
  5
FB
102
{ACAD_REACTORS
330
F0
102
}
330
F0
100
AcDbVisualStyle
  2
Dim
 70
    11
 71
     2
 72
     2
 73
     1
 90
        0
 40
-0.6
 41
-30.0
 62
     5
 63
     7
421
 16777215
 74
     1
 91
        4
 64
     7
 65
   257
 75
     1
175
     1
 42
1.0
 92
        8
 66
     7
 43
1.0
 76
     1
 77
     6
 78
     2
 67
     7
 79
     5
170
     0
171
     0
290
     0
174
     0
 93
        1
 44
-50.0
173
     0
291
     1
 45
0.0
  0
VISUALSTYLE
  5
FF
102
{ACAD_REACTORS
330
F0
102
}
330
F0
100
AcDbVisualStyle
  2
Facepattern
 70
    15
 71
     2
 72
     2
 73
     1
 90
        0
 40
-0.6
 41
-30.0
 62
     5
 63
     7
421
 16777215
 74
     1
 91
        4
 64
     7
 65
   257
 75
     1
175
     1
 42
1.0
 92
        8
 66
     7
 43
1.0
 76
     1
 77
     6
 78
     2
 67
     7
 79
     5
170
     0
171
     0
290
     0
174
     0
 93
        1
 44
0.0
173
     0
291
     1
 45
0.0
  0
VISUALSTYLE
  5
F1
102
{ACAD_REACTORS
330
F0
102
}
330
F0
100
AcDbVisualStyle
  2
Flat
 70
     0
 71
     2
 72
     1
 73
     1
 90
        2
 40
-0.6
 41
30.0
 62
     5
 63
     7
421
 16777215
 74
     0
 91
        4
 64
     7
 65
   257
 75
     1
175
     1
 42
1.0
 92
        8
 66
     7
 43
1.0
 76
     1
 77
     6
 78
     2
 67
     7
 79
     5
170
     0
171
     0
290
     0
174
     0
 93
        1
 44
0.0
173
     0
291
     1
 45
0.0
  0
VISUALSTYLE
  5
F2
102
{ACAD_REACTORS
330
F0
102
}
330
F0
100
AcDbVisualStyle
  2
FlatWithEdges
 70
     1
 71
     2
 72
     1
 73
     1
 90
        2
 40
-0.6
 41
30.0
 62
     5
 63
     7
421
 16777215
 74
     1
 91
        4
 64
     7
 65
   257
 75
     1
175
     1
 42
1.0
 92
        0
 66
   257
 43
1.0
 76
     1
 77
     6
 78
     2
 67
     7
 79
     5
170
     0
171
     0
290
     0
174
     0
 93
        1
 44
0.0
173
     0
291
     1
 45
0.0
  0
VISUALSTYLE
  5
F3
102
{ACAD_REACTORS
330
F0
102
}
330
F0
100
AcDbVisualStyle
  2
Gouraud
 70
     2
 71
     2
 72
     2
 73
     1
 90
        2
 40
-0.6
 41
30.0
 62
     5
 63
     7
421
 16777215
 74
     0
 91
        4
 64
     7
 65
   257
 75
     1
175
     1
 42
1.0
 92
        0
 66
     7
 43
1.0
 76
     1
 77
     6
 78
     2
 67
     7
 79
     5
170
     0
171
     0
290
     0
174
     0
 93
        1
 44
0.0
173
     0
291
     1
 45
0.0
  0
VISUALSTYLE
  5
F4
102
{ACAD_REACTORS
330
F0
102
}
330
F0
100
AcDbVisualStyle
  2
GouraudWithEdges
 70
     3
 71
     2
 72
     2
 73
     1
 90
        2
 40
-0.6
 41
30.0
 62
     5
 63
     7
421
 16777215
 74
     1
 91
        4
 64
     7
 65
   257
 75
     1
175
     1
 42
1.0
 92
        0
 66
   257
 43
1.0
 76
     1
 77
     6
 78
     2
 67
     7
 79
     5
170
     0
171
     0
290
     0
174
     0
 93
        1
 44
0.0
173
     0
291
     1
 45
0.0
  0
VISUALSTYLE
  5
FE
102
{ACAD_REACTORS
330
F0
102
}
330
F0
100
AcDbVisualStyle
  2
Linepattern
 70
    14
 71
     2
 72
     2
 73
     1
 90
        0
 40
-0.6
 41
-30.0
 62
     5
 63
     7
421
 16777215
 74
     1
 91
        4
 64
     7
 65
   257
 75
     7
175
     7
 42
1.0
 92
        8
 66
     7
 43
1.0
 76
     1
 77
     6
 78
     2
 67
     7
 79
     5
170
     0
171
     0
290
     0
174
     0
 93
        1
 44
0.0
173
     0
291
     1
 45
0.0
  0
VISUALSTYLE
  5
FA
102
{ACAD_REACTORS
330
F0
102
}
330
F0
100
AcDbVisualStyle
  2
Realistic
 70
     8
 71
     2
 72
     2
 73
     1
 90
        0
 40
-0.6
 41
-30.0
 62
     5
 63
     7
421
 16777215
 74
     1
 91
        0
 64
     7
 65
   257
 75
     1
175
     1
 42
1.0
 92
        8
 66
     8
424
  7895160
 43
1.0
 76
     1
 77
     6
 78
     2
 67
     7
 79
     5
170
     0
171
     0
290
     0
174
     0
 93
       13
 44
0.0
173
     0
291
     0
 45
0.0
  0
VISUALSTYLE
  5
FD
102
{ACAD_REACTORS
330
F0
102
}
330
F0
100
AcDbVisualStyle
  2
Thicken
 70
    13
 71
     2
 72
     2
 73
     1
 90
        0
 40
-0.6
 41
-30.0
 62
     5
 63
     7
421
 16777215
 74
     1
 91
        4
 64
     7
 65
   257
 75
     1
175
     1
 42
1.0
 92
       12
 66
     7
 43
1.0
 76
     1
 77
     6
 78
     2
 67
     7
 79
     5
170
     0
171
     0
290
     0
174
     0
 93
        1
 44
0.0
173
     0
291
     1
 45
0.0
  0
DICTIONARYVAR
  5
84
102
{ACAD_REACTORS
330
5E
102
}
330
5E
100
DictionaryVariables
280
     0
  1
STANDARD
  0
DICTIONARYVAR
  5
5F
102
{ACAD_REACTORS
330
5E
102
}
330
5E
100
DictionaryVariables
280
     0
  1
2
  0
DICTIONARYVAR
  5
63
102
{ACAD_REACTORS
330
5E
102
}
330
5E
100
DictionaryVariables
280
     0
  1
1
  0
ENDSEC
  0
EOF
