  0
SECTION
  2
HEADER
  9
$ACADVER
  1
AC1021
  9
$ACADMAINTVER
 70
     1
  9
$DWGCODEPAGE
  3
ANSI_936
  9
$LASTSAVEDBY
  1
Administrator
  9
$INSBASE
 10
0.0
 20
0.0
 30
0.0
  9
$EXTMIN
 10
759.7024809523441
 20
185.8989351814853
 30
0.0
  9
$EXTMAX
 10
1346.246887688416
 20
926.7485250895331
 30
0.0
  9
$LIMMIN
 10
0.0
 20
0.0
  9
$LIMMAX
 10
420.0
 20
297.0
  9
$ORTHOMODE
 70
     1
  9
$REGENMODE
 70
     1
  9
$FILLMODE
 70
     1
  9
$QTEXTMODE
 70
     0
  9
$MIRRTEXT
 70
     0
  9
$LTSCALE
 40
1.0
  9
$ATTMODE
 70
     1
  9
$TEXTSIZE
 40
2.5
  9
$TRACEWID
 40
1.0
  9
$TEXTSTYLE
  7
Standard
  9
$CLAYER
  8
0
  9
$CELTYPE
  6
ByLayer
  9
$CECOLOR
 62
   256
  9
$CELTSCALE
 40
1.0
  9
$DISPSILH
 70
     0
  9
$DIMSCALE
 40
1.0
  9
$DIMASZ
 40
7.5
  9
$DIMEXO
 40
0.625
  9
$DIMDLI
 40
3.75
  9
$DIMRND
 40
0.0
  9
$DIMDLE
 40
0.0
  9
$DIMEXE
 40
1.25
  9
$DIMTP
 40
0.0
  9
$DIMTM
 40
0.0
  9
$DIMTXT
 40
7.5
  9
$DIMCEN
 40
12.0
  9
$DIMTSZ
 40
0.0
  9
$DIMTOL
 70
     0
  9
$DIMLIM
 70
     0
  9
$DIMTIH
 70
     0
  9
$DIMTOH
 70
     0
  9
$DIMSE1
 70
     0
  9
$DIMSE2
 70
     0
  9
$DIMTAD
 70
     0
  9
$DIMZIN
 70
     8
  9
$DIMBLK
  1

  9
$DIMASO
 70
     1
  9
$DIMSHO
 70
     1
  9
$DIMPOST
  1

  9
$DIMAPOST
  1

  9
$DIMALT
 70
     0
  9
$DIMALTD
 70
     3
  9
$DIMALTF
 40
0.03937007874016
  9
$DIMLFAC
 40
1.0
  9
$DIMTOFL
 70
     1
  9
$DIMTVP
 40
0.0
  9
$DIMTIX
 70
     0
  9
$DIMSOXD
 70
     0
  9
$DIMSAH
 70
     0
  9
$DIMBLK1
  1

  9
$DIMBLK2
  1

  9
$DIMSTYLE
  2
ISO-25
  9
$DIMCLRD
 70
     0
  9
$DIMCLRE
 70
     0
  9
$DIMCLRT
 70
     0
  9
$DIMTFAC
 40
1.0
  9
$DIMGAP
 40
0.625
  9
$DIMJUST
 70
     0
  9
$DIMSD1
 70
     0
  9
$DIMSD2
 70
     0
  9
$DIMTOLJ
 70
     0
  9
$DIMTZIN
 70
     8
  9
$DIMALTZ
 70
     0
  9
$DIMALTTZ
 70
     0
  9
$DIMUPT
 70
     0
  9
$DIMDEC
 70
     2
  9
$DIMTDEC
 70
     2
  9
$DIMALTU
 70
     2
  9
$DIMALTTD
 70
     3
  9
$DIMTXSTY
  7
Standard
  9
$DIMAUNIT
 70
     0
  9
$DIMADEC
 70
     0
  9
$DIMALTRND
 40
0.0
  9
$DIMAZIN
 70
     0
  9
$DIMDSEP
 70
    44
  9
$DIMATFIT
 70
     3
  9
$DIMFRAC
 70
     0
  9
$DIMLDRBLK
  1

  9
$DIMLUNIT
 70
     2
  9
$DIMLWD
 70
    -2
  9
$DIMLWE
 70
    -2
  9
$DIMTMOVE
 70
     0
  9
$DIMFXL
 40
1.0
  9
$DIMFXLON
 70
     0
  9
$DIMJOGANG
 40
0.7853981633974483
  9
$DIMTFILL
 70
     0
  9
$DIMTFILLCLR
 70
     0
  9
$DIMARCSYM
 70
     0
  9
$DIMLTYPE
  6

  9
$DIMLTEX1
  6

  9
$DIMLTEX2
  6

  9
$LUNITS
 70
     2
  9
$LUPREC
 70
     4
  9
$SKETCHINC
 40
1.0
  9
$FILLETRAD
 40
10.0
  9
$AUNITS
 70
     0
  9
$AUPREC
 70
     0
  9
$MENU
  1
.
  9
$ELEVATION
 40
0.0
  9
$PELEVATION
 40
0.0
  9
$THICKNESS
 40
0.0
  9
$LIMCHECK
 70
     0
  9
$CHAMFERA
 40
0.0
  9
$CHAMFERB
 40
0.0
  9
$CHAMFERC
 40
0.0
  9
$CHAMFERD
 40
0.0
  9
$SKPOLY
 70
     0
  9
$TDCREATE
 40
2458246.445005475
  9
$TDUCREATE
 40
2458246.111672141
  9
$TDUPDATE
 40
2458319.709532673
  9
$TDUUPDATE
 40
2458319.376199340
  9
$TDINDWG
 40
0.0652393287
  9
$TDUSRTIMER
 40
0.0652391782
  9
$USRTIMER
 70
     1
  9
$ANGBASE
 50
0.0
  9
$ANGDIR
 70
     0
  9
$PDMODE
 70
     0
  9
$PDSIZE
 40
0.0
  9
$PLINEWID
 40
0.0
  9
$SPLFRAME
 70
     0
  9
$SPLINETYPE
 70
     6
  9
$SPLINESEGS
 70
     8
  9
$HANDSEED
  5
59C
  9
$SURFTAB1
 70
     6
  9
$SURFTAB2
 70
     6
  9
$SURFTYPE
 70
     6
  9
$SURFU
 70
     6
  9
$SURFV
 70
     6
  9
$UCSBASE
  2

  9
$UCSNAME
  2

  9
$UCSORG
 10
0.0
 20
0.0
 30
0.0
  9
$UCSXDIR
 10
1.0
 20
0.0
 30
0.0
  9
$UCSYDIR
 10
0.0
 20
1.0
 30
0.0
  9
$UCSORTHOREF
  2

  9
$UCSORTHOVIEW
 70
     0
  9
$UCSORGTOP
 10
0.0
 20
0.0
 30
0.0
  9
$UCSORGBOTTOM
 10
0.0
 20
0.0
 30
0.0
  9
$UCSORGLEFT
 10
0.0
 20
0.0
 30
0.0
  9
$UCSORGRIGHT
 10
0.0
 20
0.0
 30
0.0
  9
$UCSORGFRONT
 10
0.0
 20
0.0
 30
0.0
  9
$UCSORGBACK
 10
0.0
 20
0.0
 30
0.0
  9
$PUCSBASE
  2

  9
$PUCSNAME
  2

  9
$PUCSORG
 10
0.0
 20
0.0
 30
0.0
  9
$PUCSXDIR
 10
1.0
 20
0.0
 30
0.0
  9
$PUCSYDIR
 10
0.0
 20
1.0
 30
0.0
  9
$PUCSORTHOREF
  2

  9
$PUCSORTHOVIEW
 70
     0
  9
$PUCSORGTOP
 10
0.0
 20
0.0
 30
0.0
  9
$PUCSORGBOTTOM
 10
0.0
 20
0.0
 30
0.0
  9
$PUCSORGLEFT
 10
0.0
 20
0.0
 30
0.0
  9
$PUCSORGRIGHT
 10
0.0
 20
0.0
 30
0.0
  9
$PUCSORGFRONT
 10
0.0
 20
0.0
 30
0.0
  9
$PUCSORGBACK
 10
0.0
 20
0.0
 30
0.0
  9
$USERI1
 70
     0
  9
$USERI2
 70
     0
  9
$USERI3
 70
     0
  9
$USERI4
 70
     0
  9
$USERI5
 70
     0
  9
$USERR1
 40
0.0
  9
$USERR2
 40
0.0
  9
$USERR3
 40
0.0
  9
$USERR4
 40
0.0
  9
$USERR5
 40
0.0
  9
$WORLDVIEW
 70
     1
  9
$SHADEDGE
 70
     3
  9
$SHADEDIF
 70
    70
  9
$TILEMODE
 70
     1
  9
$MAXACTVP
 70
    64
  9
$PINSBASE
 10
0.0
 20
0.0
 30
0.0
  9
$PLIMCHECK
 70
     0
  9
$PEXTMIN
 10
0.0
 20
0.0
 30
0.0
  9
$PEXTMAX
 10
0.0
 20
0.0
 30
0.0
  9
$PLIMMIN
 10
0.0
 20
0.0
  9
$PLIMMAX
 10
12.0
 20
9.0
  9
$UNITMODE
 70
     0
  9
$VISRETAIN
 70
     1
  9
$PLINEGEN
 70
     0
  9
$PSLTSCALE
 70
     1
  9
$TREEDEPTH
 70
  3020
  9
$CMLSTYLE
  2
Standard
  9
$CMLJUST
 70
     0
  9
$CMLSCALE
 40
20.0
  9
$PROXYGRAPHICS
 70
     1
  9
$MEASUREMENT
 70
     1
  9
$CELWEIGHT
370
    -1
  9
$ENDCAPS
280
     0
  9
$JOINSTYLE
280
     0
  9
$LWDISPLAY
290
     1
  9
$INSUNITS
 70
     4
  9
$HYPERLINKBASE
  1

  9
$STYLESHEET
  1

  9
$XEDIT
290
     1
  9
$CEPSNTYPE
380
     0
  9
$PSTYLEMODE
290
     1
  9
$FINGERPRINTGUID
  2
{8B3B5571-2381-4F37-9286-15291B60EB5A}
  9
$VERSIONGUID
  2
{BEA8C7C6-DE8C-4674-91A6-C67D9AA1BFE6}
  9
$EXTNAMES
290
     1
  9
$PSVPSCALE
 40
0.0
  9
$OLESTARTUP
290
     0
  9
$SORTENTS
280
   127
  9
$INDEXCTL
280
     0
  9
$HIDETEXT
280
     1
  9
$XCLIPFRAME
290
     0
  9
$HALOGAP
280
     0
  9
$OBSCOLOR
 70
   257
  9
$OBSLTYPE
280
     0
  9
$INTERSECTIONDISPLAY
280
     0
  9
$INTERSECTIONCOLOR
 70
   257
  9
$DIMASSOC
280
     2
  9
$PROJECTNAME
  1

  9
$CAMERADISPLAY
290
     0
  9
$LENSLENGTH
 40
50.0
  9
$CAMERAHEIGHT
 40
0.0
  9
$STEPSPERSEC
 40
2.0
  9
$STEPSIZE
 40
6.0
  9
$3DDWFPREC
 40
2.0
  9
$PSOLWIDTH
 40
5.0
  9
$PSOLHEIGHT
 40
80.0
  9
$LOFTANG1
 40
1.570796326794896
  9
$LOFTANG2
 40
1.570796326794896
  9
$LOFTMAG1
 40
0.0
  9
$LOFTMAG2
 40
0.0
  9
$LOFTPARAM
 70
     7
  9
$LOFTNORMALS
280
     1
  9
$LATITUDE
 40
37.795
  9
$LONGITUDE
 40
-122.394
  9
$NORTHDIRECTION
 40
0.0
  9
$TIMEZONE
 70
 -8000
  9
$LIGHTGLYPHDISPLAY
280
     1
  9
$TILEMODELIGHTSYNCH
280
     1
  9
$CMATERIAL
347
ED
  9
$SOLIDHIST
280
     1
  9
$SHOWHIST
280
     1
  9
$DWFFRAME
280
     2
  9
$DGNFRAME
280
     0
  9
$REALWORLDSCALE
290
     1
  9
$INTERFERECOLOR
 62
     1
  9
$INTERFEREOBJVS
345
FA
  9
$INTERFEREVPVS
346
F7
  9
$CSHADOW
280
     0
  9
$SHADOWPLANELOCATION
 40
0.0
  0
ENDSEC
  0
SECTION
  2
CLASSES
  0
CLASS
  1
ACDBDICTIONARYWDFLT
  2
AcDbDictionaryWithDefault
  3
ObjectDBX Classes
 90
        0
 91
        1
280
     0
281
     0
  0
CLASS
  1
DICTIONARYVAR
  2
AcDbDictionaryVar
  3
ObjectDBX Classes
 90
        0
 91
        3
280
     0
281
     0
  0
CLASS
  1
TABLESTYLE
  2
AcDbTableStyle
  3
ObjectDBX Classes
 90
     4095
 91
        1
280
     0
281
     0
  0
CLASS
  1
MATERIAL
  2
AcDbMaterial
  3
ObjectDBX Classes
 90
     1024
 91
        3
280
     0
281
     0
  0
CLASS
  1
VISUALSTYLE
  2
AcDbVisualStyle
  3
ObjectDBX Classes
 90
     4095
 91
       16
280
     0
281
     0
  0
CLASS
  1
SORTENTSTABLE
  2
AcDbSortentsTable
  3
ObjectDBX Classes
 90
        0
 91
        1
280
     0
281
     0
  0
CLASS
  1
DIMASSOC
  2
AcDbDimAssoc
  3
"AcDbDimAssoc|Product Desc:     AcDim ARX App For Dimension|Company:          Autodesk, Inc.|WEB Address:      www.autodesk.com"
 90
        0
 91
        8
280
     0
281
     0
  0
ENDSEC
  0
SECTION
  2
TABLES
  0
TABLE
  2
VPORT
  5
8
330
0
100
AcDbSymbolTable
 70
     1
  0
VPORT
  5
EB
330
8
100
AcDbSymbolTableRecord
100
AcDbViewportTableRecord
  2
*Active
 70
     0
 10
0.0
 20
0.0
 11
1.0
 21
1.0
 12
1221.587466176069
 22
689.8927818529086
 13
0.0
 23
0.0
 14
10.0
 24
10.0
 15
10.0
 25
10.0
 16
0.0
 26
0.0
 36
1.0
 17
0.0
 27
0.0
 37
0.0
 40
558.6510625564401
 41
2.223150357995226
 42
50.0
 43
0.0
 44
0.0
 50
0.0
 51
0.0
 71
     0
 72
  1000
 73
     1
 74
     3
 75
     0
 76
     0
 77
     0
 78
     0
281
     0
 65
     1
110
0.0
120
0.0
130
0.0
111
1.0
121
0.0
131
0.0
112
0.0
122
1.0
132
0.0
 79
     0
146
0.0
348
F6
 60
     2
 61
     5
292
     1
282
     1
141
0.0
142
0.0
 63
   250
421
  3355443
  0
ENDTAB
  0
TABLE
  2
LTYPE
  5
5
330
0
100
AcDbSymbolTable
 70
     4
  0
LTYPE
  5
14
330
5
100
AcDbSymbolTableRecord
100
AcDbLinetypeTableRecord
  2
ByBlock
 70
     0
  3

 72
    65
 73
     0
 40
0.0
  0
LTYPE
  5
15
330
5
100
AcDbSymbolTableRecord
100
AcDbLinetypeTableRecord
  2
ByLayer
 70
     0
  3

 72
    65
 73
     0
 40
0.0
  0
LTYPE
  5
16
330
5
100
AcDbSymbolTableRecord
100
AcDbLinetypeTableRecord
  2
Continuous
 70
     0
  3
Solid line
 72
    65
 73
     0
 40
0.0
  0
LTYPE
  5
12A
330
5
100
AcDbSymbolTableRecord
100
AcDbLinetypeTableRecord
  2
ACAD_ISO02W100
 70
     0
  3
ISO dash __ __ __ __ __ __ __ __ __ __ __ __ __
 72
    65
 73
     2
 40
15.0
 49
12.0
 74
     0
 49
-3.0
 74
     0
  0
LTYPE
  5
12B
330
5
100
AcDbSymbolTableRecord
100
AcDbLinetypeTableRecord
  2
ACAD_ISO04W100
 70
     0
  3
ISO long-dash dot ____ . ____ . ____ . ____ . _
 72
    65
 73
     4
 40
30.0
 49
24.0
 74
     0
 49
-3.0
 74
     0
 49
0.0
 74
     0
 49
-3.0
 74
     0
  0
ENDTAB
  0
TABLE
  2
LAYER
  5
2
102
{ACAD_XDICTIONARY
360
12C
102
}
330
0
100
AcDbSymbolTable
 70
     6
  0
LAYER
  5
10
330
2
100
AcDbSymbolTableRecord
100
AcDbLayerTableRecord
  2
0
 70
     0
 62
     7
  6
Continuous
370
    -3
390
F
347
EF
  0
LAYER
  5
123
330
2
100
AcDbSymbolTableRecord
100
AcDbLayerTableRecord
  2
dim
 70
     0
 62
     7
  6
Continuous
370
    -3
390
F
347
EF
1001
AcAecLayerStandard
1000

1000

  0
LAYER
  5
125
330
2
100
AcDbSymbolTableRecord
100
AcDbLayerTableRecord
  2
dash
 70
     0
 62
     6
  6
ACAD_ISO02W100
370
    -3
390
F
347
EF
1001
AcAecLayerStandard
1000

1000

  0
LAYER
  5
126
330
2
100
AcDbSymbolTableRecord
100
AcDbLayerTableRecord
  2
center
 70
     0
 62
     1
  6
ACAD_ISO04W100
370
    -3
390
F
347
EF
1001
AcAecLayerStandard
1000

1000

  0
LAYER
  5
127
330
2
100
AcDbSymbolTableRecord
100
AcDbLayerTableRecord
  2
con
 70
     0
 62
     7
  6
Continuous
370
    30
390
F
347
EF
1001
AcAecLayerStandard
1000

1000

  0
LAYER
  5
182
330
2
100
AcDbSymbolTableRecord
100
AcDbLayerTableRecord
  2
Defpoints
 70
     0
 62
     7
  6
Continuous
290
     0
370
    -3
390
F
347
EF
  0
ENDTAB
  0
TABLE
  2
STYLE
  5
3
330
0
100
AcDbSymbolTable
 70
     2
  0
STYLE
  5
11
330
3
100
AcDbSymbolTableRecord
100
AcDbTextStyleTableRecord
  2
Standard
 70
     0
 40
0.0
 41
1.0
 50
0.0
 71
     0
 42
2.5
  3
txt
  4
gbcbig.shx
  0
STYLE
  5
129
330
3
100
AcDbSymbolTableRecord
100
AcDbTextStyleTableRecord
  2

 70
     1
 40
0.0
 41
1.0
 50
0.0
 71
     0
 42
2.5
  3
ltypeshp.shx
  4

  0
ENDTAB
  0
TABLE
  2
VIEW
  5
6
330
0
100
AcDbSymbolTable
 70
     0
  0
ENDTAB
  0
TABLE
  2
UCS
  5
7
330
0
100
AcDbSymbolTable
 70
     0
  0
ENDTAB
  0
TABLE
  2
APPID
  5
9
330
0
100
AcDbSymbolTable
 70
     4
  0
APPID
  5
12
330
9
100
AcDbSymbolTableRecord
100
AcDbRegAppTableRecord
  2
ACAD
 70
     0
  0
APPID
  5
9E
330
9
100
AcDbSymbolTableRecord
100
AcDbRegAppTableRecord
  2
ACAD_PSEXT
 70
     0
  0
APPID
  5
124
330
9
100
AcDbSymbolTableRecord
100
AcDbRegAppTableRecord
  2
AcAecLayerStandard
 70
     0
  0
APPID
  5
130
330
9
100
AcDbSymbolTableRecord
100
AcDbRegAppTableRecord
  2
ACAD_EXEMPT_FROM_CAD_STANDARDS
 70
     0
  0
ENDTAB
  0
TABLE
  2
DIMSTYLE
  5
A
330
0
100
AcDbSymbolTable
 70
     2
100
AcDbDimStyleTable
 71
     1
340
27
  0
DIMSTYLE
105
27
102
{ACAD_REACTORS
330
1EA
330
205
330
340
330
41E
330
438
330
452
330
46C
330
514
330
538
102
}
330
A
100
AcDbSymbolTableRecord
100
AcDbDimStyleTableRecord
  2
ISO-25
 70
     0
 41
7.5
 42
0.625
 43
3.75
 44
1.25
 73
     0
 74
     0
 78
     8
140
7.5
141
12.0
143
0.03937007874016
147
0.625
171
     3
172
     1
271
     2
272
     2
274
     3
278
    44
283
     0
284
     8
340
11
  0
ENDTAB
  0
TABLE
  2
BLOCK_RECORD
  5
1
330
0
100
AcDbSymbolTable
 70
    16
  0
BLOCK_RECORD
  5
1F
102
{ACAD_XDICTIONARY
360
146
102
}
330
1
100
AcDbSymbolTableRecord
100
AcDbBlockTableRecord
  2
*Model_Space
340
22
 70
     0
280
     1
281
     0
  0
BLOCK_RECORD
  5
D2
330
1
100
AcDbSymbolTableRecord
100
AcDbBlockTableRecord
  2
*Paper_Space
340
D3
 70
     0
280
     1
281
     0
  0
BLOCK_RECORD
  5
D6
330
1
100
AcDbSymbolTableRecord
100
AcDbBlockTableRecord
  2
*Paper_Space0
340
D7
 70
     0
280
     1
281
     0
  0
BLOCK_RECORD
  5
183
330
1
100
AcDbSymbolTableRecord
100
AcDbBlockTableRecord
  2
*D1
340
0
 70
     0
280
     1
281
     0
  0
BLOCK_RECORD
  5
19D
330
1
100
AcDbSymbolTableRecord
100
AcDbBlockTableRecord
  2
*D2
340
0
 70
     0
280
     1
281
     0
  0
BLOCK_RECORD
  5
1B7
330
1
100
AcDbSymbolTableRecord
100
AcDbBlockTableRecord
  2
*D3
340
0
 70
     0
280
     1
281
     0
  0
BLOCK_RECORD
  5
1D1
330
1
100
AcDbSymbolTableRecord
100
AcDbBlockTableRecord
  2
*D4
340
0
 70
     0
280
     1
281
     0
  0
BLOCK_RECORD
  5
1EB
330
1
100
AcDbSymbolTableRecord
100
AcDbBlockTableRecord
  2
*D5
340
0
 70
     0
280
     1
281
     0
  0
BLOCK_RECORD
  5
206
330
1
100
AcDbSymbolTableRecord
100
AcDbBlockTableRecord
  2
*D6
340
0
 70
     0
280
     1
281
     0
  0
BLOCK_RECORD
  5
28A
330
1
100
AcDbSymbolTableRecord
100
AcDbBlockTableRecord
  2
*D7
340
0
 70
     0
280
     1
281
     0
  0
BLOCK_RECORD
  5
341
330
1
100
AcDbSymbolTableRecord
100
AcDbBlockTableRecord
  2
*D8
340
0
 70
     0
280
     1
281
     0
  0
BLOCK_RECORD
  5
41F
330
1
100
AcDbSymbolTableRecord
100
AcDbBlockTableRecord
  2
*D9
340
0
 70
     0
280
     1
281
     0
  0
BLOCK_RECORD
  5
439
330
1
100
AcDbSymbolTableRecord
100
AcDbBlockTableRecord
  2
*D10
340
0
 70
     0
280
     1
281
     0
  0
BLOCK_RECORD
  5
453
330
1
100
AcDbSymbolTableRecord
100
AcDbBlockTableRecord
  2
*D11
340
0
 70
     0
280
     1
281
     0
  0
BLOCK_RECORD
  5
46D
330
1
100
AcDbSymbolTableRecord
100
AcDbBlockTableRecord
  2
*D12
340
0
 70
     0
280
     1
281
     0
  0
BLOCK_RECORD
  5
515
330
1
100
AcDbSymbolTableRecord
100
AcDbBlockTableRecord
  2
*D14
340
0
 70
     0
280
     1
281
     0
  0
BLOCK_RECORD
  5
539
330
1
100
AcDbSymbolTableRecord
100
AcDbBlockTableRecord
  2
*D15
340
0
 70
     0
280
     1
281
     0
  0
ENDTAB
  0
ENDSEC
  0
SECTION
  2
BLOCKS
  0
BLOCK
  5
20
330
1F
100
AcDbEntity
  8
0
100
AcDbBlockBegin
  2
*Model_Space
 70
     0
 10
0.0
 20
0.0
 30
0.0
  3
*Model_Space
  1

  0
ENDBLK
  5
21
330
1F
100
AcDbEntity
  8
0
100
AcDbBlockEnd
  0
BLOCK
  5
D4
330
D2
100
AcDbEntity
 67
     1
  8
0
100
AcDbBlockBegin
  2
*Paper_Space
 70
     0
 10
0.0
 20
0.0
 30
0.0
  3
*Paper_Space
  1

  0
ENDBLK
  5
D5
330
D2
100
AcDbEntity
 67
     1
  8
0
100
AcDbBlockEnd
  0
BLOCK
  5
D8
330
D6
100
AcDbEntity
 67
     1
  8
0
100
AcDbBlockBegin
  2
*Paper_Space0
 70
     0
 10
0.0
 20
0.0
 30
0.0
  3
*Paper_Space0
  1

  0
ENDBLK
  5
D9
330
D6
100
AcDbEntity
 67
     1
  8
0
100
AcDbBlockEnd
  0
BLOCK
  5
18E
330
183
100
AcDbEntity
  8
0
100
AcDbBlockBegin
  2
*D1
 70
     1
 10
0.0
 20
0.0
 30
0.0
  3
*D1
  1

  0
LINE
  5
2A7
330
183
100
AcDbEntity
  8
dim
 62
     0
370
    -2
100
AcDbLine
 10
1089.460795108211
 20
908.2618801575554
 30
0.0
 11
769.6482468258892
 21
908.2618801575554
 31
0.0
  0
LINE
  5
2A8
330
183
100
AcDbEntity
  8
dim
 62
     0
370
    -2
100
AcDbLine
 10
1089.460795108211
 20
553.2618801575554
 30
0.0
 11
769.6482468258891
 21
553.2618801575554
 31
0.0
  0
LINE
  5
2A9
330
183
100
AcDbEntity
  8
dim
 62
     0
370
    -2
100
AcDbLine
 10
770.8982468258892
 20
896.2618801575555
 30
0.0
 11
770.8982468258891
 21
743.3868801575554
 31
0.0
  0
LINE
  5
2AA
330
183
100
AcDbEntity
  8
dim
 62
     0
370
    -2
100
AcDbLine
 10
770.8982468258891
 20
565.2618801575554
 30
0.0
 11
770.8982468258891
 21
718.1368801575554
 31
0.0
  0
SOLID
  5
2AB
330
183
100
AcDbEntity
  8
dim
 62
     0
100
AcDbTrace
 10
768.8982468258893
 20
896.2618801575555
 30
0.0
 11
772.8982468258892
 21
896.2618801575555
 31
0.0
 12
770.8982468258892
 22
908.2618801575554
 32
0.0
 13
770.8982468258892
 23
908.2618801575554
 33
0.0
  0
SOLID
  5
2AC
330
183
100
AcDbEntity
  8
dim
 62
     0
100
AcDbTrace
 10
768.8982468258891
 20
565.2618801575554
 30
0.0
 11
772.8982468258891
 21
565.2618801575554
 31
0.0
 12
770.8982468258891
 22
553.2618801575554
 32
0.0
 13
770.8982468258891
 23
553.2618801575554
 33
0.0
  0
MTEXT
  5
2AD
330
183
100
AcDbEntity
  8
dim
 62
     0
100
AcDbMText
 10
770.898246825889
 20
730.7618801575556
 30
0.0
 40
12.0
 41
0.0
 46
0.0
 71
     5
 72
     1
  1
14"
 11
0.0000000000000001
 21
1.0
 31
0.0
 73
     1
 44
1.0
  0
POINT
  5
2AE
330
183
100
AcDbEntity
  8
Defpoints
 62
     0
100
AcDbPoint
 10
1090.085795108211
 20
908.2618801575554
 30
0.0
  0
POINT
  5
2AF
330
183
100
AcDbEntity
  8
Defpoints
 62
     0
100
AcDbPoint
 10
1090.085795108211
 20
553.2618801575554
 30
0.0
  0
POINT
  5
2B0
330
183
100
AcDbEntity
  8
Defpoints
 62
     0
100
AcDbPoint
 10
770.8982468258891
 20
553.2618801575554
 30
0.0
  0
ENDBLK
  5
18F
330
183
100
AcDbEntity
  8
0
100
AcDbBlockEnd
  0
BLOCK
  5
1A8
330
19D
100
AcDbEntity
  8
0
100
AcDbBlockBegin
  2
*D2
 70
     1
 10
0.0
 20
0.0
 30
0.0
  3
*D2
  1

  0
LINE
  5
2B1
330
19D
100
AcDbEntity
  8
dim
 62
     0
370
    -2
100
AcDbLine
 10
1089.460795108211
 20
883.2618801575554
 30
0.0
 11
814.0958513566737
 21
883.2618801575554
 31
0.0
  0
LINE
  5
2B2
330
19D
100
AcDbEntity
  8
dim
 62
     0
370
    -2
100
AcDbLine
 10
1089.460795108211
 20
578.2618801575554
 30
0.0
 11
814.0958513566737
 21
578.2618801575554
 31
0.0
  0
LINE
  5
2B3
330
19D
100
AcDbEntity
  8
dim
 62
     0
370
    -2
100
AcDbLine
 10
815.3458513566738
 20
871.2618801575555
 30
0.0
 11
815.3458513566738
 21
743.3868801575554
 31
0.0
  0
LINE
  5
2B4
330
19D
100
AcDbEntity
  8
dim
 62
     0
370
    -2
100
AcDbLine
 10
815.3458513566738
 20
590.2618801575554
 30
0.0
 11
815.3458513566738
 21
718.1368801575554
 31
0.0
  0
SOLID
  5
2B5
330
19D
100
AcDbEntity
  8
dim
 62
     0
100
AcDbTrace
 10
813.3458513566736
 20
871.2618801575555
 30
0.0
 11
817.3458513566739
 21
871.2618801575555
 31
0.0
 12
815.3458513566738
 22
883.2618801575554
 32
0.0
 13
815.3458513566738
 23
883.2618801575554
 33
0.0
  0
SOLID
  5
2B6
330
19D
100
AcDbEntity
  8
dim
 62
     0
100
AcDbTrace
 10
813.3458513566736
 20
590.2618801575554
 30
0.0
 11
817.3458513566737
 21
590.2618801575554
 31
0.0
 12
815.3458513566738
 22
578.2618801575554
 32
0.0
 13
815.3458513566738
 23
578.2618801575554
 33
0.0
  0
MTEXT
  5
2B7
330
19D
100
AcDbEntity
  8
dim
 62
     0
100
AcDbMText
 10
815.3458513566736
 20
730.7618801575556
 30
0.0
 40
12.0
 41
0.0
 46
0.0
 71
     5
 72
     1
  1
12"
 11
0.0000000000000001
 21
1.0
 31
0.0
 73
     1
 44
1.0
  0
POINT
  5
2B8
330
19D
100
AcDbEntity
  8
Defpoints
 62
     0
100
AcDbPoint
 10
1090.085795108211
 20
883.2618801575554
 30
0.0
  0
POINT
  5
2B9
330
19D
100
AcDbEntity
  8
Defpoints
 62
     0
100
AcDbPoint
 10
1090.085795108211
 20
578.2618801575554
 30
0.0
  0
POINT
  5
2BA
330
19D
100
AcDbEntity
  8
Defpoints
 62
     0
100
AcDbPoint
 10
815.3458513566738
 20
578.2618801575554
 30
0.0
  0
ENDBLK
  5
1A9
330
19D
100
AcDbEntity
  8
0
100
AcDbBlockEnd
  0
BLOCK
  5
1C2
330
1B7
100
AcDbEntity
  8
0
100
AcDbBlockBegin
  2
*D3
 70
     1
 10
0.0
 20
0.0
 30
0.0
  3
*D3
  1

  0
LINE
  5
2BB
330
1B7
100
AcDbEntity
  8
dim
 62
     0
370
    -2
100
AcDbLine
 10
855.0857951082107
 20
562.6368801575554
 30
0.0
 11
855.0857951082107
 21
484.5411421796368
 31
0.0
  0
LINE
  5
2BC
330
1B7
100
AcDbEntity
  8
dim
 62
     0
370
    -2
100
AcDbLine
 10
1325.085795108211
 20
562.6368801575554
 30
0.0
 11
1325.085795108211
 21
484.5411421796368
 31
0.0
  0
LINE
  5
2BD
330
1B7
100
AcDbEntity
  8
dim
 62
     0
370
    -2
100
AcDbLine
 10
867.0857951082107
 20
485.7911421796368
 30
0.0
 11
1055.460795108211
 21
485.7911421796368
 31
0.0
  0
LINE
  5
2BE
330
1B7
100
AcDbEntity
  8
dim
 62
     0
370
    -2
100
AcDbLine
 10
1313.085795108211
 20
485.7911421796368
 30
0.0
 11
1124.71079510821
 21
485.7911421796368
 31
0.0
  0
SOLID
  5
2BF
330
1B7
100
AcDbEntity
  8
dim
 62
     0
100
AcDbTrace
 10
867.0857951082107
 20
487.791142179637
 30
0.0
 11
867.0857951082107
 21
483.791142179637
 31
0.0
 12
855.0857951082107
 22
485.7911421796368
 32
0.0
 13
855.0857951082107
 23
485.7911421796368
 33
0.0
  0
SOLID
  5
2C0
330
1B7
100
AcDbEntity
  8
dim
 62
     0
100
AcDbTrace
 10
1313.085795108211
 20
487.791142179637
 30
0.0
 11
1313.085795108211
 21
483.791142179637
 31
0.0
 12
1325.085795108211
 22
485.7911421796368
 32
0.0
 13
1325.085795108211
 23
485.7911421796368
 33
0.0
  0
MTEXT
  5
2C1
330
1B7
100
AcDbEntity
  8
dim
 62
     0
100
AcDbMText
 10
1090.085795108211
 20
485.7911421796368
 30
0.0
 40
12.0
 41
0.0
 46
0.0
 71
     5
 72
     1
  1
18-1/2"
 73
     1
 44
1.0
  0
POINT
  5
2C2
330
1B7
100
AcDbEntity
  8
Defpoints
 62
     0
100
AcDbPoint
 10
855.0857951082107
 20
563.2618801575554
 30
0.0
  0
POINT
  5
2C3
330
1B7
100
AcDbEntity
  8
Defpoints
 62
     0
100
AcDbPoint
 10
1325.085795108211
 20
563.2618801575554
 30
0.0
  0
POINT
  5
2C4
330
1B7
100
AcDbEntity
  8
Defpoints
 62
     0
100
AcDbPoint
 10
1325.085795108211
 20
485.7911421796368
 30
0.0
  0
ENDBLK
  5
1C3
330
1B7
100
AcDbEntity
  8
0
100
AcDbBlockEnd
  0
BLOCK
  5
1DC
330
1D1
100
AcDbEntity
  8
0
100
AcDbBlockBegin
  2
*D4
 70
     1
 10
0.0
 20
0.0
 30
0.0
  3
*D4
  1

  0
LINE
  5
2C5
330
1D1
100
AcDbEntity
  8
dim
 62
     0
370
    -2
100
AcDbLine
 10
880.0857951082107
 20
587.6368801575551
 30
0.0
 11
880.0857951082107
 21
518.7070602194584
 31
0.0
  0
LINE
  5
2C6
330
1D1
100
AcDbEntity
  8
dim
 62
     0
370
    -2
100
AcDbLine
 10
1300.08579510821
 20
587.6368801575554
 30
0.0
 11
1300.08579510821
 21
518.7070602194584
 31
0.0
  0
LINE
  5
2C7
330
1D1
100
AcDbEntity
  8
dim
 62
     0
370
    -2
100
AcDbLine
 10
892.0857951082107
 20
519.9570602194584
 30
0.0
 11
1055.46079510821
 21
519.9570602194584
 31
0.0
  0
LINE
  5
2C8
330
1D1
100
AcDbEntity
  8
dim
 62
     0
370
    -2
100
AcDbLine
 10
1288.08579510821
 20
519.9570602194584
 30
0.0
 11
1124.71079510821
 21
519.9570602194584
 31
0.0
  0
SOLID
  5
2C9
330
1D1
100
AcDbEntity
  8
dim
 62
     0
100
AcDbTrace
 10
892.0857951082107
 20
521.9570602194584
 30
0.0
 11
892.0857951082107
 21
517.9570602194583
 31
0.0
 12
880.0857951082107
 22
519.9570602194584
 32
0.0
 13
880.0857951082107
 23
519.9570602194584
 33
0.0
  0
SOLID
  5
2CA
330
1D1
100
AcDbEntity
  8
dim
 62
     0
100
AcDbTrace
 10
1288.08579510821
 20
521.9570602194584
 30
0.0
 11
1288.08579510821
 21
517.9570602194583
 31
0.0
 12
1300.08579510821
 22
519.9570602194584
 32
0.0
 13
1300.08579510821
 23
519.9570602194584
 33
0.0
  0
MTEXT
  5
2CB
330
1D1
100
AcDbEntity
  8
dim
 62
     0
100
AcDbMText
 10
1090.08579510821
 20
519.9570602194584
 30
0.0
 40
12.0
 41
0.0
 46
0.0
 71
     5
 72
     1
  1
16-1/2"
 73
     1
 44
1.0
  0
POINT
  5
2CC
330
1D1
100
AcDbEntity
  8
Defpoints
 62
     0
100
AcDbPoint
 10
880.0857951082107
 20
588.2618801575552
 30
0.0
  0
POINT
  5
2CD
330
1D1
100
AcDbEntity
  8
Defpoints
 62
     0
100
AcDbPoint
 10
1300.08579510821
 20
588.2618801575554
 30
0.0
  0
POINT
  5
2CE
330
1D1
100
AcDbEntity
  8
Defpoints
 62
     0
100
AcDbPoint
 10
1300.08579510821
 20
519.9570602194584
 30
0.0
  0
ENDBLK
  5
1DD
330
1D1
100
AcDbEntity
  8
0
100
AcDbBlockEnd
  0
BLOCK
  5
1F6
330
1EB
100
AcDbEntity
  8
0
100
AcDbBlockBegin
  2
*D5
 70
     1
 10
0.0
 20
0.0
 30
0.0
  3
*D5
  1

  0
LINE
  5
4D0
330
1EB
100
AcDbEntity
  8
dim
 62
     0
370
    -2
100
AcDbLine
 10
1089.460795108211
 20
413.9784051306127
 30
0.0
 11
798.5757455557685
 21
413.9784051306127
 31
0.0
  0
LINE
  5
4D1
330
1EB
100
AcDbEntity
  8
dim
 62
     0
370
    -2
100
AcDbLine
 10
1089.460795108211
 20
211.9784051306129
 30
0.0
 11
798.5757455557684
 21
211.978405130613
 31
0.0
  0
LINE
  5
4D2
330
1EB
100
AcDbEntity
  8
dim
 62
     0
370
    -2
100
AcDbLine
 10
799.8257455557685
 20
406.4784051306127
 30
0.0
 11
799.8257455557685
 21
318.603405130613
 31
0.0
  0
LINE
  5
4D3
330
1EB
100
AcDbEntity
  8
dim
 62
     0
370
    -2
100
AcDbLine
 10
799.8257455557684
 20
219.478405130613
 30
0.0
 11
799.8257455557685
 21
307.353405130613
 31
0.0
  0
SOLID
  5
4D4
330
1EB
100
AcDbEntity
  8
dim
 62
     0
100
AcDbTrace
 10
798.5757455557685
 20
406.4784051306127
 30
0.0
 11
801.0757455557685
 21
406.4784051306127
 31
0.0
 12
799.8257455557685
 22
413.9784051306127
 32
0.0
 13
799.8257455557685
 23
413.9784051306127
 33
0.0
  0
SOLID
  5
4D5
330
1EB
100
AcDbEntity
  8
dim
 62
     0
100
AcDbTrace
 10
798.5757455557684
 20
219.478405130613
 30
0.0
 11
801.0757455557683
 21
219.478405130613
 31
0.0
 12
799.8257455557684
 22
211.978405130613
 32
0.0
 13
799.8257455557684
 23
211.978405130613
 33
0.0
  0
MTEXT
  5
4D6
330
1EB
100
AcDbEntity
  8
dim
 62
     0
100
AcDbMText
 10
799.8257455557684
 20
312.9784051306131
 30
0.0
 40
7.5
 41
0.0
 46
0.0
 71
     5
 72
     1
  1
8"
 11
0.0000000000000001
 21
1.0
 31
0.0
 73
     1
 44
1.0
  0
POINT
  5
4D7
330
1EB
100
AcDbEntity
  8
Defpoints
 62
     0
100
AcDbPoint
 10
1090.085795108211
 20
413.9784051306127
 30
0.0
  0
POINT
  5
4D8
330
1EB
100
AcDbEntity
  8
Defpoints
 62
     0
100
AcDbPoint
 10
1090.085795108211
 20
211.9784051306129
 30
0.0
  0
POINT
  5
4D9
330
1EB
100
AcDbEntity
  8
Defpoints
 62
     0
100
AcDbPoint
 10
799.8257455557684
 20
211.978405130613
 30
0.0
  0
ENDBLK
  5
1F7
330
1EB
100
AcDbEntity
  8
0
100
AcDbBlockEnd
  0
BLOCK
  5
211
330
206
100
AcDbEntity
  8
0
100
AcDbBlockBegin
  2
*D6
 70
     1
 10
0.0
 20
0.0
 30
0.0
  3
*D6
  1

  0
LINE
  5
4DA
330
206
100
AcDbEntity
  8
dim
 62
     0
370
    -2
100
AcDbLine
 10
1088.835795108211
 20
413.9784051306127
 30
0.0
 11
832.1096793751612
 21
413.9784051306127
 31
0.0
  0
LINE
  5
4DB
330
206
100
AcDbEntity
  8
dim
 62
     0
370
    -2
100
AcDbLine
 10
1089.460795108211
 20
256.9784051306128
 30
0.0
 11
832.1096793751612
 21
256.9784051306129
 31
0.0
  0
LINE
  5
4DC
330
206
100
AcDbEntity
  8
dim
 62
     0
370
    -2
100
AcDbLine
 10
833.3596793751611
 20
406.4784051306127
 30
0.0
 11
833.3596793751611
 21
354.8534051306129
 31
0.0
  0
LINE
  5
4DD
330
206
100
AcDbEntity
  8
dim
 62
     0
370
    -2
100
AcDbLine
 10
833.3596793751611
 20
264.4784051306129
 30
0.0
 11
833.3596793751611
 21
316.1034051306129
 31
0.0
  0
SOLID
  5
4DE
330
206
100
AcDbEntity
  8
dim
 62
     0
100
AcDbTrace
 10
832.1096793751612
 20
406.4784051306127
 30
0.0
 11
834.6096793751613
 21
406.4784051306127
 31
0.0
 12
833.3596793751611
 22
413.9784051306127
 32
0.0
 13
833.3596793751611
 23
413.9784051306127
 33
0.0
  0
SOLID
  5
4DF
330
206
100
AcDbEntity
  8
dim
 62
     0
100
AcDbTrace
 10
832.1096793751612
 20
264.4784051306129
 30
0.0
 11
834.6096793751613
 21
264.4784051306129
 31
0.0
 12
833.3596793751611
 22
256.9784051306129
 32
0.0
 13
833.3596793751611
 23
256.9784051306129
 33
0.0
  0
MTEXT
  5
4E0
330
206
100
AcDbEntity
  8
dim
 62
     0
100
AcDbMText
 10
833.3596793751611
 20
335.478405130613
 30
0.0
 40
7.5
 41
0.0
 46
0.0
 71
     5
 72
     1
  1
6-1/4"
 11
0.0000000000000001
 21
1.0
 31
0.0
 73
     1
 44
1.0
  0
POINT
  5
4E1
330
206
100
AcDbEntity
  8
Defpoints
 62
     0
100
AcDbPoint
 10
1089.460795108211
 20
413.9784051306127
 30
0.0
  0
POINT
  5
4E2
330
206
100
AcDbEntity
  8
Defpoints
 62
     0
100
AcDbPoint
 10
1090.085795108211
 20
256.9784051306128
 30
0.0
  0
POINT
  5
4E3
330
206
100
AcDbEntity
  8
Defpoints
 62
     0
100
AcDbPoint
 10
833.3596793751611
 20
256.9784051306129
 30
0.0
  0
ENDBLK
  5
212
330
206
100
AcDbEntity
  8
0
100
AcDbBlockEnd
  0
BLOCK
  5
293
330
28A
100
AcDbEntity
  8
0
100
AcDbBlockBegin
  2
*D7
 70
     1
 10
0.0
 20
0.0
 30
0.0
  3
*D7
  1

  0
LINE
  5
2F3
330
28A
100
AcDbEntity
  8
dim
 62
     0
370
    -2
100
AcDbLine
 10
1047.774298136259
 20
791.5290613874685
 30
0.0
 11
1058.93337426073
 21
795.9421124916672
 31
0.0
  0
LINE
  5
2F4
330
28A
100
AcDbEntity
  8
dim
 62
     0
370
    -2
100
AcDbLine
 10
1121.238215955691
 20
820.581647823443
 30
0.0
 11
1132.397292080162
 21
824.9946989276416
 31
0.0
  0
MTEXT
  5
2F5
330
28A
100
AcDbEntity
  8
dim
 62
     0
100
AcDbMText
 10
1013.715867881365
 20
778.0600616631958
 30
0.0
 40
12.0
 41
0.0
 46
0.0
 71
     5
 72
     1
  1
1-11/16"
 11
0.929923010372555
 21
0.3677542586832205
 31
0.0
 73
     1
 44
1.0
  0
LINE
  5
2F6
330
28A
100
AcDbEntity
  8
dim
 62
     0
370
    -2
100
AcDbLine
 10
1110.079139831221
 20
816.1685967192445
 30
0.0
 11
1070.092450385201
 21
800.3551635958659
 31
0.0
  0
SOLID
  5
2F7
330
28A
100
AcDbEntity
  8
dim
 62
     0
100
AcDbTrace
 10
1120.502707438325
 20
822.4414938441881
 30
0.0
 11
1121.973724473058
 21
818.721801802698
 31
0.0
 12
1110.079139831221
 22
816.1685967192445
 32
0.0
 13
1110.079139831221
 23
816.1685967192445
 33
0.0
  0
SOLID
  5
2F8
330
28A
100
AcDbEntity
  8
dim
 62
     0
100
AcDbTrace
 10
1058.197865743363
 20
797.8019585124124
 30
0.0
 11
1059.668882778097
 21
794.0822664709219
 31
0.0
 12
1070.092450385201
 22
800.3551635958659
 32
0.0
 13
1070.092450385201
 23
800.3551635958659
 33
0.0
  0
POINT
  5
2F9
330
28A
100
AcDbEntity
  8
Defpoints
 62
     0
100
AcDbPoint
 10
1070.092450385201
 20
800.3551635958659
 30
0.0
  0
POINT
  5
2FA
330
28A
100
AcDbEntity
  8
Defpoints
 62
     0
100
AcDbPoint
 10
1110.079139831221
 20
816.1685967192445
 30
0.0
  0
ENDBLK
  5
294
330
28A
100
AcDbEntity
  8
0
100
AcDbBlockEnd
  0
BLOCK
  5
34A
330
341
100
AcDbEntity
  8
0
100
AcDbBlockBegin
  2
*D8
 70
     1
 10
0.0
 20
0.0
 30
0.0
  3
*D8
  1

  0
LINE
  5
4E4
330
341
100
AcDbEntity
  8
dim
 62
     0
370
    -2
100
AcDbLine
 10
1053.58710201205
 20
808.5707527403739
 30
0.0
 11
1061.086833470165
 21
808.5072857713017
 31
0.0
  0
LINE
  5
4E5
330
341
100
AcDbEntity
  8
dim
 62
     0
370
    -2
100
AcDbLine
 10
1119.084756746255
 20
808.0164745438091
 30
0.0
 11
1126.58448820437
 21
807.9530075747367
 31
0.0
  0
MTEXT
  5
4E6
330
341
100
AcDbEntity
  8
dim
 62
     0
100
AcDbMText
 10
1036.337684659639
 20
808.7167270654195
 30
0.0
 40
7.5
 41
0.0
 46
0.0
 71
     5
 72
     1
  1
{\H1.4x;%%C1\H0.7x;\S11/16;\H1.4286x;"}
 11
0.9999641944153069
 21
-0.0084622625429763
 31
0.0
 73
     1
 44
1.0
  0
LINE
  5
4E7
330
341
100
AcDbEntity
  8
dim
 62
     0
370
    -2
100
AcDbLine
 10
1111.58502528814
 20
808.0799415128813
 30
0.0
 11
1068.586564928279
 21
808.4438188022293
 31
0.0
  0
SOLID
  5
4E8
330
341
100
AcDbEntity
  8
dim
 62
     0
100
AcDbTrace
 10
1119.095334574434
 20
809.266429786828
 30
0.0
 11
1119.074178918076
 21
806.7665193007899
 31
0.0
 12
1111.58502528814
 22
808.0799415128813
 32
0.0
 13
1111.58502528814
 23
808.0799415128813
 33
0.0
  0
SOLID
  5
4E9
330
341
100
AcDbEntity
  8
dim
 62
     0
100
AcDbTrace
 10
1061.097411298344
 20
809.7572410143207
 30
0.0
 11
1061.076255641986
 21
807.2573305282825
 31
0.0
 12
1068.586564928279
 22
808.4438188022293
 32
0.0
 13
1068.586564928279
 23
808.4438188022293
 33
0.0
  0
POINT
  5
4EA
330
341
100
AcDbEntity
  8
Defpoints
 62
     0
100
AcDbPoint
 10
1068.586564928279
 20
808.4438188022293
 30
0.0
  0
POINT
  5
4EB
330
341
100
AcDbEntity
  8
Defpoints
 62
     0
100
AcDbPoint
 10
1111.58502528814
 20
808.0799415128813
 30
0.0
  0
ENDBLK
  5
34B
330
341
100
AcDbEntity
  8
0
100
AcDbBlockEnd
  0
BLOCK
  5
42A
330
41F
100
AcDbEntity
  8
0
100
AcDbBlockBegin
  2
*D9
 70
     1
 10
0.0
 20
0.0
 30
0.0
  3
*D9
  1

  0
LINE
  5
4EC
330
41F
100
AcDbEntity
  8
dim
 62
     0
370
    -2
100
AcDbLine
 10
855.0857951082109
 20
730.1368801575554
 30
0.0
 11
855.0857951082109
 21
474.4209239416397
 31
0.0
  0
LINE
  5
4ED
330
41F
100
AcDbEntity
  8
dim
 62
     0
370
    -2
100
AcDbLine
 10
1325.085795108211
 20
730.1368801575554
 30
0.0
 11
1325.085795108211
 21
474.4209239416397
 31
0.0
  0
LINE
  5
4EE
330
41F
100
AcDbEntity
  8
dim
 62
     0
370
    -2
100
AcDbLine
 10
862.5857951082108
 20
475.6709239416397
 30
0.0
 11
1068.210795108211
 21
475.6709239416397
 31
0.0
  0
LINE
  5
4EF
330
41F
100
AcDbEntity
  8
dim
 62
     0
370
    -2
100
AcDbLine
 10
1317.585795108211
 20
475.6709239416397
 30
0.0
 11
1111.960795108211
 21
475.6709239416397
 31
0.0
  0
SOLID
  5
4F0
330
41F
100
AcDbEntity
  8
dim
 62
     0
100
AcDbTrace
 10
862.5857951082108
 20
476.9209239416396
 30
0.0
 11
862.5857951082108
 21
474.4209239416397
 31
0.0
 12
855.0857951082109
 22
475.6709239416397
 32
0.0
 13
855.0857951082109
 23
475.6709239416397
 33
0.0
  0
SOLID
  5
4F1
330
41F
100
AcDbEntity
  8
dim
 62
     0
100
AcDbTrace
 10
1317.585795108211
 20
476.9209239416396
 30
0.0
 11
1317.585795108211
 21
474.4209239416397
 31
0.0
 12
1325.085795108211
 22
475.6709239416397
 32
0.0
 13
1325.085795108211
 23
475.6709239416397
 33
0.0
  0
MTEXT
  5
4F2
330
41F
100
AcDbEntity
  8
dim
 62
     0
100
AcDbMText
 10
1090.085795108211
 20
475.6709239416397
 30
0.0
 40
7.5
 41
0.0
 46
0.0
 71
     5
 72
     1
  1
18-1/2"
 73
     1
 44
1.0
  0
POINT
  5
4F3
330
41F
100
AcDbEntity
  8
Defpoints
 62
     0
100
AcDbPoint
 10
855.0857951082109
 20
730.7618801575554
 30
0.0
  0
POINT
  5
4F4
330
41F
100
AcDbEntity
  8
Defpoints
 62
     0
100
AcDbPoint
 10
1325.085795108211
 20
730.7618801575554
 30
0.0
  0
POINT
  5
4F5
330
41F
100
AcDbEntity
  8
Defpoints
 62
     0
100
AcDbPoint
 10
1325.085795108211
 20
475.6709239416397
 30
0.0
  0
ENDBLK
  5
42B
330
41F
100
AcDbEntity
  8
0
100
AcDbBlockEnd
  0
BLOCK
  5
444
330
439
100
AcDbEntity
  8
0
100
AcDbBlockBegin
  2
*D10
 70
     1
 10
0.0
 20
0.0
 30
0.0
  3
*D10
  1

  0
LINE
  5
4F6
330
439
100
AcDbEntity
  8
dim
 62
     0
370
    -2
100
AcDbLine
 10
880.0857951082109
 20
869.1368801575555
 30
0.0
 11
880.0857951082109
 21
514.4705742150673
 31
0.0
  0
LINE
  5
4F7
330
439
100
AcDbEntity
  8
dim
 62
     0
370
    -2
100
AcDbLine
 10
1300.085795108211
 20
869.1368801575555
 30
0.0
 11
1300.085795108211
 21
514.4705742150673
 31
0.0
  0
LINE
  5
4F8
330
439
100
AcDbEntity
  8
dim
 62
     0
370
    -2
100
AcDbLine
 10
887.5857951082108
 20
515.7205742150673
 30
0.0
 11
1068.210795108211
 21
515.7205742150673
 31
0.0
  0
LINE
  5
4F9
330
439
100
AcDbEntity
  8
dim
 62
     0
370
    -2
100
AcDbLine
 10
1292.585795108211
 20
515.7205742150673
 30
0.0
 11
1111.960795108211
 21
515.7205742150673
 31
0.0
  0
SOLID
  5
4FA
330
439
100
AcDbEntity
  8
dim
 62
     0
100
AcDbTrace
 10
887.5857951082108
 20
516.9705742150673
 30
0.0
 11
887.5857951082108
 21
514.4705742150673
 31
0.0
 12
880.0857951082109
 22
515.7205742150673
 32
0.0
 13
880.0857951082109
 23
515.7205742150673
 33
0.0
  0
SOLID
  5
4FB
330
439
100
AcDbEntity
  8
dim
 62
     0
100
AcDbTrace
 10
1292.585795108211
 20
516.9705742150673
 30
0.0
 11
1292.585795108211
 21
514.4705742150673
 31
0.0
 12
1300.085795108211
 22
515.7205742150673
 32
0.0
 13
1300.085795108211
 23
515.7205742150673
 33
0.0
  0
MTEXT
  5
4FC
330
439
100
AcDbEntity
  8
dim
 62
     0
100
AcDbMText
 10
1090.085795108211
 20
515.7205742150673
 30
0.0
 40
7.5
 41
0.0
 46
0.0
 71
     5
 72
     1
  1
16-1/2"
 73
     1
 44
1.0
  0
POINT
  5
4FD
330
439
100
AcDbEntity
  8
Defpoints
 62
     0
100
AcDbPoint
 10
880.0857951082109
 20
869.7618801575554
 30
0.0
  0
POINT
  5
4FE
330
439
100
AcDbEntity
  8
Defpoints
 62
     0
100
AcDbPoint
 10
1300.085795108211
 20
869.7618801575554
 30
0.0
  0
POINT
  5
4FF
330
439
100
AcDbEntity
  8
Defpoints
 62
     0
100
AcDbPoint
 10
1300.085795108211
 20
515.7205742150673
 30
0.0
  0
ENDBLK
  5
445
330
439
100
AcDbEntity
  8
0
100
AcDbBlockEnd
  0
BLOCK
  5
45E
330
453
100
AcDbEntity
  8
0
100
AcDbBlockBegin
  2
*D11
 70
     1
 10
0.0
 20
0.0
 30
0.0
  3
*D11
  1

  0
LINE
  5
566
330
453
100
AcDbEntity
  8
dim
 62
     0
370
    -2
100
AcDbLine
 10
1089.460795108211
 20
905.7618801575554
 30
0.0
 11
764.4524809523442
 21
905.7618801575555
 31
0.0
  0
LINE
  5
567
330
453
100
AcDbEntity
  8
dim
 62
     0
370
    -2
100
AcDbLine
 10
1089.460795108211
 20
555.7618801575554
 30
0.0
 11
764.452480952344
 21
555.7618801575555
 31
0.0
  0
LINE
  5
568
330
453
100
AcDbEntity
  8
dim
 62
     0
370
    -2
100
AcDbLine
 10
765.7024809523441
 20
898.2618801575554
 30
0.0
 11
765.7024809523441
 21
753.8868801575555
 31
0.0
  0
LINE
  5
569
330
453
100
AcDbEntity
  8
dim
 62
     0
370
    -2
100
AcDbLine
 10
765.7024809523441
 20
563.2618801575555
 30
0.0
 11
765.7024809523441
 21
707.6368801575555
 31
0.0
  0
SOLID
  5
56A
330
453
100
AcDbEntity
  8
dim
 62
     0
100
AcDbTrace
 10
764.4524809523442
 20
898.2618801575554
 30
0.0
 11
766.9524809523442
 21
898.2618801575554
 31
0.0
 12
765.7024809523441
 22
905.7618801575555
 32
0.0
 13
765.7024809523441
 23
905.7618801575555
 33
0.0
  0
SOLID
  5
56B
330
453
100
AcDbEntity
  8
dim
 62
     0
100
AcDbTrace
 10
764.452480952344
 20
563.2618801575555
 30
0.0
 11
766.9524809523441
 21
563.2618801575555
 31
0.0
 12
765.7024809523441
 22
555.7618801575555
 32
0.0
 13
765.7024809523441
 23
555.7618801575555
 33
0.0
  0
MTEXT
  5
56C
330
453
100
AcDbEntity
  8
dim
 62
     0
100
AcDbMText
 10
765.702480952344
 20
730.7618801575556
 30
0.0
 40
7.5
 41
0.0
 46
0.0
 71
     5
 72
     1
  1
13-3/4"
 11
0.0000000000000001
 21
1.0
 31
0.0
 73
     1
 44
1.0
  0
POINT
  5
56D
330
453
100
AcDbEntity
  8
Defpoints
 62
     0
100
AcDbPoint
 10
1090.085795108211
 20
905.7618801575554
 30
0.0
  0
POINT
  5
56E
330
453
100
AcDbEntity
  8
Defpoints
 62
     0
100
AcDbPoint
 10
1090.085795108211
 20
555.7618801575554
 30
0.0
  0
POINT
  5
56F
330
453
100
AcDbEntity
  8
Defpoints
 62
     0
100
AcDbPoint
 10
765.7024809523441
 20
555.7618801575555
 30
0.0
  0
ENDBLK
  5
45F
330
453
100
AcDbEntity
  8
0
100
AcDbBlockEnd
  0
BLOCK
  5
478
330
46D
100
AcDbEntity
  8
0
100
AcDbBlockBegin
  2
*D12
 70
     1
 10
0.0
 20
0.0
 30
0.0
  3
*D12
  1

  0
LINE
  5
570
330
46D
100
AcDbEntity
  8
dim
 62
     0
370
    -2
100
AcDbLine
 10
1089.460795108211
 20
879.7618801575554
 30
0.0
 11
808.9812925670363
 21
879.7618801575554
 31
0.0
  0
LINE
  5
571
330
46D
100
AcDbEntity
  8
dim
 62
     0
370
    -2
100
AcDbLine
 10
1089.460795108211
 20
581.7618801575554
 30
0.0
 11
808.9812925670361
 21
581.7618801575554
 31
0.0
  0
LINE
  5
572
330
46D
100
AcDbEntity
  8
dim
 62
     0
370
    -2
100
AcDbLine
 10
810.2312925670362
 20
872.2618801575555
 30
0.0
 11
810.2312925670362
 21
752.6368801575554
 31
0.0
  0
LINE
  5
573
330
46D
100
AcDbEntity
  8
dim
 62
     0
370
    -2
100
AcDbLine
 10
810.2312925670362
 20
589.2618801575554
 30
0.0
 11
810.2312925670362
 21
708.8868801575554
 31
0.0
  0
SOLID
  5
574
330
46D
100
AcDbEntity
  8
dim
 62
     0
100
AcDbTrace
 10
808.9812925670363
 20
872.2618801575555
 30
0.0
 11
811.4812925670364
 21
872.2618801575555
 31
0.0
 12
810.2312925670362
 22
879.7618801575554
 32
0.0
 13
810.2312925670362
 23
879.7618801575554
 33
0.0
  0
SOLID
  5
575
330
46D
100
AcDbEntity
  8
dim
 62
     0
100
AcDbTrace
 10
808.9812925670361
 20
589.2618801575554
 30
0.0
 11
811.4812925670362
 21
589.2618801575554
 31
0.0
 12
810.2312925670362
 22
581.7618801575554
 32
0.0
 13
810.2312925670362
 23
581.7618801575554
 33
0.0
  0
MTEXT
  5
576
330
46D
100
AcDbEntity
  8
dim
 62
     0
100
AcDbMText
 10
810.2312925670361
 20
730.7618801575556
 30
0.0
 40
7.5
 41
0.0
 46
0.0
 71
     5
 72
     1
  1
11-3/4"
 11
0.0000000000000001
 21
1.0
 31
0.0
 73
     1
 44
1.0
  0
POINT
  5
577
330
46D
100
AcDbEntity
  8
Defpoints
 62
     0
100
AcDbPoint
 10
1090.085795108211
 20
879.7618801575554
 30
0.0
  0
POINT
  5
578
330
46D
100
AcDbEntity
  8
Defpoints
 62
     0
100
AcDbPoint
 10
1090.085795108211
 20
581.7618801575554
 30
0.0
  0
POINT
  5
579
330
46D
100
AcDbEntity
  8
Defpoints
 62
     0
100
AcDbPoint
 10
810.2312925670362
 20
581.7618801575554
 30
0.0
  0
ENDBLK
  5
479
330
46D
100
AcDbEntity
  8
0
100
AcDbBlockEnd
  0
BLOCK
  5
520
330
515
100
AcDbEntity
  8
0
100
AcDbBlockBegin
  2
*D14
 70
     1
 10
0.0
 20
0.0
 30
0.0
  3
*D14
  1

  0
LINE
  5
584
330
515
100
AcDbEntity
  8
0
 62
     0
370
    -2
100
AcDbLine
 10
892.5857951082109
 20
731.3868801575554
 30
0.0
 11
892.5857951082109
 21
732.0118801575554
 31
0.0
  0
LINE
  5
585
330
515
100
AcDbEntity
  8
0
 62
     0
370
    -2
100
AcDbLine
 10
1287.585795108211
 20
731.3868801575554
 30
0.0
 11
1287.585795108211
 21
732.0118801575554
 31
0.0
  0
LINE
  5
586
330
515
100
AcDbEntity
  8
0
 62
     0
370
    -2
100
AcDbLine
 10
900.0857951082108
 20
730.7618801575554
 30
0.0
 11
993.2071970872884
 21
730.7618801575554
 31
0.0
  0
LINE
  5
587
330
515
100
AcDbEntity
  8
0
 62
     0
370
    -2
100
AcDbLine
 10
1280.085795108211
 20
730.7618801575554
 30
0.0
 11
1036.957197087288
 21
730.7618801575554
 31
0.0
  0
SOLID
  5
588
330
515
100
AcDbEntity
  8
0
 62
     0
100
AcDbTrace
 10
900.0857951082108
 20
732.0118801575554
 30
0.0
 11
900.0857951082108
 21
729.5118801575554
 31
0.0
 12
892.5857951082109
 22
730.7618801575554
 32
0.0
 13
892.5857951082109
 23
730.7618801575554
 33
0.0
  0
SOLID
  5
589
330
515
100
AcDbEntity
  8
0
 62
     0
100
AcDbTrace
 10
1280.085795108211
 20
732.0118801575554
 30
0.0
 11
1280.085795108211
 21
729.5118801575554
 31
0.0
 12
1287.585795108211
 22
730.7618801575554
 32
0.0
 13
1287.585795108211
 23
730.7618801575554
 33
0.0
  0
MTEXT
  5
58A
330
515
100
AcDbEntity
  8
0
 62
     0
100
AcDbMText
 10
1015.082197087288
 20
730.7618801575554
 30
0.0
 40
7.5
 41
0.0
 46
0.0
 71
     5
 72
     1
  1
15-1/2"
 73
     1
 44
1.0
  0
POINT
  5
58B
330
515
100
AcDbEntity
  8
Defpoints
 62
     0
100
AcDbPoint
 10
892.5857951082109
 20
730.7618801575554
 30
0.0
  0
POINT
  5
58C
330
515
100
AcDbEntity
  8
Defpoints
 62
     0
100
AcDbPoint
 10
1287.585795108211
 20
730.7618801575554
 30
0.0
  0
POINT
  5
58D
330
515
100
AcDbEntity
  8
Defpoints
 62
     0
100
AcDbPoint
 10
1287.585795108211
 20
730.7618801575554
 30
0.0
  0
ENDBLK
  5
521
330
515
100
AcDbEntity
  8
0
100
AcDbBlockEnd
  0
BLOCK
  5
544
330
539
100
AcDbEntity
  8
0
100
AcDbBlockBegin
  2
*D15
 70
     1
 10
0.0
 20
0.0
 30
0.0
  3
*D15
  1

  0
LINE
  5
58E
330
539
100
AcDbEntity
  8
0
 62
     0
370
    -2
100
AcDbLine
 10
1090.710795108211
 20
873.2618801575554
 30
0.0
 11
1091.335795108211
 21
873.2618801575554
 31
0.0
  0
LINE
  5
58F
330
539
100
AcDbEntity
  8
0
 62
     0
370
    -2
100
AcDbLine
 10
1090.710795108211
 20
588.2618801575554
 30
0.0
 11
1091.335795108211
 21
588.2618801575554
 31
0.0
  0
LINE
  5
590
330
539
100
AcDbEntity
  8
0
 62
     0
370
    -2
100
AcDbLine
 10
1090.085795108211
 20
865.7618801575555
 30
0.0
 11
1090.085795108211
 21
707.6214879149539
 31
0.0
  0
LINE
  5
591
330
539
100
AcDbEntity
  8
0
 62
     0
370
    -2
100
AcDbLine
 10
1090.085795108211
 20
595.7618801575554
 30
0.0
 11
1090.085795108211
 21
666.3714879149539
 31
0.0
  0
SOLID
  5
592
330
539
100
AcDbEntity
  8
0
 62
     0
100
AcDbTrace
 10
1088.835795108211
 20
865.7618801575555
 30
0.0
 11
1091.335795108211
 21
865.7618801575555
 31
0.0
 12
1090.085795108211
 22
873.2618801575554
 32
0.0
 13
1090.085795108211
 23
873.2618801575554
 33
0.0
  0
SOLID
  5
593
330
539
100
AcDbEntity
  8
0
 62
     0
100
AcDbTrace
 10
1088.835795108211
 20
595.7618801575554
 30
0.0
 11
1091.335795108211
 21
595.7618801575554
 31
0.0
 12
1090.085795108211
 22
588.2618801575554
 32
0.0
 13
1090.085795108211
 23
588.2618801575554
 33
0.0
  0
MTEXT
  5
594
330
539
100
AcDbEntity
  8
0
 62
     0
100
AcDbMText
 10
1090.085795108211
 20
686.9964879149541
 30
0.0
 40
7.5
 41
0.0
 46
0.0
 71
     5
 72
     1
  1
11-1/4"
 11
0.0000000000000001
 21
1.0
 31
0.0
 73
     1
 44
1.0
  0
POINT
  5
595
330
539
100
AcDbEntity
  8
Defpoints
 62
     0
100
AcDbPoint
 10
1090.085795108211
 20
873.2618801575554
 30
0.0
  0
POINT
  5
596
330
539
100
AcDbEntity
  8
Defpoints
 62
     0
100
AcDbPoint
 10
1090.085795108211
 20
588.2618801575554
 30
0.0
  0
POINT
  5
597
330
539
100
AcDbEntity
  8
Defpoints
 62
     0
100
AcDbPoint
 10
1090.085795108211
 20
588.2618801575554
 30
0.0
  0
ENDBLK
  5
545
330
539
100
AcDbEntity
  8
0
100
AcDbBlockEnd
  0
ENDSEC
  0
SECTION
  2
ENTITIES
  0
LINE
  5
150
330
1F
100
AcDbEntity
  8
con
100
AcDbLine
 10
1090.085795108211
 20
413.9784051306127
 30
0.0
 11
1315.085795108211
 21
413.9784051306127
 31
0.0
  0
LINE
  5
151
330
1F
100
AcDbEntity
  8
con
100
AcDbLine
 10
1325.085795108211
 20
403.9784051306129
 30
0.0
 11
1325.085795108211
 21
393.9784051306128
 31
0.0
  0
LINE
  5
152
330
1F
100
AcDbEntity
  8
con
100
AcDbLine
 10
866.906110310269
 20
393.9784051306128
 30
0.0
 11
855.0857951082107
 21
393.9784051306128
 31
0.0
  0
LINE
  5
153
330
1F
100
AcDbEntity
  8
con
100
AcDbLine
 10
855.0857951082107
 20
393.9784051306128
 30
0.0
 11
855.0857951082106
 21
403.9784051306127
 31
0.0
  0
LINE
  5
154
102
{ACAD_REACTORS
330
203
102
}
330
1F
100
AcDbEntity
  8
con
100
AcDbLine
 10
865.0857951082105
 20
413.9784051306127
 30
0.0
 11
1090.085795108211
 21
413.9784051306127
 31
0.0
  0
LINE
  5
156
330
1F
100
AcDbEntity
  8
con
100
AcDbLine
 10
1069.679366676708
 20
211.9784051306128
 30
0.0
 11
1110.492223539712
 21
211.9784051306129
 31
0.0
  0
LINE
  5
161
330
1F
100
AcDbEntity
  8
con
100
AcDbLine
 10
1050.620156555446
 20
374.5276484512694
 30
0.0
 11
1054.685024022784
 21
226.5664726401204
 31
0.0
  0
LINE
  5
162
330
1F
100
AcDbEntity
  8
con
100
AcDbLine
 10
1129.551433660975
 20
374.5276484512694
 30
0.0
 11
1125.486566193636
 21
226.5664726401205
 31
0.0
  0
SPLINE
  5
16A
330
1F
100
AcDbEntity
  8
dash
100
AcDbSpline
210
0.0
220
0.0
230
1.0
 70
     8
 71
     3
 72
     9
 73
     5
 74
     3
 42
0.0000000001
 43
0.0000000001
 44
0.0000000001
 40
0.0
 40
0.0
 40
0.0
 40
0.0
 40
122.5023317283454
 40
243.8805730771681
 40
243.8805730771681
 40
243.8805730771681
 40
243.8805730771681
 10
1300.08579510821
 20
413.9784051306127
 30
0.0
 10
1282.4201775589
 20
375.0082373343524
 30
0.0
 10
1247.251043462402
 20
297.4254948593679
 30
0.0
 10
1166.507666696511
 20
270.4192761652229
 30
0.0
 10
1126.322058844474
 20
256.9784051306128
 30
0.0
 11
1300.08579510821
 21
413.9784051306127
 31
0.0
 11
1235.59010971173
 21
309.828859552536
 31
0.0
 11
1126.322058844474
 21
256.9784051306128
 31
0.0
  0
SPLINE
  5
16B
330
1F
100
AcDbEntity
  8
con
100
AcDbSpline
210
0.0
220
0.0
230
1.0
 70
     8
 71
     3
 72
     9
 73
     5
 74
     0
 42
0.0000000001
 43
0.0000000001
 40
3.031109318246206
 40
3.031109318246206
 40
3.031109318246206
 40
3.031109318246206
 40
122.5023317283458
 40
256.6194873395781
 40
256.6194873395781
 40
256.6194873395781
 40
256.6194873395781
 10
1308.737643452012
 20
391.0994183423955
 30
0.0
 10
1291.021183390172
 20
353.2791759880796
 30
0.0
 10
1252.916067815047
 20
273.6123585808901
 30
0.0
 10
1171.889441519071
 20
246.2772477589774
 30
0.0
 10
1125.741271704834
 20
235.8377532476983
 30
0.0
  0
SPLINE
  5
16C
330
1F
100
AcDbEntity
  8
dash
100
AcDbSpline
210
0.0
220
0.0
230
1.0
 70
     8
 71
     3
 72
     9
 73
     5
 74
     3
 42
0.0000000001
 43
0.0000000001
 44
0.0000000001
 40
0.0
 40
0.0
 40
0.0
 40
0.0
 40
122.5023317283457
 40
243.8805730771681
 40
243.8805730771681
 40
243.8805730771681
 40
243.8805730771681
 10
880.0857951082107
 20
413.9784051306127
 30
0.0
 10
897.7514126575211
 20
375.0082373343525
 30
0.0
 10
932.9205467540193
 20
297.4254948593682
 30
0.0
 10
1013.66392351991
 20
270.419276165223
 30
0.0
 10
1053.849531371947
 20
256.9784051306128
 30
0.0
 11
880.0857951082107
 21
413.9784051306127
 31
0.0
 11
944.5814805046913
 21
309.828859552536
 31
0.0
 11
1053.849531371947
 21
256.9784051306128
 31
0.0
  0
SPLINE
  5
16D
330
1F
100
AcDbEntity
  8
con
100
AcDbSpline
210
0.0
220
0.0
230
1.0
 70
     8
 71
     3
 72
     9
 73
     5
 74
     0
 42
0.0000000001
 43
0.0000000001
 40
3.031109318246246
 40
3.031109318246246
 40
3.031109318246246
 40
3.031109318246246
 40
122.5023317283458
 40
256.6194873395781
 40
256.6194873395781
 40
256.6194873395781
 40
256.6194873395781
 10
871.4339467644091
 20
391.0994183423954
 30
0.0
 10
889.150406826249
 20
353.2791759880796
 30
0.0
 10
927.2555224013736
 20
273.6123585808901
 30
0.0
 10
1008.28214869735
 20
246.2772477589774
 30
0.0
 10
1054.430318511587
 20
235.8377532476983
 30
0.0
  0
ARC
  5
172
330
1F
100
AcDbEntity
  8
con
100
AcDbCircle
 10
865.0857951082105
 20
403.9784051306127
 30
0.0
 40
10.0
100
AcDbArc
 50
89.99999999999998
 51
180.0
  0
ARC
  5
173
330
1F
100
AcDbEntity
  8
con
100
AcDbCircle
 10
1315.085795108211
 20
403.9784051306129
 30
0.0
 40
10.0
100
AcDbArc
 50
0.0
 51
90.0
  0
ARC
  5
174
330
1F
100
AcDbEntity
  8
con
100
AcDbCircle
 10
1030.627699683547
 20
373.9784051306128
 30
0.0
 40
20.0
100
AcDbArc
 50
1.573664054102543
 51
90.0
  0
LINE
  5
175
330
1F
100
AcDbEntity
  8
con
100
AcDbLine
 10
1313.265479906152
 20
393.9784051306128
 30
0.0
 11
1325.085795108211
 21
393.9784051306128
 31
0.0
  0
ARC
  5
176
330
1F
100
AcDbEntity
  8
con
100
AcDbCircle
 10
1149.543890532874
 20
373.9784051306128
 30
0.0
 40
20.0
100
AcDbArc
 50
90.0
 51
178.4263359458974
  0
ARC
  5
177
330
1F
100
AcDbEntity
  8
con
100
AcDbCircle
 10
1069.679366676708
 20
226.9784051306128
 30
0.0
 40
15.0
100
AcDbArc
 50
181.5736640541025
 51
270.0
  0
ARC
  5
178
330
1F
100
AcDbEntity
  8
con
100
AcDbCircle
 10
1110.492223539712
 20
226.9784051306129
 30
0.0
 40
15.0
100
AcDbArc
 50
270.0
 51
358.4263359458975
  0
ARC
  5
179
330
1F
100
AcDbEntity
  8
con
100
AcDbCircle
 10
866.906110310269
 20
388.9784051306127
 30
0.0
 40
5.0
100
AcDbArc
 50
25.10020370653617
 51
89.9999999999987
  0
ARC
  5
17A
330
1F
100
AcDbEntity
  8
con
100
AcDbCircle
 10
1313.265479906152
 20
388.978405130613
 30
0.0
 40
5.0
100
AcDbArc
 50
89.99999999999737
 51
154.899796293465
  0
LINE
  5
17B
330
1F
100
AcDbEntity
  8
con
100
AcDbLine
 10
866.906110310269
 20
393.9784051306128
 30
0.0
 11
1030.627699683547
 21
393.9784051306128
 31
0.0
  0
LINE
  5
17C
330
1F
100
AcDbEntity
  8
con
100
AcDbLine
 10
1149.543890532874
 20
393.9784051306128
 30
0.0
 11
1313.265479906152
 21
393.9784051306128
 31
0.0
  0
CIRCLE
  5
180
102
{ACAD_REACTORS
330
355
102
}
330
1F
100
AcDbEntity
  8
con
100
AcDbCircle
 10
1090.085795108211
 20
808.2618801575554
 30
0.0
 40
21.5
  0
DIMENSION
  5
1EA
102
{ACAD_XDICTIONARY
360
1F8
102
}
102
{ACAD_REACTORS
330
203
102
}
330
1F
100
AcDbEntity
  8
dim
100
AcDbDimension
  2
*D5
 10
799.8257455557684
 20
211.978405130613
 30
0.0
 11
799.8257455557684
 21
312.9784051306131
 31
0.0
 70
   160
  1
8"
 71
     5
 42
201.9999999999998
 73
     0
 74
     0
 75
     0
  3
ISO-25
100
AcDbAlignedDimension
 13
1090.085795108211
 23
413.9784051306127
 33
0.0
 14
1090.085795108211
 24
211.9784051306129
 34
0.0
 50
90.0
100
AcDbRotatedDimension
  0
LINE
  5
204
330
1F
100
AcDbEntity
  8
dash
100
AcDbLine
 10
1053.849531371947
 20
256.9784051306129
 30
0.0
 11
1126.322058844474
 21
256.9784051306128
 31
0.0
  0
DIMENSION
  5
205
330
1F
100
AcDbEntity
  8
dim
100
AcDbDimension
  2
*D6
 10
833.3596793751611
 20
256.9784051306129
 30
0.0
 11
833.3596793751611
 21
335.478405130613
 31
0.0
 70
   160
  1
6-1/4"
 71
     5
 42
156.9999999999999
 73
     0
 74
     0
 75
     0
  3
ISO-25
100
AcDbAlignedDimension
 13
1089.460795108211
 23
413.9784051306127
 33
0.0
 14
1090.085795108211
 24
256.9784051306128
 34
0.0
 50
90.0
100
AcDbRotatedDimension
  0
DIMENSION
  5
340
102
{ACAD_XDICTIONARY
360
34C
102
}
102
{ACAD_REACTORS
330
355
102
}
330
1F
100
AcDbEntity
  8
dim
100
AcDbDimension
  2
*D8
 10
1111.58502528814
 20
808.0799415128813
 30
0.0
 11
1036.337684659639
 21
808.7167270654195
 31
0.0
 70
    35
  1
{\H1.4x;%%C1\H0.7x;\S11/16;\H1.4286x;"}
 71
     5
 42
43.00000000000204
 73
     0
 74
     0
 75
     0
  3
ISO-25
100
AcDbDiametricDimension
 15
1068.586564928279
 25
808.4438188022293
 35
0.0
 40
0.0
1001
ACAD
1000
DSTYLE
1002
{
1070
   288
1070
     1
1002
}
  0
LINE
  5
40B
330
1F
100
AcDbEntity
  8
con
100
AcDbLine
 10
1325.085795108211
 20
730.7618801575554
 30
0.0
 11
1325.085795108211
 21
565.7618801575554
 31
0.0
  0
LINE
  5
40C
330
1F
100
AcDbEntity
  8
con
100
AcDbLine
 10
1315.085795108211
 20
555.7618801575554
 30
0.0
 11
865.0857951082109
 21
555.7618801575554
 31
0.0
  0
LINE
  5
40D
330
1F
100
AcDbEntity
  8
con
100
AcDbLine
 10
855.0857951082107
 20
565.7618801575554
 30
0.0
 11
855.0857951082109
 21
895.7618801575554
 31
0.0
  0
LINE
  5
40E
330
1F
100
AcDbEntity
  8
con
100
AcDbLine
 10
865.0857951082109
 20
905.7618801575554
 30
0.0
 11
1315.085795108211
 21
905.7618801575555
 31
0.0
  0
LINE
  5
40F
102
{ACAD_REACTORS
330
437
102
}
330
1F
100
AcDbEntity
  8
con
100
AcDbLine
 10
1325.085795108211
 20
895.7618801575556
 30
0.0
 11
1325.085795108211
 21
730.7618801575554
 31
0.0
  0
LINE
  5
411
330
1F
100
AcDbEntity
  8
con
100
AcDbLine
 10
1300.085795108211
 20
730.7618801575554
 30
0.0
 11
1300.085795108211
 21
869.7618801575554
 31
0.0
  0
LINE
  5
412
330
1F
100
AcDbEntity
  8
con
100
AcDbLine
 10
1290.085795108211
 20
879.7618801575554
 30
0.0
 11
890.0857951082109
 21
879.7618801575554
 31
0.0
  0
LINE
  5
413
330
1F
100
AcDbEntity
  8
con
100
AcDbLine
 10
880.0857951082109
 20
869.7618801575554
 30
0.0
 11
880.0857951082107
 21
591.7618801575554
 31
0.0
  0
LINE
  5
414
330
1F
100
AcDbEntity
  8
con
100
AcDbLine
 10
890.0857951082109
 20
581.7618801575554
 30
0.0
 11
1290.085795108211
 21
581.7618801575554
 31
0.0
  0
LINE
  5
415
330
1F
100
AcDbEntity
  8
con
100
AcDbLine
 10
1300.085795108211
 20
591.7618801575554
 30
0.0
 11
1300.085795108211
 21
730.7618801575554
 31
0.0
  0
ARC
  5
416
102
{ACAD_REACTORS
330
451
102
}
330
1F
100
AcDbEntity
  8
con
100
AcDbCircle
 10
890.0857951082109
 20
869.7618801575554
 30
0.0
 40
10.0
100
AcDbArc
 50
90.0
 51
180.0
  0
ARC
  5
417
102
{ACAD_REACTORS
330
451
102
}
330
1F
100
AcDbEntity
  8
con
100
AcDbCircle
 10
1290.085795108211
 20
869.7618801575554
 30
0.0
 40
10.0
100
AcDbArc
 50
0.0
 51
90.0
  0
ARC
  5
418
330
1F
100
AcDbEntity
  8
con
100
AcDbCircle
 10
1290.085795108211
 20
591.7618801575554
 30
0.0
 40
10.0
100
AcDbArc
 50
270.0
 51
0.0
  0
ARC
  5
419
330
1F
100
AcDbEntity
  8
con
100
AcDbCircle
 10
890.0857951082109
 20
591.7618801575554
 30
0.0
 40
10.0
100
AcDbArc
 50
180.0
 51
270.0
  0
ARC
  5
41A
330
1F
100
AcDbEntity
  8
con
100
AcDbCircle
 10
865.0857951082109
 20
565.7618801575554
 30
0.0
 40
10.0
100
AcDbArc
 50
180.0
 51
270.0
  0
ARC
  5
41B
330
1F
100
AcDbEntity
  8
con
100
AcDbCircle
 10
1315.085795108211
 20
565.7618801575554
 30
0.0
 40
10.0
100
AcDbArc
 50
270.0
 51
0.0
  0
ARC
  5
41C
330
1F
100
AcDbEntity
  8
con
100
AcDbCircle
 10
1315.085795108211
 20
895.7618801575556
 30
0.0
 40
10.0
100
AcDbArc
 50
0.0
 51
90.0
  0
ARC
  5
41D
330
1F
100
AcDbEntity
  8
con
100
AcDbCircle
 10
865.0857951082109
 20
895.7618801575554
 30
0.0
 40
10.0
100
AcDbArc
 50
90.00000000000005
 51
180.0
  0
DIMENSION
  5
41E
102
{ACAD_XDICTIONARY
360
42C
102
}
102
{ACAD_REACTORS
330
437
102
}
330
1F
100
AcDbEntity
  8
dim
100
AcDbDimension
  2
*D9
 10
1325.085795108211
 20
475.6709239416397
 30
0.0
 11
1090.085795108211
 21
475.6709239416397
 31
0.0
 70
    32
  1
18-1/2"
 71
     5
 42
470.0
 73
     0
 74
     0
 75
     0
  3
ISO-25
100
AcDbAlignedDimension
 13
855.0857951082109
 23
730.7618801575554
 33
0.0
 14
1325.085795108211
 24
730.7618801575554
 34
0.0
100
AcDbRotatedDimension
  0
DIMENSION
  5
438
102
{ACAD_XDICTIONARY
360
446
102
}
102
{ACAD_REACTORS
330
451
102
}
330
1F
100
AcDbEntity
  8
dim
100
AcDbDimension
  2
*D10
 10
1300.085795108211
 20
515.7205742150673
 30
0.0
 11
1090.085795108211
 21
515.7205742150673
 31
0.0
 70
    32
  1
16-1/2"
 71
     5
 42
420.0
 73
     0
 74
     0
 75
     0
  3
ISO-25
100
AcDbAlignedDimension
 13
880.0857951082109
 23
869.7618801575554
 33
0.0
 14
1300.085795108211
 24
869.7618801575554
 34
0.0
100
AcDbRotatedDimension
  0
DIMENSION
  5
452
330
1F
100
AcDbEntity
  8
dim
100
AcDbDimension
  2
*D11
 10
765.7024809523441
 20
555.7618801575555
 30
0.0
 11
765.702480952344
 21
730.7618801575556
 31
0.0
 70
    32
  1
13-3/4"
 71
     5
 42
350.0
 73
     0
 74
     0
 75
     0
  3
ISO-25
100
AcDbAlignedDimension
 13
1090.085795108211
 23
905.7618801575554
 33
0.0
 14
1090.085795108211
 24
555.7618801575554
 34
0.0
 50
90.0
100
AcDbRotatedDimension
  0
DIMENSION
  5
46C
330
1F
100
AcDbEntity
  8
dim
100
AcDbDimension
  2
*D12
 10
810.2312925670362
 20
581.7618801575554
 30
0.0
 11
810.2312925670361
 21
730.7618801575556
 31
0.0
 70
    32
  1
11-3/4"
 71
     5
 42
298.0
 73
     0
 74
     0
 75
     0
  3
ISO-25
100
AcDbAlignedDimension
 13
1090.085795108211
 23
879.7618801575554
 33
0.0
 14
1090.085795108211
 24
581.7618801575554
 34
0.0
 50
90.0
100
AcDbRotatedDimension
  0
LINE
  5
4C6
330
1F
100
AcDbEntity
  8
dash
100
AcDbLine
 10
1090.085795108211
 20
730.7618801575554
 30
0.0
 11
1287.585795108211
 21
730.7618801575554
 31
0.0
  0
LINE
  5
4C7
330
1F
100
AcDbEntity
  8
dash
100
AcDbLine
 10
1287.585795108211
 20
730.7618801575554
 30
0.0
 11
1287.585795108211
 21
863.2618801575555
 31
0.0
  0
LINE
  5
4C8
330
1F
100
AcDbEntity
  8
dash
100
AcDbLine
 10
1277.585795108211
 20
873.2618801575554
 30
0.0
 11
902.5857951082109
 21
873.2618801575554
 31
0.0
  0
LINE
  5
4C9
330
1F
100
AcDbEntity
  8
dash
100
AcDbLine
 10
892.5857951082109
 20
863.2618801575555
 30
0.0
 11
892.5857951082109
 21
598.2618801575554
 31
0.0
  0
LINE
  5
4CA
330
1F
100
AcDbEntity
  8
dash
100
AcDbLine
 10
902.5857951082109
 20
588.2618801575554
 30
0.0
 11
1277.585795108211
 21
588.2618801575554
 31
0.0
  0
LINE
  5
4CB
102
{ACAD_REACTORS
330
52D
102
}
330
1F
100
AcDbEntity
  8
dash
100
AcDbLine
 10
1287.585795108211
 20
598.2618801575554
 30
0.0
 11
1287.585795108211
 21
730.7618801575554
 31
0.0
  0
ARC
  5
4CC
330
1F
100
AcDbEntity
  8
dash
100
AcDbCircle
 10
902.5857951082109
 20
863.2618801575555
 30
0.0
 40
10.0
100
AcDbArc
 50
90.0
 51
180.0
  0
ARC
  5
4CD
330
1F
100
AcDbEntity
  8
dash
100
AcDbCircle
 10
1277.585795108211
 20
863.2618801575555
 30
0.0
 40
10.0
100
AcDbArc
 50
0.0
 51
89.99999999999998
  0
ARC
  5
4CE
330
1F
100
AcDbEntity
  8
dash
100
AcDbCircle
 10
1277.585795108211
 20
598.2618801575554
 30
0.0
 40
10.0
100
AcDbArc
 50
270.0
 51
0.0
  0
ARC
  5
4CF
330
1F
100
AcDbEntity
  8
dash
100
AcDbCircle
 10
902.5857951082109
 20
598.2618801575554
 30
0.0
 40
10.0
100
AcDbArc
 50
180.0
 51
270.0
  0
DIMENSION
  5
514
102
{ACAD_XDICTIONARY
360
522
102
}
102
{ACAD_REACTORS
330
52D
102
}
330
1F
100
AcDbEntity
  8
0
100
AcDbDimension
  2
*D14
 10
1287.585795108211
 20
730.7618801575554
 30
0.0
 11
1015.082197087288
 21
730.7618801575554
 31
0.0
 70
   160
  1
15-1/2"
 71
     5
 42
395.0
 73
     0
 74
     0
 75
     0
  3
ISO-25
100
AcDbAlignedDimension
 13
892.5857951082109
 23
730.7618801575554
 33
0.0
 14
1287.585795108211
 24
730.7618801575554
 34
0.0
100
AcDbRotatedDimension
  0
DIMENSION
  5
538
330
1F
100
AcDbEntity
  8
0
100
AcDbDimension
  2
*D15
 10
1090.085795108211
 20
588.2618801575554
 30
0.0
 11
1090.085795108211
 21
686.9964879149541
 31
0.0
 70
   160
  1
11-1/4"
 71
     5
 42
285.0000000000001
 73
     0
 74
     0
 75
     0
  3
ISO-25
100
AcDbAlignedDimension
 13
1090.085795108211
 23
873.2618801575554
 33
0.0
 14
1090.085795108211
 24
588.2618801575554
 34
0.0
 50
90.0
100
AcDbRotatedDimension
  0
LEADER
  5
598
330
1F
100
AcDbEntity
  8
0
100
AcDbLeader
  3
ISO-25
 73
     0
 40
7.812290127602419
 41
117.2901276024177
 76
     3
 10
1287.598130203303
 20
643.9076844450617
 30
0.0
 10
1259.436889339866
 20
666.6614151613842
 30
0.0
 10
1243.259159278924
 20
666.6614151613842
 30
0.0
340
599
213
0.0
223
3.75
233
0.0
1001
ACAD
1000
DSTYLE
1002
{
1070
   147
1040
0.625
1070
    77
1070
     0
1002
}
  0
MTEXT
  5
599
102
{ACAD_REACTORS
330
598
102
}
330
1F
100
AcDbEntity
  8
0
100
AcDbMText
 10
1242.634159278924
 20
662.9114151613841
 30
0.0
 40
7.5
 41
0.0
 46
0.0
 71
     9
 72
     1
  1
{\fVerdana|b0|i0|c0|p34;CUT\fVerdana|b0|i0|c134|p34; \fVerdana|b0|i0|c0|p34;ALONG\fVerdana|b0|i0|c134|p34; \fVerdana|b0|i0|c0|p34;THIS\fVerdana|b0|i0|c134|p34; \fVerdana|b0|i0|c0|p34;LINE}
 73
     1
 44
1.0
  0
ENDSEC
  0
SECTION
  2
OBJECTS
  0
DICTIONARY
  5
C
330
0
100
AcDbDictionary
281
     1
  3
ACAD_COLOR
350
6B
  3
ACAD_GROUP
350
D
  3
ACAD_LAYOUT
350
1A
  3
ACAD_MATERIAL
350
6A
  3
ACAD_MLINESTYLE
350
17
  3
ACAD_PLOTSETTINGS
350
19
  3
ACAD_PLOTSTYLENAME
350
E
  3
ACAD_TABLESTYLE
350
7E
  3
ACAD_VISUALSTYLE
350
F0
  3
AcDbVariableDictionary
350
5E
  0
DICTIONARY
  5
12C
330
2
100
AcDbDictionary
280
     1
281
     1
  3
ACAD_LAYERFILTERS
360
4BF
  3
ACLYDICTIONARY
360
4BE
  0
DICTIONARY
  5
146
330
1F
100
AcDbDictionary
280
     1
281
     1
  3
ACAD_SORTENTS
360
147
  0
DICTIONARY
  5
1F8
330
1EA
100
AcDbDictionary
280
     1
281
     1
  3
ACAD_DIMASSOC
360
203
  0
DICTIONARY
  5
34C
330
340
100
AcDbDictionary
280
     1
281
     1
  3
ACAD_DIMASSOC
360
355
  0
DICTIONARY
  5
42C
330
41E
100
AcDbDictionary
280
     1
281
     1
  3
ACAD_DIMASSOC
360
437
  0
DICTIONARY
  5
446
330
438
100
AcDbDictionary
280
     1
281
     1
  3
ACAD_DIMASSOC
360
451
  0
DICTIONARY
  5
522
330
514
100
AcDbDictionary
280
     1
281
     1
  3
ACAD_DIMASSOC
360
52D
  0
DICTIONARY
  5
6B
102
{ACAD_REACTORS
330
C
102
}
330
C
100
AcDbDictionary
281
     1
  0
DICTIONARY
  5
D
102
{ACAD_REACTORS
330
C
102
}
330
C
100
AcDbDictionary
281
     1
  0
DICTIONARY
  5
1A
102
{ACAD_REACTORS
330
C
102
}
330
C
100
AcDbDictionary
281
     1
  3
Model
350
22
  3
布局1
350
D3
  3
布局2
350
D7
  0
DICTIONARY
  5
6A
102
{ACAD_REACTORS
330
C
102
}
330
C
100
AcDbDictionary
281
     1
  3
ByBlock
350
EE
  3
ByLayer
350
ED
  3
Global
350
EF
  0
DICTIONARY
  5
17
102
{ACAD_REACTORS
330
C
102
}
330
C
100
AcDbDictionary
281
     1
  3
Standard
350
18
  0
DICTIONARY
  5
19
102
{ACAD_REACTORS
330
C
102
}
330
C
100
AcDbDictionary
281
     1
  0
ACDBDICTIONARYWDFLT
  5
E
102
{ACAD_REACTORS
330
C
102
}
330
C
100
AcDbDictionary
281
     1
  3
Normal
350
F
100
AcDbDictionaryWithDefault
340
F
  0
DICTIONARY
  5
7E
102
{ACAD_REACTORS
330
C
102
}
330
C
100
AcDbDictionary
281
     1
  3
Standard
350
7F
  0
DICTIONARY
  5
F0
102
{ACAD_REACTORS
330
C
102
}
330
C
100
AcDbDictionary
281
     1
  3
2dWireframe
350
F6
  3
3D Hidden
350
F8
  3
3dWireframe
350
F7
  3
Basic
350
F5
  3
Brighten
350
FC
  3
ColorChange
350
100
  3
Conceptual
350
F9
  3
Dim
350
FB
  3
Facepattern
350
FF
  3
Flat
350
F1
  3
FlatWithEdges
350
F2
  3
Gouraud
350
F3
  3
GouraudWithEdges
350
F4
  3
Linepattern
350
FE
  3
Realistic
350
FA
  3
Thicken
350
FD
  0
DICTIONARY
  5
5E
102
{ACAD_REACTORS
330
C
102
}
330
C
100
AcDbDictionary
281
     1
  3
CTABLESTYLE
350
84
  3
DIMASSOC
350
5F
  3
HIDETEXT
350
63
  0
DICTIONARY
  5
4BF
102
{ACAD_REACTORS
330
12C
102
}
330
12C
100
AcDbDictionary
281
     1
  0
DICTIONARY
  5
4BE
102
{ACAD_REACTORS
330
12C
102
}
330
12C
100
AcDbDictionary
281
     1
1001
ACAD
1000
<All
  0
SORTENTSTABLE
  5
147
102
{ACAD_REACTORS
330
146
102
}
330
146
100
AcDbSortentsTable
330
1F
331
438
  5
438
331
172
  5
165
331
4C9
  5
4CB
331
40F
  5
414
331
150
  5
150
331
452
  5
452
331
4C6
  5
4C6
331
40C
  5
40D
331
162
  5
171
331
41C
  5
413
331
46C
  5
46C
331
17A
  5
17A
331
1EA
  5
1EA
331
16C
  5
175
331
416
  5
41A
331
419
  5
419
331
204
  5
204
331
176
  5
178
331
4CD
  5
4C8
331
413
  5
418
331
154
  5
16B
331
173
  5
152
331
4CA
  5
4CD
331
151
  5
154
331
4C7
  5
4C7
331
41D
  5
40F
331
40D
  5
40E
331
17B
  5
17B
331
340
  5
340
331
16D
  5
176
331
417
  5
416
331
41A
  5
411
331
205
  5
205
331
178
  5
172
331
177
  5
16E
331
4CE
  5
4CF
331
16A
  5
173
331
414
  5
41B
331
174
  5
170
331
4CB
  5
4CE
331
411
  5
415
331
152
  5
159
331
4C8
  5
4C9
331
41E
  5
41E
331
40E
  5
412
331
17C
  5
17C
331
161
  5
16D
331
41B
  5
40C
331
40B
  5
40B
331
179
  5
179
331
4CF
  5
4CC
331
16B
  5
174
331
415
  5
41D
331
156
  5
153
331
418
  5
41C
331
175
  5
177
331
4CC
  5
4CA
331
412
  5
417
331
153
  5
162
331
180
  5
180
  0
DIMASSOC
  5
203
102
{ACAD_REACTORS
330
1F8
102
}
330
1F8
100
AcDbDimAssoc
330
1EA
 90
        1
 70
     0
 71
     0
  1
AcDbOsnapPointRef
 72
     1
331
154
 73
     2
 91
        0
 40
1.0
 10
0.0
 20
0.0
 30
2.000000000000000E+50
 75
     0
  0
DIMASSOC
  5
355
102
{ACAD_REACTORS
330
34C
102
}
330
34C
100
AcDbDimAssoc
330
340
 90
        2
 70
     0
 71
     0
  1
AcDbOsnapPointRef
 72
     3
331
180
 73
     2
 91
        0
 40
0.0
 10
0.0
 20
0.0
 30
0.0
 75
     0
  0
DIMASSOC
  5
437
102
{ACAD_REACTORS
330
42C
102
}
330
42C
100
AcDbDimAssoc
330
41E
 90
        2
 70
     0
 71
     0
  1
AcDbOsnapPointRef
 72
     1
331
40F
 73
     2
 91
        0
 40
1.0
 10
0.0
 20
0.0
 30
2.000000000000000E+50
 75
     0
  0
DIMASSOC
  5
451
102
{ACAD_REACTORS
330
446
102
}
330
446
100
AcDbDimAssoc
330
438
 90
        3
 70
     0
 71
     0
  1
AcDbOsnapPointRef
 72
     1
331
416
 73
     2
 91
        0
 40
3.141592653589792
 10
0.0
 20
0.0
 30
2.000000000000000E+50
 75
     0
  1
AcDbOsnapPointRef
 72
    13
331
417
 73
     2
 91
        0
 40
0.0
 10
0.0
 20
0.0
 30
2.000000000000000E+50
 75
     0
  0
DIMASSOC
  5
52D
102
{ACAD_REACTORS
330
522
102
}
330
522
100
AcDbDimAssoc
330
514
 90
        2
 70
     0
 71
     0
  1
AcDbOsnapPointRef
 72
     1
331
4CB
 73
     2
 91
        0
 40
1.0
 10
0.0
 20
0.0
 30
2.000000000000000E+50
 75
     0
  0
LAYOUT
  5
22
102
{ACAD_REACTORS
330
1A
102
}
330
1A
100
AcDbPlotSettings
  1

  2
none_device
  4
ISO_A4_(210.00_x_297.00_MM)
  6

 40
7.5
 41
20.0
 42
7.5
 43
20.0
 44
210.0
 45
297.0
 46
11.54999923706054
 47
-13.65000009536743
 48
0.0
 49
0.0
140
0.0
141
0.0
142
1.0
143
8.704084754739808
 70
 11952
 72
     1
 73
     0
 74
     0
  7

 75
     0
147
0.1148885871608098
 76
     0
 77
     2
 78
   300
148
0.0
149
0.0
100
AcDbLayout
  1
Model
 70
     1
 71
     0
 10
0.0
 20
0.0
 11
12.0
 21
9.0
 12
0.0
 22
0.0
 32
0.0
 14
0.0
 24
0.0
 34
0.0
 15
0.0
 25
0.0
 35
0.0
146
0.0
 13
0.0
 23
0.0
 33
0.0
 16
1.0
 26
0.0
 36
0.0
 17
0.0
 27
1.0
 37
0.0
 76
     0
330
1F
331
EB
1001
ACAD_PSEXT
1000
None
1000
None
1000
Not applicable
1000
The layout will not be plotted unless a new plotter configuration name is selected.
1070
     0
  0
LAYOUT
  5
D3
102
{ACAD_REACTORS
330
1A
102
}
330
1A
100
AcDbPlotSettings
  1

  2
C:\Documents and Settings\basas\Application Data\Autodesk\AutoCAD 2005\R16.1\enu\plotters\Default Windows System Printer.pc3
  4

  6

 40
0.0
 41
0.0
 42
0.0
 43
0.0
 44
0.0
 45
0.0
 46
0.0
 47
0.0
 48
0.0
 49
0.0
140
0.0
141
0.0
142
1.0
143
1.0
 70
   688
 72
     0
 73
     0
 74
     5
  7

 75
    16
147
1.0
 76
     0
 77
     2
 78
   300
148
0.0
149
0.0
100
AcDbLayout
  1
布局1
 70
     1
 71
     1
 10
0.0
 20
0.0
 11
12.0
 21
9.0
 12
0.0
 22
0.0
 32
0.0
 14
0.0
 24
0.0
 34
0.0
 15
0.0
 25
0.0
 35
0.0
146
0.0
 13
0.0
 23
0.0
 33
0.0
 16
1.0
 26
0.0
 36
0.0
 17
0.0
 27
1.0
 37
0.0
 76
     0
330
D2
  0
LAYOUT
  5
D7
102
{ACAD_REACTORS
330
1A
102
}
330
1A
100
AcDbPlotSettings
  1

  2
C:\Documents and Settings\basas\Application Data\Autodesk\AutoCAD 2005\R16.1\enu\plotters\Default Windows System Printer.pc3
  4

  6

 40
0.0
 41
0.0
 42
0.0
 43
0.0
 44
0.0
 45
0.0
 46
0.0
 47
0.0
 48
0.0
 49
0.0
140
0.0
141
0.0
142
1.0
143
1.0
 70
   688
 72
     0
 73
     0
 74
     5
  7

 75
    16
147
1.0
 76
     0
 77
     2
 78
   300
148
0.0
149
0.0
100
AcDbLayout
  1
布局2
 70
     1
 71
     2
 10
0.0
 20
0.0
 11
12.0
 21
9.0
 12
0.0
 22
0.0
 32
0.0
 14
0.0
 24
0.0
 34
0.0
 15
0.0
 25
0.0
 35
0.0
146
0.0
 13
0.0
 23
0.0
 33
0.0
 16
1.0
 26
0.0
 36
0.0
 17
0.0
 27
1.0
 37
0.0
 76
     0
330
D6
  0
MATERIAL
  5
EE
102
{ACAD_REACTORS
330
6A
102
}
330
6A
100
AcDbMaterial
  1
ByBlock
  0
MATERIAL
  5
ED
102
{ACAD_REACTORS
330
6A
102
}
330
6A
100
AcDbMaterial
  1
ByLayer
  0
MATERIAL
  5
EF
102
{ACAD_REACTORS
330
6A
102
}
330
6A
100
AcDbMaterial
  1
Global
  0
MLINESTYLE
  5
18
102
{ACAD_REACTORS
330
17
102
}
330
17
100
AcDbMlineStyle
  2
STANDARD
 70
     0
  3

 62
   256
 51
90.0
 52
90.0
 71
     2
 49
0.5
 62
   256
  6
BYLAYER
 49
-0.5
 62
   256
  6
BYLAYER
  0
ACDBPLACEHOLDER
  5
F
102
{ACAD_REACTORS
330
E
102
}
330
E
  0
TABLESTYLE
  5
7F
102
{ACAD_REACTORS
330
7E
102
}
330
7E
100
AcDbTableStyle
  3
Standard
 70
     0
 71
     0
 40
1.5
 41
1.5
280
     0
281
     0
  7
Standard
140
4.5
170
     2
 62
     0
 63
     7
283
     0
 90
      512
 91
        0
  1

274
    -2
284
     1
 64
     0
275
    -2
285
     1
 65
     0
276
    -2
286
     1
 66
     0
277
    -2
287
     1
 67
     0
278
    -2
288
     1
 68
     0
279
    -2
289
     1
 69
     0
  7
Standard
140
6.0
170
     5
 62
     0
 63
     7
283
     0
 90
      512
 91
        0
  1

274
    -2
284
     1
 64
     0
275
    -2
285
     1
 65
     0
276
    -2
286
     1
 66
     0
277
    -2
287
     1
 67
     0
278
    -2
288
     1
 68
     0
279
    -2
289
     1
 69
     0
  7
Standard
140
4.5
170
     5
 62
     0
 63
     7
283
     0
 90
      512
 91
        0
  1

274
    -2
284
     1
 64
     0
275
    -2
285
     1
 65
     0
276
    -2
286
     1
 66
     0
277
    -2
287
     1
 67
     0
278
    -2
288
     1
 68
     0
279
    -2
289
     1
 69
     0
  0
VISUALSTYLE
  5
F6
102
{ACAD_REACTORS
330
F0
102
}
330
F0
100
AcDbVisualStyle
  2
2dWireframe
 70
     4
 71
     0
 72
     2
 73
     1
 90
        0
 40
-0.6
 41
-30.0
 62
     5
 63
     7
421
 16777215
 74
     1
 91
        4
 64
     7
 65
   257
 75
     1
175
     1
 42
1.0
 92
        0
 66
   257
 43
1.0
 76
     1
 77
     6
 78
     2
 67
     7
 79
     5
170
     0
171
     0
290
     0
174
     0
 93
        1
 44
0.0
173
     0
291
     0
 45
0.0
  0
VISUALSTYLE
  5
F8
102
{ACAD_REACTORS
330
F0
102
}
330
F0
100
AcDbVisualStyle
  2
3D Hidden
 70
     6
 71
     1
 72
     2
 73
     2
 90
        0
 40
-0.6
 41
-30.0
 62
     5
 63
     7
421
 16777215
 74
     2
 91
        2
 64
     7
 65
   257
 75
     2
175
     1
 42
40.0
 92
        0
 66
   257
 43
1.0
 76
     1
 77
     6
 78
     2
 67
     7
 79
     3
170
     0
171
     0
290
     0
174
     0
 93
        1
 44
0.0
173
     0
291
     0
 45
0.0
  0
VISUALSTYLE
  5
F7
102
{ACAD_REACTORS
330
F0
102
}
330
F0
100
AcDbVisualStyle
  2
3dWireframe
 70
     5
 71
     0
 72
     2
 73
     1
 90
        0
 40
-0.6
 41
-30.0
 62
     5
 63
     7
421
 16777215
 74
     1
 91
        4
 64
     7
 65
   257
 75
     1
175
     1
 42
1.0
 92
        0
 66
   257
 43
1.0
 76
     1
 77
     6
 78
     2
 67
     7
 79
     5
170
     0
171
     0
290
     0
174
     0
 93
        1
 44
0.0
173
     0
291
     0
 45
0.0
  0
VISUALSTYLE
  5
F5
102
{ACAD_REACTORS
330
F0
102
}
330
F0
100
AcDbVisualStyle
  2
Basic
 70
     7
 71
     1
 72
     0
 73
     1
 90
        0
 40
-0.6
 41
-30.0
 62
     5
 63
     7
421
 16777215
 74
     0
 91
        4
 64
     7
 65
   257
 75
     1
175
     1
 42
1.0
 92
        8
 66
     7
 43
1.0
 76
     1
 77
     6
 78
     2
 67
     7
 79
     5
170
     0
171
     0
290
     0
174
     0
 93
        1
 44
0.0
173
     0
291
     1
 45
0.0
  0
VISUALSTYLE
  5
FC
102
{ACAD_REACTORS
330
F0
102
}
330
F0
100
AcDbVisualStyle
  2
Brighten
 70
    12
 71
     2
 72
     2
 73
     1
 90
        0
 40
-0.6
 41
-30.0
 62
     5
 63
     7
421
 16777215
 74
     1
 91
        4
 64
     7
 65
   257
 75
     1
175
     1
 42
1.0
 92
        8
 66
     7
 43
1.0
 76
     1
 77
     6
 78
     2
 67
     7
 79
     5
170
     0
171
     0
290
     0
174
     0
 93
        1
 44
50.0
173
     0
291
     1
 45
0.0
  0
VISUALSTYLE
  5
100
102
{ACAD_REACTORS
330
F0
102
}
330
F0
100
AcDbVisualStyle
  2
ColorChange
 70
    16
 71
     2
 72
     2
 73
     3
 90
        0
 40
-0.6
 41
-30.0
 62
     5
 63
     8
421
  8421504
 74
     1
 91
        4
 64
     7
 65
   257
 75
     1
175
     1
 42
1.0
 92
        8
 66
     8
424
  8421504
 43
1.0
 76
     1
 77
     6
 78
     2
 67
     7
 79
     5
170
     0
171
     0
290
     0
174
     0
 93
        1
 44
0.0
173
     0
291
     1
 45
0.0
  0
VISUALSTYLE
  5
F9
102
{ACAD_REACTORS
330
F0
102
}
330
F0
100
AcDbVisualStyle
  2
Conceptual
 70
     9
 71
     3
 72
     2
 73
     1
 90
        0
 40
-0.6
 41
-30.0
 62
     5
 63
     7
421
 16777215
 74
     2
 91
        2
 64
     7
 65
   257
 75
     1
175
     1
 42
40.0
 92
        8
 66
     7
 43
1.0
 76
     1
 77
     6
 78
     2
 67
     7
 79
     3
170
     0
171
     0
290
     0
174
     0
 93
        1
 44
0.0
173
     0
291
     0
 45
0.0
  0
VISUALSTYLE
  5
FB
102
{ACAD_REACTORS
330
F0
102
}
330
F0
100
AcDbVisualStyle
  2
Dim
 70
    11
 71
     2
 72
     2
 73
     1
 90
        0
 40
-0.6
 41
-30.0
 62
     5
 63
     7
421
 16777215
 74
     1
 91
        4
 64
     7
 65
   257
 75
     1
175
     1
 42
1.0
 92
        8
 66
     7
 43
1.0
 76
     1
 77
     6
 78
     2
 67
     7
 79
     5
170
     0
171
     0
290
     0
174
     0
 93
        1
 44
-50.0
173
     0
291
     1
 45
0.0
  0
VISUALSTYLE
  5
FF
102
{ACAD_REACTORS
330
F0
102
}
330
F0
100
AcDbVisualStyle
  2
Facepattern
 70
    15
 71
     2
 72
     2
 73
     1
 90
        0
 40
-0.6
 41
-30.0
 62
     5
 63
     7
421
 16777215
 74
     1
 91
        4
 64
     7
 65
   257
 75
     1
175
     1
 42
1.0
 92
        8
 66
     7
 43
1.0
 76
     1
 77
     6
 78
     2
 67
     7
 79
     5
170
     0
171
     0
290
     0
174
     0
 93
        1
 44
0.0
173
     0
291
     1
 45
0.0
  0
VISUALSTYLE
  5
F1
102
{ACAD_REACTORS
330
F0
102
}
330
F0
100
AcDbVisualStyle
  2
Flat
 70
     0
 71
     2
 72
     1
 73
     1
 90
        2
 40
-0.6
 41
30.0
 62
     5
 63
     7
421
 16777215
 74
     0
 91
        4
 64
     7
 65
   257
 75
     1
175
     1
 42
1.0
 92
        8
 66
     7
 43
1.0
 76
     1
 77
     6
 78
     2
 67
     7
 79
     5
170
     0
171
     0
290
     0
174
     0
 93
        1
 44
0.0
173
     0
291
     1
 45
0.0
  0
VISUALSTYLE
  5
F2
102
{ACAD_REACTORS
330
F0
102
}
330
F0
100
AcDbVisualStyle
  2
FlatWithEdges
 70
     1
 71
     2
 72
     1
 73
     1
 90
        2
 40
-0.6
 41
30.0
 62
     5
 63
     7
421
 16777215
 74
     1
 91
        4
 64
     7
 65
   257
 75
     1
175
     1
 42
1.0
 92
        0
 66
   257
 43
1.0
 76
     1
 77
     6
 78
     2
 67
     7
 79
     5
170
     0
171
     0
290
     0
174
     0
 93
        1
 44
0.0
173
     0
291
     1
 45
0.0
  0
VISUALSTYLE
  5
F3
102
{ACAD_REACTORS
330
F0
102
}
330
F0
100
AcDbVisualStyle
  2
Gouraud
 70
     2
 71
     2
 72
     2
 73
     1
 90
        2
 40
-0.6
 41
30.0
 62
     5
 63
     7
421
 16777215
 74
     0
 91
        4
 64
     7
 65
   257
 75
     1
175
     1
 42
1.0
 92
        0
 66
     7
 43
1.0
 76
     1
 77
     6
 78
     2
 67
     7
 79
     5
170
     0
171
     0
290
     0
174
     0
 93
        1
 44
0.0
173
     0
291
     1
 45
0.0
  0
VISUALSTYLE
  5
F4
102
{ACAD_REACTORS
330
F0
102
}
330
F0
100
AcDbVisualStyle
  2
GouraudWithEdges
 70
     3
 71
     2
 72
     2
 73
     1
 90
        2
 40
-0.6
 41
30.0
 62
     5
 63
     7
421
 16777215
 74
     1
 91
        4
 64
     7
 65
   257
 75
     1
175
     1
 42
1.0
 92
        0
 66
   257
 43
1.0
 76
     1
 77
     6
 78
     2
 67
     7
 79
     5
170
     0
171
     0
290
     0
174
     0
 93
        1
 44
0.0
173
     0
291
     1
 45
0.0
  0
VISUALSTYLE
  5
FE
102
{ACAD_REACTORS
330
F0
102
}
330
F0
100
AcDbVisualStyle
  2
Linepattern
 70
    14
 71
     2
 72
     2
 73
     1
 90
        0
 40
-0.6
 41
-30.0
 62
     5
 63
     7
421
 16777215
 74
     1
 91
        4
 64
     7
 65
   257
 75
     7
175
     7
 42
1.0
 92
        8
 66
     7
 43
1.0
 76
     1
 77
     6
 78
     2
 67
     7
 79
     5
170
     0
171
     0
290
     0
174
     0
 93
        1
 44
0.0
173
     0
291
     1
 45
0.0
  0
VISUALSTYLE
  5
FA
102
{ACAD_REACTORS
330
F0
102
}
330
F0
100
AcDbVisualStyle
  2
Realistic
 70
     8
 71
     2
 72
     2
 73
     1
 90
        0
 40
-0.6
 41
-30.0
 62
     5
 63
     7
421
 16777215
 74
     1
 91
        0
 64
     7
 65
   257
 75
     1
175
     1
 42
1.0
 92
        8
 66
     8
424
  7895160
 43
1.0
 76
     1
 77
     6
 78
     2
 67
     7
 79
     5
170
     0
171
     0
290
     0
174
     0
 93
       13
 44
0.0
173
     0
291
     0
 45
0.0
  0
VISUALSTYLE
  5
FD
102
{ACAD_REACTORS
330
F0
102
}
330
F0
100
AcDbVisualStyle
  2
Thicken
 70
    13
 71
     2
 72
     2
 73
     1
 90
        0
 40
-0.6
 41
-30.0
 62
     5
 63
     7
421
 16777215
 74
     1
 91
        4
 64
     7
 65
   257
 75
     1
175
     1
 42
1.0
 92
       12
 66
     7
 43
1.0
 76
     1
 77
     6
 78
     2
 67
     7
 79
     5
170
     0
171
     0
290
     0
174
     0
 93
        1
 44
0.0
173
     0
291
     1
 45
0.0
  0
DICTIONARYVAR
  5
84
102
{ACAD_REACTORS
330
5E
102
}
330
5E
100
DictionaryVariables
280
     0
  1
STANDARD
  0
DICTIONARYVAR
  5
5F
102
{ACAD_REACTORS
330
5E
102
}
330
5E
100
DictionaryVariables
280
     0
  1
2
  0
DICTIONARYVAR
  5
63
102
{ACAD_REACTORS
330
5E
102
}
330
5E
100
DictionaryVariables
280
     0
  1
1
  0
ENDSEC
  0
EOF
