  0
SECTION
  2
HEADER
  9
$ACADVER
  1
AC1021
  9
$ACADMAINTVER
 70
     1
  9
$DWGCODEPAGE
  3
ANSI_936
  9
$LASTSAVEDBY
  1
Administrator
  9
$INSBASE
 10
0.0
 20
0.0
 30
0.0
  9
$EXTMIN
 10
679.3535213036137
 20
384.5958762183288
 30
0.0
  9
$EXTMAX
 10
1273.649785472468
 20
1106.336406115931
 30
0.0
  9
$LIMMIN
 10
0.0
 20
0.0
  9
$LIMMAX
 10
420.0
 20
297.0
  9
$ORTHOMODE
 70
     1
  9
$REGENMODE
 70
     1
  9
$FILLMODE
 70
     1
  9
$QTEXTMODE
 70
     0
  9
$MIRRTEXT
 70
     0
  9
$LTSCALE
 40
1.0
  9
$ATTMODE
 70
     1
  9
$TEXTSIZE
 40
2.5
  9
$TRACEWID
 40
1.0
  9
$TEXTSTYLE
  7
Standard
  9
$CLAYER
  8
dim
  9
$CELTYPE
  6
ByLayer
  9
$CECOLOR
 62
   256
  9
$CELTSCALE
 40
1.0
  9
$DISPSILH
 70
     0
  9
$DIMSCALE
 40
1.0
  9
$DIMASZ
 40
7.5
  9
$DIMEXO
 40
0.625
  9
$DIMDLI
 40
3.75
  9
$DIMRND
 40
0.0
  9
$DIMDLE
 40
0.0
  9
$DIMEXE
 40
1.25
  9
$DIMTP
 40
0.0
  9
$DIMTM
 40
0.0
  9
$DIMTXT
 40
7.5
  9
$DIMCEN
 40
2.5
  9
$DIMTSZ
 40
0.0
  9
$DIMTOL
 70
     0
  9
$DIMLIM
 70
     0
  9
$DIMTIH
 70
     0
  9
$DIMTOH
 70
     0
  9
$DIMSE1
 70
     0
  9
$DIMSE2
 70
     0
  9
$DIMTAD
 70
     0
  9
$DIMZIN
 70
     8
  9
$DIMBLK
  1

  9
$DIMASO
 70
     1
  9
$DIMSHO
 70
     1
  9
$DIMPOST
  1

  9
$DIMAPOST
  1

  9
$DIMALT
 70
     0
  9
$DIMALTD
 70
     3
  9
$DIMALTF
 40
0.03937007874016
  9
$DIMLFAC
 40
1.0
  9
$DIMTOFL
 70
     1
  9
$DIMTVP
 40
0.0
  9
$DIMTIX
 70
     0
  9
$DIMSOXD
 70
     0
  9
$DIMSAH
 70
     0
  9
$DIMBLK1
  1

  9
$DIMBLK2
  1

  9
$DIMSTYLE
  2
ISO-25
  9
$DIMCLRD
 70
     0
  9
$DIMCLRE
 70
     0
  9
$DIMCLRT
 70
     0
  9
$DIMTFAC
 40
1.0
  9
$DIMGAP
 40
0.625
  9
$DIMJUST
 70
     0
  9
$DIMSD1
 70
     0
  9
$DIMSD2
 70
     0
  9
$DIMTOLJ
 70
     0
  9
$DIMTZIN
 70
     8
  9
$DIMALTZ
 70
     0
  9
$DIMALTTZ
 70
     0
  9
$DIMUPT
 70
     0
  9
$DIMDEC
 70
     2
  9
$DIMTDEC
 70
     2
  9
$DIMALTU
 70
     2
  9
$DIMALTTD
 70
     3
  9
$DIMTXSTY
  7
Standard
  9
$DIMAUNIT
 70
     0
  9
$DIMADEC
 70
     0
  9
$DIMALTRND
 40
0.0
  9
$DIMAZIN
 70
     0
  9
$DIMDSEP
 70
    44
  9
$DIMATFIT
 70
     3
  9
$DIMFRAC
 70
     0
  9
$DIMLDRBLK
  1

  9
$DIMLUNIT
 70
     2
  9
$DIMLWD
 70
    -2
  9
$DIMLWE
 70
    -2
  9
$DIMTMOVE
 70
     0
  9
$DIMFXL
 40
1.0
  9
$DIMFXLON
 70
     0
  9
$DIMJOGANG
 40
0.7853981633974483
  9
$DIMTFILL
 70
     0
  9
$DIMTFILLCLR
 70
     0
  9
$DIMARCSYM
 70
     0
  9
$DIMLTYPE
  6

  9
$DIMLTEX1
  6

  9
$DIMLTEX2
  6

  9
$LUNITS
 70
     2
  9
$LUPREC
 70
     4
  9
$SKETCHINC
 40
1.0
  9
$FILLETRAD
 40
10.0
  9
$AUNITS
 70
     0
  9
$AUPREC
 70
     0
  9
$MENU
  1
.
  9
$ELEVATION
 40
0.0
  9
$PELEVATION
 40
0.0
  9
$THICKNESS
 40
0.0
  9
$LIMCHECK
 70
     0
  9
$CHAMFERA
 40
0.0
  9
$CHAMFERB
 40
0.0
  9
$CHAMFERC
 40
0.0
  9
$CHAMFERD
 40
0.0
  9
$SKPOLY
 70
     0
  9
$TDCREATE
 40
2458246.405100845
  9
$TDUCREATE
 40
2458246.071767512
  9
$TDUPDATE
 40
2458319.764722836
  9
$TDUUPDATE
 40
2458319.431389502
  9
$TDINDWG
 40
0.0920819676
  9
$TDUSRTIMER
 40
0.0920811111
  9
$USRTIMER
 70
     1
  9
$ANGBASE
 50
0.0
  9
$ANGDIR
 70
     0
  9
$PDMODE
 70
     0
  9
$PDSIZE
 40
0.0
  9
$PLINEWID
 40
0.0
  9
$SPLFRAME
 70
     0
  9
$SPLINETYPE
 70
     6
  9
$SPLINESEGS
 70
     8
  9
$HANDSEED
  5
69E
  9
$SURFTAB1
 70
     6
  9
$SURFTAB2
 70
     6
  9
$SURFTYPE
 70
     6
  9
$SURFU
 70
     6
  9
$SURFV
 70
     6
  9
$UCSBASE
  2

  9
$UCSNAME
  2

  9
$UCSORG
 10
0.0
 20
0.0
 30
0.0
  9
$UCSXDIR
 10
1.0
 20
0.0
 30
0.0
  9
$UCSYDIR
 10
0.0
 20
1.0
 30
0.0
  9
$UCSORTHOREF
  2

  9
$UCSORTHOVIEW
 70
     0
  9
$UCSORGTOP
 10
0.0
 20
0.0
 30
0.0
  9
$UCSORGBOTTOM
 10
0.0
 20
0.0
 30
0.0
  9
$UCSORGLEFT
 10
0.0
 20
0.0
 30
0.0
  9
$UCSORGRIGHT
 10
0.0
 20
0.0
 30
0.0
  9
$UCSORGFRONT
 10
0.0
 20
0.0
 30
0.0
  9
$UCSORGBACK
 10
0.0
 20
0.0
 30
0.0
  9
$PUCSBASE
  2

  9
$PUCSNAME
  2

  9
$PUCSORG
 10
0.0
 20
0.0
 30
0.0
  9
$PUCSXDIR
 10
1.0
 20
0.0
 30
0.0
  9
$PUCSYDIR
 10
0.0
 20
1.0
 30
0.0
  9
$PUCSORTHOREF
  2

  9
$PUCSORTHOVIEW
 70
     0
  9
$PUCSORGTOP
 10
0.0
 20
0.0
 30
0.0
  9
$PUCSORGBOTTOM
 10
0.0
 20
0.0
 30
0.0
  9
$PUCSORGLEFT
 10
0.0
 20
0.0
 30
0.0
  9
$PUCSORGRIGHT
 10
0.0
 20
0.0
 30
0.0
  9
$PUCSORGFRONT
 10
0.0
 20
0.0
 30
0.0
  9
$PUCSORGBACK
 10
0.0
 20
0.0
 30
0.0
  9
$USERI1
 70
     0
  9
$USERI2
 70
     0
  9
$USERI3
 70
     0
  9
$USERI4
 70
     0
  9
$USERI5
 70
     0
  9
$USERR1
 40
0.0
  9
$USERR2
 40
0.0
  9
$USERR3
 40
0.0
  9
$USERR4
 40
0.0
  9
$USERR5
 40
0.0
  9
$WORLDVIEW
 70
     1
  9
$SHADEDGE
 70
     3
  9
$SHADEDIF
 70
    70
  9
$TILEMODE
 70
     1
  9
$MAXACTVP
 70
    64
  9
$PINSBASE
 10
0.0
 20
0.0
 30
0.0
  9
$PLIMCHECK
 70
     0
  9
$PEXTMIN
 10
0.0
 20
0.0
 30
0.0
  9
$PEXTMAX
 10
0.0
 20
0.0
 30
0.0
  9
$PLIMMIN
 10
0.0
 20
0.0
  9
$PLIMMAX
 10
12.0
 20
9.0
  9
$UNITMODE
 70
     0
  9
$VISRETAIN
 70
     1
  9
$PLINEGEN
 70
     0
  9
$PSLTSCALE
 70
     1
  9
$TREEDEPTH
 70
  3020
  9
$CMLSTYLE
  2
Standard
  9
$CMLJUST
 70
     0
  9
$CMLSCALE
 40
20.0
  9
$PROXYGRAPHICS
 70
     1
  9
$MEASUREMENT
 70
     1
  9
$CELWEIGHT
370
    -1
  9
$ENDCAPS
280
     0
  9
$JOINSTYLE
280
     0
  9
$LWDISPLAY
290
     1
  9
$INSUNITS
 70
     4
  9
$HYPERLINKBASE
  1

  9
$STYLESHEET
  1

  9
$XEDIT
290
     1
  9
$CEPSNTYPE
380
     0
  9
$PSTYLEMODE
290
     1
  9
$FINGERPRINTGUID
  2
{B9AE200B-F021-428B-955F-141660E60FC2}
  9
$VERSIONGUID
  2
{DC83F700-7898-4DB5-AB26-311BA7E4F010}
  9
$EXTNAMES
290
     1
  9
$PSVPSCALE
 40
0.0
  9
$OLESTARTUP
290
     0
  9
$SORTENTS
280
   127
  9
$INDEXCTL
280
     0
  9
$HIDETEXT
280
     1
  9
$XCLIPFRAME
290
     0
  9
$HALOGAP
280
     0
  9
$OBSCOLOR
 70
   257
  9
$OBSLTYPE
280
     0
  9
$INTERSECTIONDISPLAY
280
     0
  9
$INTERSECTIONCOLOR
 70
   257
  9
$DIMASSOC
280
     2
  9
$PROJECTNAME
  1

  9
$CAMERADISPLAY
290
     0
  9
$LENSLENGTH
 40
50.0
  9
$CAMERAHEIGHT
 40
0.0
  9
$STEPSPERSEC
 40
2.0
  9
$STEPSIZE
 40
6.0
  9
$3DDWFPREC
 40
2.0
  9
$PSOLWIDTH
 40
5.0
  9
$PSOLHEIGHT
 40
80.0
  9
$LOFTANG1
 40
1.570796326794896
  9
$LOFTANG2
 40
1.570796326794896
  9
$LOFTMAG1
 40
0.0
  9
$LOFTMAG2
 40
0.0
  9
$LOFTPARAM
 70
     7
  9
$LOFTNORMALS
280
     1
  9
$LATITUDE
 40
37.795
  9
$LONGITUDE
 40
-122.394
  9
$NORTHDIRECTION
 40
0.0
  9
$TIMEZONE
 70
 -8000
  9
$LIGHTGLYPHDISPLAY
280
     1
  9
$TILEMODELIGHTSYNCH
280
     1
  9
$CMATERIAL
347
ED
  9
$SOLIDHIST
280
     1
  9
$SHOWHIST
280
     1
  9
$DWFFRAME
280
     2
  9
$DGNFRAME
280
     0
  9
$REALWORLDSCALE
290
     1
  9
$INTERFERECOLOR
 62
     1
  9
$INTERFEREOBJVS
345
FA
  9
$INTERFEREVPVS
346
F7
  9
$CSHADOW
280
     0
  9
$SHADOWPLANELOCATION
 40
0.0
  0
ENDSEC
  0
SECTION
  2
CLASSES
  0
CLASS
  1
ACDBDICTIONARYWDFLT
  2
AcDbDictionaryWithDefault
  3
ObjectDBX Classes
 90
        0
 91
        1
280
     0
281
     0
  0
CLASS
  1
DICTIONARYVAR
  2
AcDbDictionaryVar
  3
ObjectDBX Classes
 90
        0
 91
        3
280
     0
281
     0
  0
CLASS
  1
TABLESTYLE
  2
AcDbTableStyle
  3
ObjectDBX Classes
 90
     4095
 91
        1
280
     0
281
     0
  0
CLASS
  1
MATERIAL
  2
AcDbMaterial
  3
ObjectDBX Classes
 90
     1024
 91
        3
280
     0
281
     0
  0
CLASS
  1
VISUALSTYLE
  2
AcDbVisualStyle
  3
ObjectDBX Classes
 90
     4095
 91
       16
280
     0
281
     0
  0
CLASS
  1
SORTENTSTABLE
  2
AcDbSortentsTable
  3
ObjectDBX Classes
 90
        0
 91
        1
280
     0
281
     0
  0
CLASS
  1
DIMASSOC
  2
AcDbDimAssoc
  3
"AcDbDimAssoc|Product Desc:     AcDim ARX App For Dimension|Company:          Autodesk, Inc.|WEB Address:      www.autodesk.com"
 90
        0
 91
        5
280
     0
281
     0
  0
ENDSEC
  0
SECTION
  2
TABLES
  0
TABLE
  2
VPORT
  5
8
330
0
100
AcDbSymbolTable
 70
     1
  0
VPORT
  5
EB
330
8
100
AcDbSymbolTableRecord
100
AcDbViewportTableRecord
  2
*Active
 70
     0
 10
0.0
 20
0.0
 11
1.0
 21
1.0
 12
1040.49793133032
 22
738.9945819383041
 13
0.0
 23
0.0
 14
10.0
 24
10.0
 15
10.0
 25
10.0
 16
0.0
 26
0.0
 36
1.0
 17
0.0
 27
0.0
 37
0.0
 40
815.0207218650987
 41
2.223150357995226
 42
50.0
 43
0.0
 44
0.0
 50
0.0
 51
0.0
 71
     0
 72
  1000
 73
     1
 74
     3
 75
     0
 76
     0
 77
     0
 78
     0
281
     0
 65
     1
110
0.0
120
0.0
130
0.0
111
1.0
121
0.0
131
0.0
112
0.0
122
1.0
132
0.0
 79
     0
146
0.0
348
F6
 60
     2
 61
     5
292
     1
282
     1
141
0.0
142
0.0
 63
   250
421
  3355443
  0
ENDTAB
  0
TABLE
  2
LTYPE
  5
5
330
0
100
AcDbSymbolTable
 70
     3
  0
LTYPE
  5
14
330
5
100
AcDbSymbolTableRecord
100
AcDbLinetypeTableRecord
  2
ByBlock
 70
     0
  3

 72
    65
 73
     0
 40
0.0
  0
LTYPE
  5
15
330
5
100
AcDbSymbolTableRecord
100
AcDbLinetypeTableRecord
  2
ByLayer
 70
     0
  3

 72
    65
 73
     0
 40
0.0
  0
LTYPE
  5
16
330
5
100
AcDbSymbolTableRecord
100
AcDbLinetypeTableRecord
  2
Continuous
 70
     0
  3
Solid line
 72
    65
 73
     0
 40
0.0
  0
LTYPE
  5
12A
330
5
100
AcDbSymbolTableRecord
100
AcDbLinetypeTableRecord
  2
ACAD_ISO02W100
 70
     0
  3
ISO dash __ __ __ __ __ __ __ __ __ __ __ __ __
 72
    65
 73
     2
 40
15.0
 49
12.0
 74
     0
 49
-3.0
 74
     0
  0
LTYPE
  5
12B
330
5
100
AcDbSymbolTableRecord
100
AcDbLinetypeTableRecord
  2
ACAD_ISO04W100
 70
     0
  3
ISO long-dash dot ____ . ____ . ____ . ____ . _
 72
    65
 73
     4
 40
30.0
 49
24.0
 74
     0
 49
-3.0
 74
     0
 49
0.0
 74
     0
 49
-3.0
 74
     0
  0
ENDTAB
  0
TABLE
  2
LAYER
  5
2
102
{ACAD_XDICTIONARY
360
12C
102
}
330
0
100
AcDbSymbolTable
 70
     7
  0
LAYER
  5
10
330
2
100
AcDbSymbolTableRecord
100
AcDbLayerTableRecord
  2
0
 70
     0
 62
     7
  6
Continuous
370
    -3
390
F
347
EF
  0
LAYER
  5
123
330
2
100
AcDbSymbolTableRecord
100
AcDbLayerTableRecord
  2
dim
 70
     0
 62
     7
  6
Continuous
370
    -3
390
F
347
EF
1001
AcAecLayerStandard
1000

1000

  0
LAYER
  5
125
330
2
100
AcDbSymbolTableRecord
100
AcDbLayerTableRecord
  2
dash
 70
     0
 62
     6
  6
ACAD_ISO02W100
370
    -3
390
F
347
EF
1001
AcAecLayerStandard
1000

1000

  0
LAYER
  5
126
330
2
100
AcDbSymbolTableRecord
100
AcDbLayerTableRecord
  2
center
 70
     0
 62
     1
  6
ACAD_ISO04W100
370
    -3
390
F
347
EF
1001
AcAecLayerStandard
1000

1000

  0
LAYER
  5
127
330
2
100
AcDbSymbolTableRecord
100
AcDbLayerTableRecord
  2
con
 70
     0
 62
     7
  6
Continuous
370
    30
390
F
347
EF
1001
AcAecLayerStandard
1000

1000

  0
LAYER
  5
19F
330
2
100
AcDbSymbolTableRecord
100
AcDbLayerTableRecord
  2
Defpoints
 70
     0
 62
     7
  6
Continuous
290
     0
370
    -3
390
F
347
EF
  0
LAYER
  5
608
330
2
100
AcDbSymbolTableRecord
100
AcDbLayerTableRecord
  2
图层1
 70
     0
 62
     7
  6
ACAD_ISO02W100
370
    -3
390
F
347
EF
1001
AcAecLayerStandard
1000

1000

  0
ENDTAB
  0
TABLE
  2
STYLE
  5
3
330
0
100
AcDbSymbolTable
 70
     2
  0
STYLE
  5
11
330
3
100
AcDbSymbolTableRecord
100
AcDbTextStyleTableRecord
  2
Standard
 70
     0
 40
0.0
 41
1.0
 50
0.0
 71
     0
 42
2.5
  3
txt
  4
gbcbig.shx
  0
STYLE
  5
129
330
3
100
AcDbSymbolTableRecord
100
AcDbTextStyleTableRecord
  2

 70
     1
 40
0.0
 41
1.0
 50
0.0
 71
     0
 42
2.5
  3
ltypeshp.shx
  4

  0
ENDTAB
  0
TABLE
  2
VIEW
  5
6
330
0
100
AcDbSymbolTable
 70
     0
  0
ENDTAB
  0
TABLE
  2
UCS
  5
7
330
0
100
AcDbSymbolTable
 70
     0
  0
ENDTAB
  0
TABLE
  2
APPID
  5
9
330
0
100
AcDbSymbolTable
 70
     4
  0
APPID
  5
12
330
9
100
AcDbSymbolTableRecord
100
AcDbRegAppTableRecord
  2
ACAD
 70
     0
  0
APPID
  5
9E
330
9
100
AcDbSymbolTableRecord
100
AcDbRegAppTableRecord
  2
ACAD_PSEXT
 70
     0
  0
APPID
  5
124
330
9
100
AcDbSymbolTableRecord
100
AcDbRegAppTableRecord
  2
AcAecLayerStandard
 70
     0
  0
APPID
  5
130
330
9
100
AcDbSymbolTableRecord
100
AcDbRegAppTableRecord
  2
ACAD_EXEMPT_FROM_CAD_STANDARDS
 70
     0
  0
ENDTAB
  0
TABLE
  2
DIMSTYLE
  5
A
330
0
100
AcDbSymbolTable
 70
     1
100
AcDbDimStyleTable
 71
     1
340
27
  0
DIMSTYLE
105
27
102
{ACAD_REACTORS
330
231
330
24B
330
3A0
330
421
330
43B
330
455
330
46F
330
577
330
591
102
}
330
A
100
AcDbSymbolTableRecord
100
AcDbDimStyleTableRecord
  2
ISO-25
 70
     0
 41
7.5
 42
0.625
 43
3.75
 44
1.25
 73
     0
 74
     0
 78
     8
140
7.5
141
2.5
143
0.03937007874016
147
0.625
171
     3
172
     1
271
     2
272
     2
274
     3
278
    44
283
     0
284
     8
340
11
  0
ENDTAB
  0
TABLE
  2
BLOCK_RECORD
  5
1
330
0
100
AcDbSymbolTable
 70
    17
  0
BLOCK_RECORD
  5
1F
102
{ACAD_XDICTIONARY
360
14B
102
}
330
1
100
AcDbSymbolTableRecord
100
AcDbBlockTableRecord
  2
*Model_Space
340
22
 70
     0
280
     1
281
     0
  0
BLOCK_RECORD
  5
D2
330
1
100
AcDbSymbolTableRecord
100
AcDbBlockTableRecord
  2
*Paper_Space
340
D3
 70
     0
280
     1
281
     0
  0
BLOCK_RECORD
  5
D6
330
1
100
AcDbSymbolTableRecord
100
AcDbBlockTableRecord
  2
*Paper_Space0
340
D7
 70
     0
280
     1
281
     0
  0
BLOCK_RECORD
  5
1A0
330
1
100
AcDbSymbolTableRecord
100
AcDbBlockTableRecord
  2
*D1
340
0
 70
     0
280
     1
281
     0
  0
BLOCK_RECORD
  5
1B8
330
1
100
AcDbSymbolTableRecord
100
AcDbBlockTableRecord
  2
*D2
340
0
 70
     0
280
     1
281
     0
  0
BLOCK_RECORD
  5
1D0
330
1
100
AcDbSymbolTableRecord
100
AcDbBlockTableRecord
  2
*D3
340
0
 70
     0
280
     1
281
     0
  0
BLOCK_RECORD
  5
1E8
330
1
100
AcDbSymbolTableRecord
100
AcDbBlockTableRecord
  2
*D4
340
0
 70
     0
280
     1
281
     0
  0
BLOCK_RECORD
  5
202
330
1
100
AcDbSymbolTableRecord
100
AcDbBlockTableRecord
  2
*D5
340
0
 70
     0
280
     1
281
     0
  0
BLOCK_RECORD
  5
21A
330
1
100
AcDbSymbolTableRecord
100
AcDbBlockTableRecord
  2
*D6
340
0
 70
     0
280
     1
281
     0
  0
BLOCK_RECORD
  5
232
330
1
100
AcDbSymbolTableRecord
100
AcDbBlockTableRecord
  2
*D7
340
0
 70
     0
280
     1
281
     0
  0
BLOCK_RECORD
  5
24C
330
1
100
AcDbSymbolTableRecord
100
AcDbBlockTableRecord
  2
*D8
340
0
 70
     0
280
     1
281
     0
  0
BLOCK_RECORD
  5
3A1
330
1
100
AcDbSymbolTableRecord
100
AcDbBlockTableRecord
  2
*D9
340
0
 70
     0
280
     1
281
     0
  0
BLOCK_RECORD
  5
422
330
1
100
AcDbSymbolTableRecord
100
AcDbBlockTableRecord
  2
*D10
340
0
 70
     0
280
     1
281
     0
  0
BLOCK_RECORD
  5
43C
330
1
100
AcDbSymbolTableRecord
100
AcDbBlockTableRecord
  2
*D11
340
0
 70
     0
280
     1
281
     0
  0
BLOCK_RECORD
  5
456
330
1
100
AcDbSymbolTableRecord
100
AcDbBlockTableRecord
  2
*D12
340
0
 70
     0
280
     1
281
     0
  0
BLOCK_RECORD
  5
470
330
1
100
AcDbSymbolTableRecord
100
AcDbBlockTableRecord
  2
*D13
340
0
 70
     0
280
     1
281
     0
  0
BLOCK_RECORD
  5
55E
330
1
100
AcDbSymbolTableRecord
100
AcDbBlockTableRecord
  2
*D14
340
0
 70
     0
280
     1
281
     0
  0
BLOCK_RECORD
  5
578
330
1
100
AcDbSymbolTableRecord
100
AcDbBlockTableRecord
  2
*D15
340
0
 70
     0
280
     1
281
     0
  0
BLOCK_RECORD
  5
592
330
1
100
AcDbSymbolTableRecord
100
AcDbBlockTableRecord
  2
*D16
340
0
 70
     0
280
     1
281
     0
  0
ENDTAB
  0
ENDSEC
  0
SECTION
  2
BLOCKS
  0
BLOCK
  5
20
330
1F
100
AcDbEntity
  8
0
100
AcDbBlockBegin
  2
*Model_Space
 70
     0
 10
0.0
 20
0.0
 30
0.0
  3
*Model_Space
  1

  0
ENDBLK
  5
21
330
1F
100
AcDbEntity
  8
0
100
AcDbBlockEnd
  0
BLOCK
  5
D4
330
D2
100
AcDbEntity
 67
     1
  8
0
100
AcDbBlockBegin
  2
*Paper_Space
 70
     0
 10
0.0
 20
0.0
 30
0.0
  3
*Paper_Space
  1

  0
ENDBLK
  5
D5
330
D2
100
AcDbEntity
 67
     1
  8
0
100
AcDbBlockEnd
  0
BLOCK
  5
D8
330
D6
100
AcDbEntity
 67
     1
  8
0
100
AcDbBlockBegin
  2
*Paper_Space0
 70
     0
 10
0.0
 20
0.0
 30
0.0
  3
*Paper_Space0
  1

  0
ENDBLK
  5
D9
330
D6
100
AcDbEntity
 67
     1
  8
0
100
AcDbBlockEnd
  0
BLOCK
  5
1AA
330
1A0
100
AcDbEntity
  8
0
100
AcDbBlockBegin
  2
*D1
 70
     1
 10
0.0
 20
0.0
 30
0.0
  3
*D1
  1

  0
LINE
  5
1AD
330
1A0
100
AcDbEntity
  8
dim
 62
     0
370
    -2
100
AcDbLine
 10
757.7747854724684
 20
729.7114061159309
 30
0.0
 11
757.7747854724684
 21
664.6861299745465
 31
0.0
  0
LINE
  5
1AE
330
1A0
100
AcDbEntity
  8
dim
 62
     0
370
    -2
100
AcDbLine
 10
1272.774785472468
 20
729.7114061159308
 30
0.0
 11
1272.774785472468
 21
664.6861299745465
 31
0.0
  0
LINE
  5
1AF
330
1A0
100
AcDbEntity
  8
dim
 62
     0
370
    -2
100
AcDbLine
 10
760.2747854724684
 20
665.9361299745462
 30
0.0
 11
1270.274785472468
 21
665.9361299745462
 31
0.0
  0
SOLID
  5
1B0
330
1A0
100
AcDbEntity
  8
dim
 62
     0
100
AcDbTrace
 10
760.2747854724684
 20
666.352796641213
 30
0.0
 11
760.2747854724684
 21
665.5194633078797
 31
0.0
 12
757.7747854724684
 22
665.9361299745462
 32
0.0
 13
757.7747854724684
 23
665.9361299745462
 33
0.0
  0
SOLID
  5
1B1
330
1A0
100
AcDbEntity
  8
dim
 62
     0
100
AcDbTrace
 10
1270.274785472468
 20
666.352796641213
 30
0.0
 11
1270.274785472468
 21
665.5194633078797
 31
0.0
 12
1272.774785472468
 22
665.9361299745462
 32
0.0
 13
1272.774785472468
 23
665.9361299745462
 33
0.0
  0
MTEXT
  5
1B2
330
1A0
100
AcDbEntity
  8
dim
 62
     0
100
AcDbMText
 10
1015.274785472468
 20
667.8111299745465
 30
0.0
 40
2.5
 41
0.0
 46
0.0
 71
     5
 72
     1
  1
515
 73
     1
 44
1.0
  0
POINT
  5
1B3
330
1A0
100
AcDbEntity
  8
Defpoints
 62
     0
100
AcDbPoint
 10
757.7747854724684
 20
730.3364061159308
 30
0.0
  0
POINT
  5
1B4
330
1A0
100
AcDbEntity
  8
Defpoints
 62
     0
100
AcDbPoint
 10
1272.774785472468
 20
730.3364061159308
 30
0.0
  0
POINT
  5
1B5
330
1A0
100
AcDbEntity
  8
Defpoints
 62
     0
100
AcDbPoint
 10
1272.774785472468
 20
665.9361299745462
 30
0.0
  0
ENDBLK
  5
1AB
330
1A0
100
AcDbEntity
  8
0
100
AcDbBlockEnd
  0
BLOCK
  5
1C2
330
1B8
100
AcDbEntity
  8
0
100
AcDbBlockBegin
  2
*D2
 70
     1
 10
0.0
 20
0.0
 30
0.0
  3
*D2
  1

  0
LINE
  5
1C5
330
1B8
100
AcDbEntity
  8
dim
 62
     0
370
    -2
100
AcDbLine
 10
757.7747854724684
 20
729.7114061159309
 30
0.0
 11
757.7747854724684
 21
689.039335174496
 31
0.0
  0
LINE
  5
1C6
330
1B8
100
AcDbEntity
  8
dim
 62
     0
370
    -2
100
AcDbLine
 10
1272.774785472468
 20
729.7114061159308
 30
0.0
 11
1272.774785472468
 21
689.039335174496
 31
0.0
  0
LINE
  5
1C7
330
1B8
100
AcDbEntity
  8
dim
 62
     0
370
    -2
100
AcDbLine
 10
762.7747854724685
 20
690.289335174496
 30
0.0
 11
1267.774785472468
 21
690.289335174496
 31
0.0
  0
SOLID
  5
1C8
330
1B8
100
AcDbEntity
  8
dim
 62
     0
100
AcDbTrace
 10
762.7747854724685
 20
691.1226685078294
 30
0.0
 11
762.7747854724685
 21
689.4560018411627
 31
0.0
 12
757.7747854724684
 22
690.289335174496
 32
0.0
 13
757.7747854724684
 23
690.289335174496
 33
0.0
  0
SOLID
  5
1C9
330
1B8
100
AcDbEntity
  8
dim
 62
     0
100
AcDbTrace
 10
1267.774785472468
 20
691.1226685078294
 30
0.0
 11
1267.774785472468
 21
689.4560018411627
 31
0.0
 12
1272.774785472468
 22
690.289335174496
 32
0.0
 13
1272.774785472468
 23
690.289335174496
 33
0.0
  0
MTEXT
  5
1CA
330
1B8
100
AcDbEntity
  8
dim
 62
     0
100
AcDbMText
 10
1015.274785472468
 20
693.414335174496
 30
0.0
 40
5.0
 41
0.0
 46
0.0
 71
     5
 72
     1
  1
515
 73
     1
 44
1.0
  0
POINT
  5
1CB
330
1B8
100
AcDbEntity
  8
Defpoints
 62
     0
100
AcDbPoint
 10
757.7747854724684
 20
730.3364061159308
 30
0.0
  0
POINT
  5
1CC
330
1B8
100
AcDbEntity
  8
Defpoints
 62
     0
100
AcDbPoint
 10
1272.774785472468
 20
730.3364061159308
 30
0.0
  0
POINT
  5
1CD
330
1B8
100
AcDbEntity
  8
Defpoints
 62
     0
100
AcDbPoint
 10
1272.774785472468
 20
690.289335174496
 30
0.0
  0
ENDBLK
  5
1C3
330
1B8
100
AcDbEntity
  8
0
100
AcDbBlockEnd
  0
BLOCK
  5
1DA
330
1D0
100
AcDbEntity
  8
0
100
AcDbBlockBegin
  2
*D3
 70
     1
 10
0.0
 20
0.0
 30
0.0
  3
*D3
  1

  0
LINE
  5
2CF
330
1D0
100
AcDbEntity
  8
dim
 62
     0
370
    -2
100
AcDbLine
 10
757.7747854724684
 20
729.7114061159309
 30
0.0
 11
757.7747854724684
 21
653.7912734774841
 31
0.0
  0
LINE
  5
2D0
330
1D0
100
AcDbEntity
  8
dim
 62
     0
370
    -2
100
AcDbLine
 10
1272.774785472468
 20
729.7114061159308
 30
0.0
 11
1272.774785472468
 21
653.7912734774841
 31
0.0
  0
LINE
  5
2D1
330
1D0
100
AcDbEntity
  8
dim
 62
     0
370
    -2
100
AcDbLine
 10
769.7747854724684
 20
655.0412734774837
 30
0.0
 11
979.6497854724684
 21
655.0412734774837
 31
0.0
  0
LINE
  5
2D2
330
1D0
100
AcDbEntity
  8
dim
 62
     0
370
    -2
100
AcDbLine
 10
1260.774785472468
 20
655.0412734774837
 30
0.0
 11
1050.899785472468
 21
655.0412734774837
 31
0.0
  0
SOLID
  5
2D3
330
1D0
100
AcDbEntity
  8
dim
 62
     0
100
AcDbTrace
 10
769.7747854724684
 20
657.0412734774841
 30
0.0
 11
769.7747854724684
 21
653.0412734774841
 31
0.0
 12
757.7747854724684
 22
655.0412734774837
 32
0.0
 13
757.7747854724684
 23
655.0412734774837
 33
0.0
  0
SOLID
  5
2D4
330
1D0
100
AcDbEntity
  8
dim
 62
     0
100
AcDbTrace
 10
1260.774785472468
 20
657.0412734774841
 30
0.0
 11
1260.774785472468
 21
653.0412734774841
 31
0.0
 12
1272.774785472468
 22
655.0412734774837
 32
0.0
 13
1272.774785472468
 23
655.0412734774837
 33
0.0
  0
MTEXT
  5
2D5
330
1D0
100
AcDbEntity
  8
dim
 62
     0
100
AcDbMText
 10
1015.274785472468
 20
655.0412734774837
 30
0.0
 40
12.0
 41
0.0
 46
0.0
 71
     5
 72
     1
  1
20-1/8"
 73
     1
 44
1.0
  0
POINT
  5
2D6
330
1D0
100
AcDbEntity
  8
Defpoints
 62
     0
100
AcDbPoint
 10
757.7747854724684
 20
730.3364061159308
 30
0.0
  0
POINT
  5
2D7
330
1D0
100
AcDbEntity
  8
Defpoints
 62
     0
100
AcDbPoint
 10
1272.774785472468
 20
730.3364061159308
 30
0.0
  0
POINT
  5
2D8
330
1D0
100
AcDbEntity
  8
Defpoints
 62
     0
100
AcDbPoint
 10
1272.774785472468
 20
655.0412734774837
 30
0.0
  0
ENDBLK
  5
1DB
330
1D0
100
AcDbEntity
  8
0
100
AcDbBlockEnd
  0
BLOCK
  5
1F2
330
1E8
100
AcDbEntity
  8
0
100
AcDbBlockBegin
  2
*D4
 70
     1
 10
0.0
 20
0.0
 30
0.0
  3
*D4
  1

  0
LINE
  5
2D9
330
1E8
100
AcDbEntity
  8
dim
 62
     0
370
    -2
100
AcDbLine
 10
785.2747854724684
 20
757.2114061159309
 30
0.0
 11
785.2747854724684
 21
685.1940915485565
 31
0.0
  0
LINE
  5
2DA
330
1E8
100
AcDbEntity
  8
dim
 62
     0
370
    -2
100
AcDbLine
 10
1245.274785472468
 20
757.2114061159309
 30
0.0
 11
1245.274785472468
 21
685.1940915485565
 31
0.0
  0
LINE
  5
2DB
330
1E8
100
AcDbEntity
  8
dim
 62
     0
370
    -2
100
AcDbLine
 10
797.2747854724684
 20
686.4440915485565
 30
0.0
 11
980.6497854724684
 21
686.4440915485565
 31
0.0
  0
LINE
  5
2DC
330
1E8
100
AcDbEntity
  8
dim
 62
     0
370
    -2
100
AcDbLine
 10
1233.274785472468
 20
686.4440915485565
 30
0.0
 11
1049.899785472468
 21
686.4440915485565
 31
0.0
  0
SOLID
  5
2DD
330
1E8
100
AcDbEntity
  8
dim
 62
     0
100
AcDbTrace
 10
797.2747854724684
 20
688.4440915485567
 30
0.0
 11
797.2747854724684
 21
684.4440915485566
 31
0.0
 12
785.2747854724684
 22
686.4440915485565
 32
0.0
 13
785.2747854724684
 23
686.4440915485565
 33
0.0
  0
SOLID
  5
2DE
330
1E8
100
AcDbEntity
  8
dim
 62
     0
100
AcDbTrace
 10
1233.274785472468
 20
688.4440915485567
 30
0.0
 11
1233.274785472468
 21
684.4440915485566
 31
0.0
 12
1245.274785472468
 22
686.4440915485565
 32
0.0
 13
1245.274785472468
 23
686.4440915485565
 33
0.0
  0
MTEXT
  5
2DF
330
1E8
100
AcDbEntity
  8
dim
 62
     0
100
AcDbMText
 10
1015.274785472468
 20
686.4440915485565
 30
0.0
 40
12.0
 41
0.0
 46
0.0
 71
     5
 72
     1
  1
18-1/8"
 73
     1
 44
1.0
  0
POINT
  5
2E0
330
1E8
100
AcDbEntity
  8
Defpoints
 62
     0
100
AcDbPoint
 10
785.2747854724684
 20
757.8364061159309
 30
0.0
  0
POINT
  5
2E1
330
1E8
100
AcDbEntity
  8
Defpoints
 62
     0
100
AcDbPoint
 10
1245.274785472468
 20
757.8364061159309
 30
0.0
  0
POINT
  5
2E2
330
1E8
100
AcDbEntity
  8
Defpoints
 62
     0
100
AcDbPoint
 10
1245.274785472468
 20
686.4440915485565
 30
0.0
  0
ENDBLK
  5
1F3
330
1E8
100
AcDbEntity
  8
0
100
AcDbBlockEnd
  0
BLOCK
  5
20C
330
202
100
AcDbEntity
  8
0
100
AcDbBlockBegin
  2
*D5
 70
     1
 10
0.0
 20
0.0
 30
0.0
  3
*D5
  1

  0
LINE
  5
2E3
330
202
100
AcDbEntity
  8
dim
 62
     0
370
    -2
100
AcDbLine
 10
1014.649785472468
 20
1105.336406115931
 30
0.0
 11
658.9784222977961
 21
1105.336406115931
 31
0.0
  0
LINE
  5
2E4
330
202
100
AcDbEntity
  8
dim
 62
     0
370
    -2
100
AcDbLine
 10
1014.649785472468
 20
720.3364061159309
 30
0.0
 11
658.978422297796
 21
720.3364061159309
 31
0.0
  0
LINE
  5
2E5
330
202
100
AcDbEntity
  8
dim
 62
     0
370
    -2
100
AcDbLine
 10
660.2284222977961
 20
1093.336406115931
 30
0.0
 11
660.2284222977961
 21
947.4614061159313
 31
0.0
  0
LINE
  5
2E6
330
202
100
AcDbEntity
  8
dim
 62
     0
370
    -2
100
AcDbLine
 10
660.2284222977957
 20
732.3364061159309
 30
0.0
 11
660.2284222977961
 21
878.2114061159308
 31
0.0
  0
SOLID
  5
2E7
330
202
100
AcDbEntity
  8
dim
 62
     0
100
AcDbTrace
 10
658.2284222977961
 20
1093.336406115931
 30
0.0
 11
662.2284222977961
 21
1093.336406115931
 31
0.0
 12
660.2284222977961
 22
1105.336406115931
 32
0.0
 13
660.2284222977961
 23
1105.336406115931
 33
0.0
  0
SOLID
  5
2E8
330
202
100
AcDbEntity
  8
dim
 62
     0
100
AcDbTrace
 10
658.228422297796
 20
732.3364061159309
 30
0.0
 11
662.228422297796
 21
732.3364061159309
 31
0.0
 12
660.2284222977957
 22
720.3364061159309
 32
0.0
 13
660.2284222977957
 23
720.3364061159309
 33
0.0
  0
MTEXT
  5
2E9
330
202
100
AcDbEntity
  8
dim
 62
     0
100
AcDbMText
 10
660.2284222977957
 20
912.8364061159313
 30
0.0
 40
12.0
 41
0.0
 46
0.0
 71
     5
 72
     1
  1
15-1/8"
 11
0.0000000000000001
 21
1.0
 31
0.0
 73
     1
 44
1.0
  0
POINT
  5
2EA
330
202
100
AcDbEntity
  8
Defpoints
 62
     0
100
AcDbPoint
 10
1015.274785472468
 20
1105.336406115931
 30
0.0
  0
POINT
  5
2EB
330
202
100
AcDbEntity
  8
Defpoints
 62
     0
100
AcDbPoint
 10
1015.274785472468
 20
720.3364061159309
 30
0.0
  0
POINT
  5
2EC
330
202
100
AcDbEntity
  8
Defpoints
 62
     0
100
AcDbPoint
 10
660.2284222977957
 20
720.3364061159309
 30
0.0
  0
ENDBLK
  5
20D
330
202
100
AcDbEntity
  8
0
100
AcDbBlockEnd
  0
BLOCK
  5
224
330
21A
100
AcDbEntity
  8
0
100
AcDbBlockBegin
  2
*D6
 70
     1
 10
0.0
 20
0.0
 30
0.0
  3
*D6
  1

  0
LINE
  5
2ED
330
21A
100
AcDbEntity
  8
dim
 62
     0
370
    -2
100
AcDbLine
 10
1014.649785472468
 20
1077.836406115931
 30
0.0
 11
716.7713147794072
 21
1077.836406115931
 31
0.0
  0
LINE
  5
2EE
330
21A
100
AcDbEntity
  8
dim
 62
     0
370
    -2
100
AcDbLine
 10
1014.649785472468
 20
747.8364061159309
 30
0.0
 11
716.7713147794072
 21
747.8364061159309
 31
0.0
  0
LINE
  5
2EF
330
21A
100
AcDbEntity
  8
dim
 62
     0
370
    -2
100
AcDbLine
 10
718.0213147794074
 20
1065.836406115931
 30
0.0
 11
718.0213147794074
 21
925.4614061159308
 31
0.0
  0
LINE
  5
2F0
330
21A
100
AcDbEntity
  8
dim
 62
     0
370
    -2
100
AcDbLine
 10
718.0213147794074
 20
759.8364061159307
 30
0.0
 11
718.0213147794074
 21
900.2114061159311
 31
0.0
  0
SOLID
  5
2F1
330
21A
100
AcDbEntity
  8
dim
 62
     0
100
AcDbTrace
 10
716.0213147794078
 20
1065.836406115931
 30
0.0
 11
720.0213147794078
 21
1065.836406115931
 31
0.0
 12
718.0213147794074
 22
1077.836406115931
 32
0.0
 13
718.0213147794074
 23
1077.836406115931
 33
0.0
  0
SOLID
  5
2F2
330
21A
100
AcDbEntity
  8
dim
 62
     0
100
AcDbTrace
 10
716.0213147794072
 20
759.8364061159307
 30
0.0
 11
720.0213147794072
 21
759.8364061159307
 31
0.0
 12
718.0213147794074
 22
747.8364061159309
 32
0.0
 13
718.0213147794074
 23
747.8364061159309
 33
0.0
  0
MTEXT
  5
2F3
330
21A
100
AcDbEntity
  8
dim
 62
     0
100
AcDbMText
 10
718.0213147794074
 20
912.8364061159313
 30
0.0
 40
12.0
 41
0.0
 46
0.0
 71
     5
 72
     1
  1
13"
 11
0.0000000000000001
 21
1.0
 31
0.0
 73
     1
 44
1.0
  0
POINT
  5
2F4
330
21A
100
AcDbEntity
  8
Defpoints
 62
     0
100
AcDbPoint
 10
1015.274785472468
 20
1077.836406115931
 30
0.0
  0
POINT
  5
2F5
330
21A
100
AcDbEntity
  8
Defpoints
 62
     0
100
AcDbPoint
 10
1015.274785472468
 20
747.8364061159309
 30
0.0
  0
POINT
  5
2F6
330
21A
100
AcDbEntity
  8
Defpoints
 62
     0
100
AcDbPoint
 10
718.0213147794074
 20
747.8364061159309
 30
0.0
  0
ENDBLK
  5
225
330
21A
100
AcDbEntity
  8
0
100
AcDbBlockEnd
  0
BLOCK
  5
23C
330
232
100
AcDbEntity
  8
0
100
AcDbBlockBegin
  2
*D7
 70
     1
 10
0.0
 20
0.0
 30
0.0
  3
*D7
  1

  0
LINE
  5
4FB
330
232
100
AcDbEntity
  8
dim
 62
     0
370
    -2
100
AcDbLine
 10
1014.649785472468
 20
579.5958762183287
 30
0.0
 11
687.7054035496341
 21
579.5958762183287
 31
0.0
  0
LINE
  5
4FC
330
232
100
AcDbEntity
  8
dim
 62
     0
370
    -2
100
AcDbLine
 10
1014.649785472468
 20
384.5958762183288
 30
0.0
 11
687.7054035496341
 21
384.5958762183288
 31
0.0
  0
LINE
  5
4FD
330
232
100
AcDbEntity
  8
dim
 62
     0
370
    -2
100
AcDbLine
 10
688.9554035496339
 20
572.0958762183287
 30
0.0
 11
688.9554035496339
 21
502.720876218329
 31
0.0
  0
LINE
  5
4FE
330
232
100
AcDbEntity
  8
dim
 62
     0
370
    -2
100
AcDbLine
 10
688.9554035496339
 20
392.0958762183289
 30
0.0
 11
688.9554035496339
 21
461.470876218329
 31
0.0
  0
SOLID
  5
4FF
330
232
100
AcDbEntity
  8
dim
 62
     0
100
AcDbTrace
 10
687.7054035496341
 20
572.0958762183287
 30
0.0
 11
690.2054035496339
 21
572.0958762183287
 31
0.0
 12
688.9554035496339
 22
579.5958762183287
 32
0.0
 13
688.9554035496339
 23
579.5958762183287
 33
0.0
  0
SOLID
  5
500
330
232
100
AcDbEntity
  8
dim
 62
     0
100
AcDbTrace
 10
687.7054035496341
 20
392.0958762183289
 30
0.0
 11
690.2054035496339
 21
392.0958762183289
 31
0.0
 12
688.9554035496339
 22
384.5958762183288
 32
0.0
 13
688.9554035496339
 23
384.5958762183288
 33
0.0
  0
MTEXT
  5
501
330
232
100
AcDbEntity
  8
dim
 62
     0
100
AcDbMText
 10
688.9554035496339
 20
482.0958762183291
 30
0.0
 40
7.5
 41
0.0
 46
0.0
 71
     5
 72
     1
  1
7-5/8"
 11
0.0000000000000001
 21
1.0
 31
0.0
 73
     1
 44
1.0
  0
POINT
  5
502
330
232
100
AcDbEntity
  8
Defpoints
 62
     0
100
AcDbPoint
 10
1015.274785472468
 20
579.5958762183287
 30
0.0
  0
POINT
  5
503
330
232
100
AcDbEntity
  8
Defpoints
 62
     0
100
AcDbPoint
 10
1015.274785472468
 20
384.5958762183288
 30
0.0
  0
POINT
  5
504
330
232
100
AcDbEntity
  8
Defpoints
 62
     0
100
AcDbPoint
 10
688.9554035496339
 20
384.5958762183288
 30
0.0
  0
ENDBLK
  5
23D
330
232
100
AcDbEntity
  8
0
100
AcDbBlockEnd
  0
BLOCK
  5
256
330
24C
100
AcDbEntity
  8
0
100
AcDbBlockBegin
  2
*D8
 70
     1
 10
0.0
 20
0.0
 30
0.0
  3
*D8
  1

  0
LINE
  5
505
330
24C
100
AcDbEntity
  8
dim
 62
     0
370
    -2
100
AcDbLine
 10
688.3304035496339
 20
579.5958762183287
 30
0.0
 11
731.0761719117962
 21
579.5958762183287
 31
0.0
  0
LINE
  5
506
330
24C
100
AcDbEntity
  8
dim
 62
     0
370
    -2
100
AcDbLine
 10
1014.649785472468
 20
427.5958762183288
 30
0.0
 11
728.5761719117962
 21
427.5958762183288
 31
0.0
  0
LINE
  5
507
330
24C
100
AcDbEntity
  8
dim
 62
     0
370
    -2
100
AcDbLine
 10
729.8261719117962
 20
572.0958762183287
 30
0.0
 11
729.8261719117962
 21
509.2208762183288
 31
0.0
  0
LINE
  5
508
330
24C
100
AcDbEntity
  8
dim
 62
     0
370
    -2
100
AcDbLine
 10
729.8261719117962
 20
435.0958762183288
 30
0.0
 11
729.8261719117962
 21
497.9708762183287
 31
0.0
  0
SOLID
  5
509
330
24C
100
AcDbEntity
  8
dim
 62
     0
100
AcDbTrace
 10
728.5761719117962
 20
572.0958762183287
 30
0.0
 11
731.0761719117962
 21
572.0958762183287
 31
0.0
 12
729.8261719117962
 22
579.5958762183287
 32
0.0
 13
729.8261719117962
 23
579.5958762183287
 33
0.0
  0
SOLID
  5
50A
330
24C
100
AcDbEntity
  8
dim
 62
     0
100
AcDbTrace
 10
728.5761719117962
 20
435.0958762183288
 30
0.0
 11
731.0761719117962
 21
435.0958762183288
 31
0.0
 12
729.8261719117962
 22
427.5958762183288
 32
0.0
 13
729.8261719117962
 23
427.5958762183288
 33
0.0
  0
MTEXT
  5
50B
330
24C
100
AcDbEntity
  8
dim
 62
     0
100
AcDbMText
 10
729.8261719117959
 20
503.5958762183287
 30
0.0
 40
7.5
 41
0.0
 46
0.0
 71
     5
 72
     1
  1
6"
 11
0.0000000000000001
 21
1.0
 31
0.0
 73
     1
 44
1.0
  0
POINT
  5
50C
330
24C
100
AcDbEntity
  8
Defpoints
 62
     0
100
AcDbPoint
 10
687.7054035496341
 20
579.5958762183287
 30
0.0
  0
POINT
  5
50D
330
24C
100
AcDbEntity
  8
Defpoints
 62
     0
100
AcDbPoint
 10
1015.274785472468
 20
427.5958762183288
 30
0.0
  0
POINT
  5
50E
330
24C
100
AcDbEntity
  8
Defpoints
 62
     0
100
AcDbPoint
 10
729.8261719117962
 20
427.5958762183288
 30
0.0
  0
ENDBLK
  5
257
330
24C
100
AcDbEntity
  8
0
100
AcDbBlockEnd
  0
BLOCK
  5
3AA
330
3A1
100
AcDbEntity
  8
0
100
AcDbBlockBegin
  2
*D9
 70
     1
 10
0.0
 20
0.0
 30
0.0
  3
*D9
  1

  0
LINE
  5
50F
330
3A1
100
AcDbEntity
  8
dim
 62
     0
370
    -2
100
AcDbLine
 10
978.7754889088198
 20
980.5630122915339
 30
0.0
 11
986.275344367104
 21
980.5164493787387
 31
0.0
  0
LINE
  5
510
330
3A1
100
AcDbEntity
  8
dim
 62
     0
370
    -2
100
AcDbLine
 10
1044.274226577833
 20
980.1563628531225
 30
0.0
 11
1051.774082036117
 21
980.1097999403276
 31
0.0
  0
MTEXT
  5
511
330
3A1
100
AcDbEntity
  8
dim
 62
     0
100
AcDbMText
 10
961.5257863554413
 20
980.6701072082567
 30
0.0
 40
7.5
 41
0.0
 46
0.0
 71
     5
 72
     1
  1
{\H1.4x;%%C1\H0.7x;\S11/16;\H1.4286x;"}
 11
0.9999807277711976
 21
-0.0062083883726942
 31
0.0
 73
     1
 44
1.0
  0
LINE
  5
512
330
3A1
100
AcDbEntity
  8
dim
 62
     0
370
    -2
100
AcDbLine
 10
1036.774371119549
 20
980.2029257659178
 30
0.0
 11
993.7751998253878
 21
980.4698864659437
 31
0.0
  0
SOLID
  5
513
330
3A1
100
AcDbEntity
  8
dim
 62
     0
100
AcDbTrace
 10
1044.281987063299
 20
981.4063387628367
 30
0.0
 11
1044.266466092367
 21
978.9063869434087
 31
0.0
 12
1036.774371119549
 22
980.2029257659178
 32
0.0
 13
1036.774371119549
 23
980.2029257659178
 33
0.0
  0
SOLID
  5
514
330
3A1
100
AcDbEntity
  8
dim
 62
     0
100
AcDbTrace
 10
986.2831048525697
 20
981.7664252884528
 30
0.0
 11
986.2675838816381
 21
979.2664734690248
 31
0.0
 12
993.7751998253878
 22
980.4698864659437
 32
0.0
 13
993.7751998253878
 23
980.4698864659437
 33
0.0
  0
POINT
  5
515
330
3A1
100
AcDbEntity
  8
Defpoints
 62
     0
100
AcDbPoint
 10
993.7751998253878
 20
980.4698864659437
 30
0.0
  0
POINT
  5
516
330
3A1
100
AcDbEntity
  8
Defpoints
 62
     0
100
AcDbPoint
 10
1036.774371119549
 20
980.2029257659178
 30
0.0
  0
ENDBLK
  5
3AB
330
3A1
100
AcDbEntity
  8
0
100
AcDbBlockEnd
  0
BLOCK
  5
42D
330
422
100
AcDbEntity
  8
0
100
AcDbBlockBegin
  2
*D10
 70
     1
 10
0.0
 20
0.0
 30
0.0
  3
*D10
  1

  0
LINE
  5
517
330
422
100
AcDbEntity
  8
dim
 62
     0
370
    -2
100
AcDbLine
 10
784.6497854724677
 20
912.2114061159308
 30
0.0
 11
784.6497854724677
 21
677.3980968919552
 31
0.0
  0
LINE
  5
518
330
422
100
AcDbEntity
  8
dim
 62
     0
370
    -2
100
AcDbLine
 10
1244.649785472468
 20
912.2114061159308
 30
0.0
 11
1244.649785472468
 21
677.3980968919552
 31
0.0
  0
LINE
  5
519
330
422
100
AcDbEntity
  8
dim
 62
     0
370
    -2
100
AcDbLine
 10
792.1497854724678
 20
678.6480968919552
 30
0.0
 11
992.7747854724678
 21
678.6480968919552
 31
0.0
  0
LINE
  5
51A
330
422
100
AcDbEntity
  8
dim
 62
     0
370
    -2
100
AcDbLine
 10
1237.149785472468
 20
678.6480968919552
 30
0.0
 11
1036.524785472468
 21
678.6480968919552
 31
0.0
  0
SOLID
  5
51B
330
422
100
AcDbEntity
  8
dim
 62
     0
100
AcDbTrace
 10
792.1497854724678
 20
679.8980968919551
 30
0.0
 11
792.1497854724678
 21
677.3980968919552
 31
0.0
 12
784.6497854724677
 22
678.6480968919552
 32
0.0
 13
784.6497854724677
 23
678.6480968919552
 33
0.0
  0
SOLID
  5
51C
330
422
100
AcDbEntity
  8
dim
 62
     0
100
AcDbTrace
 10
1237.149785472468
 20
679.8980968919551
 30
0.0
 11
1237.149785472468
 21
677.3980968919552
 31
0.0
 12
1244.649785472468
 22
678.6480968919552
 32
0.0
 13
1244.649785472468
 23
678.6480968919552
 33
0.0
  0
MTEXT
  5
51D
330
422
100
AcDbEntity
  8
dim
 62
     0
100
AcDbMText
 10
1014.649785472468
 20
678.6480968919552
 30
0.0
 40
7.5
 41
0.0
 46
0.0
 71
     5
 72
     1
  1
18-1/8"
 73
     1
 44
1.0
  0
POINT
  5
51E
330
422
100
AcDbEntity
  8
Defpoints
 62
     0
100
AcDbPoint
 10
784.6497854724677
 20
912.8364061159308
 30
0.0
  0
POINT
  5
51F
330
422
100
AcDbEntity
  8
Defpoints
 62
     0
100
AcDbPoint
 10
1244.649785472468
 20
912.8364061159308
 30
0.0
  0
POINT
  5
520
330
422
100
AcDbEntity
  8
Defpoints
 62
     0
100
AcDbPoint
 10
1244.649785472468
 20
678.6480968919552
 30
0.0
  0
ENDBLK
  5
42E
330
422
100
AcDbEntity
  8
0
100
AcDbBlockEnd
  0
BLOCK
  5
447
330
43C
100
AcDbEntity
  8
0
100
AcDbBlockBegin
  2
*D11
 70
     1
 10
0.0
 20
0.0
 30
0.0
  3
*D11
  1

  0
LINE
  5
521
330
43C
100
AcDbEntity
  8
dim
 62
     0
370
    -2
100
AcDbLine
 10
755.6497854724677
 20
912.2114061159308
 30
0.0
 11
755.6497854724677
 21
646.4277938265613
 31
0.0
  0
LINE
  5
522
330
43C
100
AcDbEntity
  8
dim
 62
     0
370
    -2
100
AcDbLine
 10
1273.649785472468
 20
912.2114061159308
 30
0.0
 11
1273.649785472468
 21
646.4277938265613
 31
0.0
  0
LINE
  5
523
330
43C
100
AcDbEntity
  8
dim
 62
     0
370
    -2
100
AcDbLine
 10
763.1497854724678
 20
647.6777938265613
 30
0.0
 11
990.8997854724679
 21
647.6777938265613
 31
0.0
  0
LINE
  5
524
330
43C
100
AcDbEntity
  8
dim
 62
     0
370
    -2
100
AcDbLine
 10
1266.149785472468
 20
647.6777938265613
 30
0.0
 11
1038.399785472468
 21
647.6777938265613
 31
0.0
  0
SOLID
  5
525
330
43C
100
AcDbEntity
  8
dim
 62
     0
100
AcDbTrace
 10
763.1497854724678
 20
648.9277938265614
 30
0.0
 11
763.1497854724678
 21
646.4277938265613
 31
0.0
 12
755.6497854724677
 22
647.6777938265613
 32
0.0
 13
755.6497854724677
 23
647.6777938265613
 33
0.0
  0
SOLID
  5
526
330
43C
100
AcDbEntity
  8
dim
 62
     0
100
AcDbTrace
 10
1266.149785472468
 20
648.9277938265614
 30
0.0
 11
1266.149785472468
 21
646.4277938265613
 31
0.0
 12
1273.649785472468
 22
647.6777938265613
 32
0.0
 13
1273.649785472468
 23
647.6777938265613
 33
0.0
  0
MTEXT
  5
527
330
43C
100
AcDbEntity
  8
dim
 62
     0
100
AcDbMText
 10
1014.649785472468
 20
647.6777938265613
 30
0.0
 40
7.5
 41
0.0
 46
0.0
 71
     5
 72
     1
  1
20-3/8"
 73
     1
 44
1.0
  0
POINT
  5
528
330
43C
100
AcDbEntity
  8
Defpoints
 62
     0
100
AcDbPoint
 10
755.6497854724677
 20
912.8364061159308
 30
0.0
  0
POINT
  5
529
330
43C
100
AcDbEntity
  8
Defpoints
 62
     0
100
AcDbPoint
 10
1273.649785472468
 20
912.8364061159308
 30
0.0
  0
POINT
  5
52A
330
43C
100
AcDbEntity
  8
Defpoints
 62
     0
100
AcDbPoint
 10
1273.649785472468
 20
647.6777938265613
 30
0.0
  0
ENDBLK
  5
448
330
43C
100
AcDbEntity
  8
0
100
AcDbBlockEnd
  0
BLOCK
  5
461
330
456
100
AcDbEntity
  8
0
100
AcDbBlockBegin
  2
*D12
 70
     1
 10
0.0
 20
0.0
 30
0.0
  3
*D12
  1

  0
LINE
  5
5BF
330
456
100
AcDbEntity
  8
dim
 62
     0
370
    -2
100
AcDbLine
 10
1014.024785472468
 20
1106.336406115931
 30
0.0
 11
681.8535213036137
 21
1106.336406115931
 31
0.0
  0
LINE
  5
5C0
330
456
100
AcDbEntity
  8
dim
 62
     0
370
    -2
100
AcDbLine
 10
1014.024785472468
 20
719.3364061159307
 30
0.0
 11
681.8535213036137
 21
719.3364061159309
 31
0.0
  0
LINE
  5
5C1
330
456
100
AcDbEntity
  8
dim
 62
     0
370
    -2
100
AcDbLine
 10
683.1035213036138
 20
1098.836406115931
 30
0.0
 11
683.1035213036138
 21
934.7114061159308
 31
0.0
  0
LINE
  5
5C2
330
456
100
AcDbEntity
  8
dim
 62
     0
370
    -2
100
AcDbLine
 10
683.1035213036138
 20
726.8364061159309
 30
0.0
 11
683.1035213036138
 21
890.9614061159309
 31
0.0
  0
SOLID
  5
5C3
330
456
100
AcDbEntity
  8
dim
 62
     0
100
AcDbTrace
 10
681.8535213036137
 20
1098.836406115931
 30
0.0
 11
684.3535213036139
 21
1098.836406115931
 31
0.0
 12
683.1035213036138
 22
1106.336406115931
 32
0.0
 13
683.1035213036138
 23
1106.336406115931
 33
0.0
  0
SOLID
  5
5C4
330
456
100
AcDbEntity
  8
dim
 62
     0
100
AcDbTrace
 10
681.8535213036137
 20
726.8364061159309
 30
0.0
 11
684.3535213036138
 21
726.8364061159309
 31
0.0
 12
683.1035213036138
 22
719.3364061159309
 32
0.0
 13
683.1035213036138
 23
719.3364061159309
 33
0.0
  0
MTEXT
  5
5C5
330
456
100
AcDbEntity
  8
dim
 62
     0
100
AcDbMText
 10
683.1035213036138
 20
912.8364061159313
 30
0.0
 40
7.5
 41
0.0
 46
0.0
 71
     5
 72
     1
  1
15-1/8"
 11
0.0000000000000001
 21
1.0
 31
0.0
 73
     1
 44
1.0
  0
POINT
  5
5C6
330
456
100
AcDbEntity
  8
Defpoints
 62
     0
100
AcDbPoint
 10
1014.649785472468
 20
1106.336406115931
 30
0.0
  0
POINT
  5
5C7
330
456
100
AcDbEntity
  8
Defpoints
 62
     0
100
AcDbPoint
 10
1014.649785472468
 20
719.3364061159307
 30
0.0
  0
POINT
  5
5C8
330
456
100
AcDbEntity
  8
Defpoints
 62
     0
100
AcDbPoint
 10
683.1035213036138
 20
719.3364061159309
 30
0.0
  0
ENDBLK
  5
462
330
456
100
AcDbEntity
  8
0
100
AcDbBlockEnd
  0
BLOCK
  5
47B
330
470
100
AcDbEntity
  8
0
100
AcDbBlockBegin
  2
*D13
 70
     1
 10
0.0
 20
0.0
 30
0.0
  3
*D13
  1

  0
LINE
  5
5C9
330
470
100
AcDbEntity
  8
dim
 62
     0
370
    -2
100
AcDbLine
 10
1014.024785472468
 20
1077.836406115931
 30
0.0
 11
717.5396953404953
 21
1077.836406115931
 31
0.0
  0
LINE
  5
5CA
330
470
100
AcDbEntity
  8
dim
 62
     0
370
    -2
100
AcDbLine
 10
1014.024785472468
 20
747.8364061159307
 30
0.0
 11
717.5396953404953
 21
747.8364061159309
 31
0.0
  0
LINE
  5
5CB
330
470
100
AcDbEntity
  8
dim
 62
     0
370
    -2
100
AcDbLine
 10
718.7896953404953
 20
1070.336406115931
 30
0.0
 11
718.7896953404953
 21
920.9614061159308
 31
0.0
  0
LINE
  5
5CC
330
470
100
AcDbEntity
  8
dim
 62
     0
370
    -2
100
AcDbLine
 10
718.7896953404951
 20
755.3364061159308
 30
0.0
 11
718.7896953404953
 21
904.7114061159312
 31
0.0
  0
SOLID
  5
5CD
330
470
100
AcDbEntity
  8
dim
 62
     0
100
AcDbTrace
 10
717.5396953404953
 20
1070.336406115931
 30
0.0
 11
720.0396953404953
 21
1070.336406115931
 31
0.0
 12
718.7896953404953
 22
1077.836406115931
 32
0.0
 13
718.7896953404953
 23
1077.836406115931
 33
0.0
  0
SOLID
  5
5CE
330
470
100
AcDbEntity
  8
dim
 62
     0
100
AcDbTrace
 10
717.5396953404953
 20
755.3364061159308
 30
0.0
 11
720.0396953404951
 21
755.3364061159308
 31
0.0
 12
718.7896953404951
 22
747.8364061159309
 32
0.0
 13
718.7896953404951
 23
747.8364061159309
 33
0.0
  0
MTEXT
  5
5CF
330
470
100
AcDbEntity
  8
dim
 62
     0
100
AcDbMText
 10
718.7896953404949
 20
912.8364061159313
 30
0.0
 40
7.5
 41
0.0
 46
0.0
 71
     5
 72
     1
  1
13"
 11
0.0000000000000001
 21
1.0
 31
0.0
 73
     1
 44
1.0
  0
POINT
  5
5D0
330
470
100
AcDbEntity
  8
Defpoints
 62
     0
100
AcDbPoint
 10
1014.649785472468
 20
1077.836406115931
 30
0.0
  0
POINT
  5
5D1
330
470
100
AcDbEntity
  8
Defpoints
 62
     0
100
AcDbPoint
 10
1014.649785472468
 20
747.8364061159307
 30
0.0
  0
POINT
  5
5D2
330
470
100
AcDbEntity
  8
Defpoints
 62
     0
100
AcDbPoint
 10
718.7896953404951
 20
747.8364061159309
 30
0.0
  0
ENDBLK
  5
47C
330
470
100
AcDbEntity
  8
0
100
AcDbBlockEnd
  0
BLOCK
  5
569
330
55E
100
AcDbEntity
  8
0
100
AcDbBlockBegin
  2
*D14
 70
     1
 10
0.0
 20
0.0
 30
0.0
  3
*D14
  1

  0
LINE
  5
56C
330
55E
100
AcDbEntity
  8
dash
 62
     0
370
    -2
100
AcDbLine
 10
789.649785472468
 20
913.4614061159307
 30
0.0
 11
789.649785472468
 21
914.0864061159307
 31
0.0
  0
LINE
  5
56D
330
55E
100
AcDbEntity
  8
dash
 62
     0
370
    -2
100
AcDbLine
 10
1239.649785472468
 20
913.4614061159307
 30
0.0
 11
1239.649785472468
 21
914.0864061159307
 31
0.0
  0
LINE
  5
56E
330
55E
100
AcDbEntity
  8
dash
 62
     0
370
    -2
100
AcDbLine
 10
797.149785472468
 20
912.8364061159308
 30
0.0
 11
1004.649785472468
 21
912.8364061159308
 31
0.0
  0
LINE
  5
56F
330
55E
100
AcDbEntity
  8
dash
 62
     0
370
    -2
100
AcDbLine
 10
1232.149785472468
 20
912.8364061159308
 30
0.0
 11
1024.649785472468
 21
912.8364061159308
 31
0.0
  0
SOLID
  5
570
330
55E
100
AcDbEntity
  8
dash
 62
     0
100
AcDbTrace
 10
797.149785472468
 20
914.0864061159307
 30
0.0
 11
797.149785472468
 21
911.5864061159308
 31
0.0
 12
789.649785472468
 22
912.8364061159308
 32
0.0
 13
789.649785472468
 23
912.8364061159308
 33
0.0
  0
SOLID
  5
571
330
55E
100
AcDbEntity
  8
dash
 62
     0
100
AcDbTrace
 10
1232.149785472468
 20
914.0864061159307
 30
0.0
 11
1232.149785472468
 21
911.5864061159308
 31
0.0
 12
1239.649785472468
 22
912.8364061159308
 32
0.0
 13
1239.649785472468
 23
912.8364061159308
 33
0.0
  0
MTEXT
  5
572
330
55E
100
AcDbEntity
  8
dash
 62
     0
100
AcDbMText
 10
1014.649785472468
 20
912.8364061159308
 30
0.0
 40
7.5
 41
0.0
 46
0.0
 71
     5
 72
     1
  1
450
 73
     1
 44
1.0
  0
POINT
  5
573
330
55E
100
AcDbEntity
  8
Defpoints
 62
     0
100
AcDbPoint
 10
789.649785472468
 20
912.8364061159308
 30
0.0
  0
POINT
  5
574
330
55E
100
AcDbEntity
  8
Defpoints
 62
     0
100
AcDbPoint
 10
1239.649785472468
 20
912.8364061159308
 30
0.0
  0
POINT
  5
575
330
55E
100
AcDbEntity
  8
Defpoints
 62
     0
100
AcDbPoint
 10
1239.649785472468
 20
912.8364061159308
 30
0.0
  0
ENDBLK
  5
56A
330
55E
100
AcDbEntity
  8
0
100
AcDbBlockEnd
  0
BLOCK
  5
583
330
578
100
AcDbEntity
  8
0
100
AcDbBlockBegin
  2
*D15
 70
     1
 10
0.0
 20
0.0
 30
0.0
  3
*D15
  1

  0
LINE
  5
612
330
578
100
AcDbEntity
  8
dim
 62
     0
370
    -2
100
AcDbLine
 10
789.649785472468
 20
913.4614061159307
 30
0.0
 11
789.649785472468
 21
914.0864061159307
 31
0.0
  0
LINE
  5
613
330
578
100
AcDbEntity
  8
dim
 62
     0
370
    -2
100
AcDbLine
 10
1239.649785472468
 20
913.4614061159307
 30
0.0
 11
1239.649785472468
 21
914.0864061159307
 31
0.0
  0
LINE
  5
614
330
578
100
AcDbEntity
  8
dim
 62
     0
370
    -2
100
AcDbLine
 10
797.149785472468
 20
912.8364061159308
 30
0.0
 11
887.6872699915576
 21
912.8364061159308
 31
0.0
  0
LINE
  5
615
330
578
100
AcDbEntity
  8
dim
 62
     0
370
    -2
100
AcDbLine
 10
1232.149785472468
 20
912.8364061159308
 30
0.0
 11
933.9372699915577
 21
912.8364061159308
 31
0.0
  0
SOLID
  5
616
330
578
100
AcDbEntity
  8
dim
 62
     0
100
AcDbTrace
 10
797.149785472468
 20
914.0864061159307
 30
0.0
 11
797.149785472468
 21
911.5864061159308
 31
0.0
 12
789.649785472468
 22
912.8364061159308
 32
0.0
 13
789.649785472468
 23
912.8364061159308
 33
0.0
  0
SOLID
  5
617
330
578
100
AcDbEntity
  8
dim
 62
     0
100
AcDbTrace
 10
1232.149785472468
 20
914.0864061159307
 30
0.0
 11
1232.149785472468
 21
911.5864061159308
 31
0.0
 12
1239.649785472468
 22
912.8364061159308
 32
0.0
 13
1239.649785472468
 23
912.8364061159308
 33
0.0
  0
MTEXT
  5
618
330
578
100
AcDbEntity
  8
dim
 62
     0
100
AcDbMText
 10
910.8122699915575
 20
912.8364061159308
 30
0.0
 40
7.5
 41
0.0
 46
0.0
 71
     5
 72
     1
  1
17-3/4"
 73
     1
 44
1.0
  0
POINT
  5
619
330
578
100
AcDbEntity
  8
Defpoints
 62
     0
100
AcDbPoint
 10
789.649785472468
 20
912.8364061159308
 30
0.0
  0
POINT
  5
61A
330
578
100
AcDbEntity
  8
Defpoints
 62
     0
100
AcDbPoint
 10
1239.649785472468
 20
912.8364061159308
 30
0.0
  0
POINT
  5
61B
330
578
100
AcDbEntity
  8
Defpoints
 62
     0
100
AcDbPoint
 10
1239.649785472468
 20
912.8364061159308
 30
0.0
  0
ENDBLK
  5
584
330
578
100
AcDbEntity
  8
0
100
AcDbBlockEnd
  0
BLOCK
  5
59D
330
592
100
AcDbEntity
  8
0
100
AcDbBlockBegin
  2
*D16
 70
     1
 10
0.0
 20
0.0
 30
0.0
  3
*D16
  1

  0
LINE
  5
5FB
330
592
100
AcDbEntity
  8
dim
 62
     0
370
    -2
100
AcDbLine
 10
1015.274785472468
 20
1070.336406115931
 30
0.0
 11
1015.899785472468
 21
1070.336406115931
 31
0.0
  0
LINE
  5
5FC
330
592
100
AcDbEntity
  8
dim
 62
     0
370
    -2
100
AcDbLine
 10
1014.024785472468
 20
755.3364061159308
 30
0.0
 11
1013.399785472468
 21
755.3364061159308
 31
0.0
  0
LINE
  5
5FD
330
592
100
AcDbEntity
  8
dim
 62
     0
370
    -2
100
AcDbLine
 10
1014.649785472468
 20
1062.83640611593
 30
0.0
 11
1014.649785472468
 21
902.6500513748018
 31
0.0
  0
LINE
  5
5FE
330
592
100
AcDbEntity
  8
dim
 62
     0
370
    -2
100
AcDbLine
 10
1014.649785472468
 20
762.8364061159308
 30
0.0
 11
1014.649785472468
 21
856.4000513748018
 31
0.0
  0
SOLID
  5
5FF
330
592
100
AcDbEntity
  8
dim
 62
     0
100
AcDbTrace
 10
1013.399785472468
 20
1062.83640611593
 30
0.0
 11
1015.899785472468
 21
1062.83640611593
 31
0.0
 12
1014.649785472468
 22
1070.336406115931
 32
0.0
 13
1014.649785472468
 23
1070.336406115931
 33
0.0
  0
SOLID
  5
600
330
592
100
AcDbEntity
  8
dim
 62
     0
100
AcDbTrace
 10
1013.399785472468
 20
762.8364061159308
 30
0.0
 11
1015.899785472468
 21
762.8364061159308
 31
0.0
 12
1014.649785472468
 22
755.3364061159308
 32
0.0
 13
1014.649785472468
 23
755.3364061159308
 33
0.0
  0
MTEXT
  5
601
330
592
100
AcDbEntity
  8
dim
 62
     0
100
AcDbMText
 10
1014.649785472468
 20
879.5250513748019
 30
0.0
 40
7.5
 41
0.0
 46
0.0
 71
     5
 72
     1
  1
12-3/8"
 11
0.0000000000000001
 21
1.0
 31
0.0
 73
     1
 44
1.0
  0
POINT
  5
602
330
592
100
AcDbEntity
  8
Defpoints
 62
     0
100
AcDbPoint
 10
1014.649785472468
 20
1070.336406115931
 30
0.0
  0
POINT
  5
603
330
592
100
AcDbEntity
  8
Defpoints
 62
     0
100
AcDbPoint
 10
1014.649785472468
 20
755.3364061159308
 30
0.0
  0
POINT
  5
604
330
592
100
AcDbEntity
  8
Defpoints
 62
     0
100
AcDbPoint
 10
1014.649785472468
 20
755.3364061159308
 30
0.0
  0
ENDBLK
  5
59E
330
592
100
AcDbEntity
  8
0
100
AcDbBlockEnd
  0
ENDSEC
  0
SECTION
  2
ENTITIES
  0
CIRCLE
  5
149
102
{ACAD_REACTORS
330
3B5
102
}
330
1F
100
AcDbEntity
  8
con
100
AcDbCircle
 10
1015.274785472468
 20
980.3364061159308
 30
0.0
 40
21.5
  0
LINE
  5
15F
330
1F
100
AcDbEntity
  8
con
100
AcDbLine
 10
766.835557777281
 20
559.5958762183287
 30
0.0
 11
755.6497854724677
 21
559.5958762183287
 31
0.0
  0
LINE
  5
161
102
{ACAD_REACTORS
330
248
102
}
330
1F
100
AcDbEntity
  8
con
100
AcDbLine
 10
767.7747854724682
 20
579.5958762183287
 30
0.0
 11
1015.274785472468
 21
579.5958762183287
 31
0.0
  0
LINE
  5
165
330
1F
100
AcDbEntity
  8
con
100
AcDbLine
 10
990.1329486857179
 20
384.5958762183288
 30
0.0
 11
1040.416622259218
 21
384.5958762183288
 31
0.0
  0
LINE
  5
16D
330
1F
100
AcDbEntity
  8
con
100
AcDbLine
 10
977.9156020072139
 20
549.7387187861574
 30
0.0
 11
980.1339689377227
 21
394.4530336505004
 31
0.0
  0
LINE
  5
16E
330
1F
100
AcDbEntity
  8
con
100
AcDbLine
 10
1052.633968937723
 20
549.7387187861574
 30
0.0
 11
1050.415602007213
 21
394.4530336505004
 31
0.0
  0
ARC
  5
177
330
1F
100
AcDbEntity
  8
con
100
AcDbCircle
 10
990.1329486857179
 20
394.5958762183289
 30
0.0
 40
10.0
100
AcDbArc
 50
180.8184554616886
 51
270.0
  0
ARC
  5
178
330
1F
100
AcDbEntity
  8
con
100
AcDbCircle
 10
1040.416622259218
 20
394.5958762183289
 30
0.0
 40
10.0
100
AcDbArc
 50
270.0
 51
359.1815445383113
  0
ARC
  5
179
330
1F
100
AcDbEntity
  8
con
100
AcDbCircle
 10
967.9166222592188
 20
549.5958762183287
 30
0.0
 40
10.0
100
AcDbArc
 50
0.8184554616886604
 51
90.0
  0
LINE
  5
17A
330
1F
100
AcDbEntity
  8
con
100
AcDbLine
 10
1263.714013167671
 20
559.5958762183287
 30
0.0
 11
1273.649785472468
 21
559.5958762183287
 31
0.0
  0
ARC
  5
17B
330
1F
100
AcDbEntity
  8
con
100
AcDbCircle
 10
1062.632948685718
 20
549.5958762183287
 30
0.0
 40
10.0
100
AcDbArc
 50
89.99999999999998
 51
179.1815445383113
  0
SPLINE
  5
194
330
1F
100
AcDbEntity
  8
图层1
100
AcDbSpline
210
0.0
220
0.0
230
1.0
 70
     8
 71
     3
 72
     9
 73
     5
 74
     3
 42
0.0000000001
 43
0.0000000001
 44
0.0000000001
 40
0.0
 40
0.0
 40
0.0
 40
0.0
 40
126.9867923727516
 40
262.0144786788098
 40
262.0144786788098
 40
262.0144786788098
 40
262.0144786788098
 10
1245.274785472468
 20
579.5958762183287
 30
0.0
 10
1227.348626118018
 20
538.1886039757898
 30
0.0
 10
1190.36121025998
 20
452.7521215871822
 30
0.0
 10
1098.321313663903
 20
436.1511126840408
 30
0.0
 10
1050.889071186754
 20
427.5958762183288
 30
0.0
 11
1245.274785472468
 21
579.5958762183287
 31
0.0
 11
1178.564970740489
 21
471.542898214271
 31
0.0
 11
1050.889071186754
 21
427.5958762183288
 31
0.0
  0
SPLINE
  5
196
330
1F
100
AcDbEntity
  8
图层1
100
AcDbSpline
210
0.0
220
0.0
230
1.0
 70
     8
 71
     3
 72
     9
 73
     5
 74
     3
 42
0.0000000001
 43
0.0000000001
 44
0.0000000001
 40
0.0
 40
0.0
 40
0.0
 40
0.0
 40
126.9867923727518
 40
262.0144786788099
 40
262.0144786788099
 40
262.0144786788099
 40
262.0144786788099
 10
785.2747854724684
 20
579.5958762183287
 30
0.0
 10
803.200944826918
 20
538.1886039757898
 30
0.0
 10
840.1883606849562
 20
452.7521215871822
 30
0.0
 10
932.2282572810335
 20
436.1511126840407
 30
0.0
 10
979.6604997581827
 20
427.5958762183288
 30
0.0
 11
785.2747854724684
 21
579.5958762183287
 31
0.0
 11
851.9846002044477
 21
471.542898214271
 31
0.0
 11
979.6604997581827
 21
427.5958762183288
 31
0.0
  0
LINE
  5
199
330
1F
100
AcDbEntity
  8
con
100
AcDbLine
 10
766.835557777281
 20
559.5958762183287
 30
0.0
 11
967.9166222592188
 21
559.5958762183287
 31
0.0
  0
LINE
  5
19B
330
1F
100
AcDbEntity
  8
con
100
AcDbLine
 10
1062.632948685718
 20
559.5958762183292
 30
0.0
 11
1263.714013167662
 21
559.5958762183287
 31
0.0
  0
SPLINE
  5
19C
330
1F
100
AcDbEntity
  8
con
100
AcDbSpline
210
0.0
220
0.0
230
1.0
 70
     8
 71
     3
 72
     9
 73
     5
 74
     0
 42
0.0000000001
 43
0.0000000001
 40
4.716370385381622
 40
4.716370385381622
 40
4.716370385381622
 40
4.716370385381622
 40
126.986792372752
 40
274.5054925408115
 40
274.5054925408115
 40
274.5054925408115
 40
274.5054925408115
 10
1254.346714197978
 20
559.5958762183612
 30
0.0
 10
1236.722307615573
 20
519.9414965617894
 30
0.0
 10
1196.934111182218
 20
433.6267374424688
 30
0.0
 10
1103.676177066889
 20
417.5601853135696
 30
0.0
 10
1050.658213334322
 20
411.4358265480944
 30
0.0
  0
SPLINE
  5
19D
330
1F
100
AcDbEntity
  8
con
100
AcDbSpline
210
0.0
220
0.0
230
1.0
 70
     8
 71
     3
 72
     9
 73
     5
 74
     0
 42
0.0000000001
 43
0.0000000001
 40
4.716370385381606
 40
4.716370385381606
 40
4.716370385381606
 40
4.716370385381606
 40
126.986792372752
 40
274.505492540811
 40
274.505492540811
 40
274.505492540811
 40
274.505492540811
 10
776.2028567469591
 20
559.5958762183609
 30
0.0
 10
793.8272633293637
 20
519.9414965617894
 30
0.0
 10
833.6154597627192
 20
433.626737442469
 30
0.0
 10
926.8733938780471
 20
417.5601853135697
 30
0.0
 10
979.8913576106142
 20
411.4358265480944
 30
0.0
  0
DIMENSION
  5
231
102
{ACAD_XDICTIONARY
360
23E
102
}
102
{ACAD_REACTORS
330
248
102
}
330
1F
100
AcDbEntity
  8
dim
100
AcDbDimension
  2
*D7
 10
688.9554035496339
 20
384.5958762183288
 30
0.0
 11
688.9554035496339
 21
482.0958762183291
 31
0.0
 70
   160
  1
7-5/8"
 71
     5
 42
194.9999999999999
 73
     0
 74
     0
 75
     0
  3
ISO-25
100
AcDbAlignedDimension
 13
1015.274785472468
 23
579.5958762183287
 33
0.0
 14
1015.274785472468
 24
384.5958762183288
 34
0.0
 50
90.0
100
AcDbRotatedDimension
  0
LINE
  5
24A
330
1F
100
AcDbEntity
  8
图层1
100
AcDbLine
 10
979.6604997581823
 20
427.5958762183288
 30
0.0
 11
1050.889071186754
 21
427.5958762183288
 31
0.0
  0
DIMENSION
  5
24B
330
1F
100
AcDbEntity
  8
dim
100
AcDbDimension
  2
*D8
 10
729.8261719117962
 20
427.5958762183288
 30
0.0
 11
729.8261719117959
 21
503.5958762183287
 31
0.0
 70
    32
  1
6"
 71
     5
 42
151.9999999999998
 73
     0
 74
     0
 75
     0
  3
ISO-25
100
AcDbAlignedDimension
 13
687.7054035496341
 23
579.5958762183287
 33
0.0
 14
1015.274785472468
 24
427.5958762183288
 34
0.0
 50
90.0
100
AcDbRotatedDimension
  0
DIMENSION
  5
3A0
102
{ACAD_XDICTIONARY
360
3AC
102
}
102
{ACAD_REACTORS
330
3B5
102
}
330
1F
100
AcDbEntity
  8
dim
100
AcDbDimension
  2
*D9
 10
1036.774371119549
 20
980.2029257659178
 30
0.0
 11
961.5257863554413
 21
980.6701072082567
 31
0.0
 70
    35
  1
{\H1.4x;%%C1\H0.7x;\S11/16;\H1.4286x;"}
 71
     5
 42
42.99999999999966
 73
     0
 74
     0
 75
     0
  3
ISO-25
100
AcDbDiametricDimension
 15
993.7751998253878
 25
980.4698864659437
 35
0.0
 40
0.0
1001
ACAD
1000
DSTYLE
1002
{
1070
   288
1070
     1
1002
}
  0
LINE
  5
40D
330
1F
100
AcDbEntity
  8
con
100
AcDbLine
 10
1273.649785472468
 20
912.8364061159308
 30
0.0
 11
1273.649785472468
 21
729.3364061159308
 31
0.0
  0
LINE
  5
40E
330
1F
100
AcDbEntity
  8
con
100
AcDbLine
 10
1263.649785472468
 20
719.3364061159307
 30
0.0
 11
765.6497854724677
 21
719.3364061159307
 31
0.0
  0
LINE
  5
40F
330
1F
100
AcDbEntity
  8
con
100
AcDbLine
 10
755.6497854724677
 20
729.3364061159308
 30
0.0
 11
755.649785472468
 21
1096.336406115931
 31
0.0
  0
LINE
  5
410
330
1F
100
AcDbEntity
  8
con
100
AcDbLine
 10
765.649785472468
 20
1106.336406115931
 30
0.0
 11
1263.649785472468
 21
1106.336406115931
 31
0.0
  0
LINE
  5
411
102
{ACAD_REACTORS
330
454
102
}
330
1F
100
AcDbEntity
  8
con
100
AcDbLine
 10
1273.649785472468
 20
1096.336406115931
 30
0.0
 11
1273.649785472468
 21
912.8364061159308
 31
0.0
  0
LINE
  5
413
330
1F
100
AcDbEntity
  8
con
100
AcDbLine
 10
1244.649785472468
 20
912.8364061159308
 30
0.0
 11
1244.649785472468
 21
757.8364061159308
 31
0.0
  0
LINE
  5
415
330
1F
100
AcDbEntity
  8
con
100
AcDbLine
 10
1234.649785472468
 20
747.8364061159307
 30
0.0
 11
794.6497854724677
 21
747.8364061159307
 31
0.0
  0
LINE
  5
416
330
1F
100
AcDbEntity
  8
con
100
AcDbLine
 10
784.6497854724677
 20
757.8364061159308
 30
0.0
 11
784.6497854724677
 21
1067.836406115931
 31
0.0
  0
LINE
  5
417
330
1F
100
AcDbEntity
  8
con
100
AcDbLine
 10
794.6497854724677
 20
1077.836406115931
 30
0.0
 11
1234.649785472468
 21
1077.836406115931
 31
0.0
  0
LINE
  5
418
102
{ACAD_REACTORS
330
43A
102
}
330
1F
100
AcDbEntity
  8
con
100
AcDbLine
 10
1244.649785472468
 20
1067.836406115931
 30
0.0
 11
1244.649785472468
 21
912.8364061159308
 31
0.0
  0
ARC
  5
419
330
1F
100
AcDbEntity
  8
con
100
AcDbCircle
 10
794.6497854724677
 20
1067.836406115931
 30
0.0
 40
10.0
100
AcDbArc
 50
90.0
 51
180.0
  0
ARC
  5
41A
330
1F
100
AcDbEntity
  8
con
100
AcDbCircle
 10
794.6497854724677
 20
757.8364061159308
 30
0.0
 40
10.0
100
AcDbArc
 50
180.0
 51
270.0
  0
ARC
  5
41B
330
1F
100
AcDbEntity
  8
con
100
AcDbCircle
 10
765.6497854724677
 20
729.3364061159308
 30
0.0
 40
10.0
100
AcDbArc
 50
180.0
 51
270.0
  0
ARC
  5
41C
330
1F
100
AcDbEntity
  8
con
100
AcDbCircle
 10
765.649785472468
 20
1096.336406115931
 30
0.0
 40
10.0
100
AcDbArc
 50
90.0
 51
180.0
  0
ARC
  5
41D
330
1F
100
AcDbEntity
  8
con
100
AcDbCircle
 10
1263.649785472468
 20
1096.336406115931
 30
0.0
 40
10.0
100
AcDbArc
 50
0.0
 51
90.0
  0
ARC
  5
41E
330
1F
100
AcDbEntity
  8
con
100
AcDbCircle
 10
1234.649785472468
 20
1067.836406115931
 30
0.0
 40
10.0
100
AcDbArc
 50
0.0
 51
90.0
  0
ARC
  5
41F
330
1F
100
AcDbEntity
  8
con
100
AcDbCircle
 10
1234.649785472468
 20
757.8364061159308
 30
0.0
 40
10.0
100
AcDbArc
 50
270.0
 51
0.0
  0
ARC
  5
420
330
1F
100
AcDbEntity
  8
con
100
AcDbCircle
 10
1263.649785472468
 20
729.3364061159308
 30
0.0
 40
10.0
100
AcDbArc
 50
270.0
 51
0.0
  0
DIMENSION
  5
421
102
{ACAD_XDICTIONARY
360
42F
102
}
102
{ACAD_REACTORS
330
43A
102
}
330
1F
100
AcDbEntity
  8
dim
100
AcDbDimension
  2
*D10
 10
1244.649785472468
 20
678.6480968919552
 30
0.0
 11
1014.649785472468
 21
678.6480968919552
 31
0.0
 70
    32
  1
18-1/8"
 71
     5
 42
460.0000000000001
 73
     0
 74
     0
 75
     0
  3
ISO-25
100
AcDbAlignedDimension
 13
784.6497854724677
 23
912.8364061159308
 33
0.0
 14
1244.649785472468
 24
912.8364061159308
 34
0.0
100
AcDbRotatedDimension
  0
DIMENSION
  5
43B
102
{ACAD_XDICTIONARY
360
449
102
}
102
{ACAD_REACTORS
330
454
102
}
330
1F
100
AcDbEntity
  8
dim
100
AcDbDimension
  2
*D11
 10
1273.649785472468
 20
647.6777938265613
 30
0.0
 11
1014.649785472468
 21
647.6777938265613
 31
0.0
 70
    32
  1
20-3/8"
 71
     5
 42
518.0000000000001
 73
     0
 74
     0
 75
     0
  3
ISO-25
100
AcDbAlignedDimension
 13
755.6497854724677
 23
912.8364061159308
 33
0.0
 14
1273.649785472468
 24
912.8364061159308
 34
0.0
100
AcDbRotatedDimension
  0
DIMENSION
  5
455
330
1F
100
AcDbEntity
  8
dim
100
AcDbDimension
  2
*D12
 10
683.1035213036138
 20
719.3364061159309
 30
0.0
 11
683.1035213036138
 21
912.8364061159313
 31
0.0
 70
    32
  1
15-1/8"
 71
     5
 42
387.0000000000002
 73
     0
 74
     0
 75
     0
  3
ISO-25
100
AcDbAlignedDimension
 13
1014.649785472468
 23
1106.336406115931
 33
0.0
 14
1014.649785472468
 24
719.3364061159307
 34
0.0
 50
90.0
100
AcDbRotatedDimension
  0
DIMENSION
  5
46F
330
1F
100
AcDbEntity
  8
dim
100
AcDbDimension
  2
*D13
 10
718.7896953404951
 20
747.8364061159309
 30
0.0
 11
718.7896953404949
 21
912.8364061159313
 31
0.0
 70
    32
  1
13"
 71
     5
 42
330.0000000000001
 73
     0
 74
     0
 75
     0
  3
ISO-25
100
AcDbAlignedDimension
 13
1014.649785472468
 23
1077.836406115931
 33
0.0
 14
1014.649785472468
 24
747.8364061159307
 34
0.0
 50
90.0
100
AcDbRotatedDimension
  0
LINE
  5
495
330
1F
100
AcDbEntity
  8
con
100
AcDbLine
 10
755.6497854724677
 20
559.5958762183287
 30
0.0
 11
755.6497854724677
 21
574.5958762183287
 31
0.0
  0
LINE
  5
496
330
1F
100
AcDbEntity
  8
con
100
AcDbLine
 10
1273.649785472468
 20
574.5958762183287
 30
0.0
 11
1273.649785472468
 21
559.5958762183287
 31
0.0
  0
ARC
  5
497
330
1F
100
AcDbEntity
  8
con
100
AcDbCircle
 10
1268.649785472468
 20
574.5958762183287
 30
0.0
 40
5.0
100
AcDbArc
 50
0.0
 51
90.0
  0
ARC
  5
499
330
1F
100
AcDbEntity
  8
con
100
AcDbCircle
 10
760.649785472468
 20
574.5958762183287
 30
0.0
 40
5.0
100
AcDbArc
 50
90.0
 51
180.0
  0
LINE
  5
49A
330
1F
100
AcDbEntity
  8
con
100
AcDbLine
 10
760.649785472468
 20
579.5958762183287
 30
0.0
 11
767.7747854724682
 21
579.5958762183287
 31
0.0
  0
LINE
  5
49B
330
1F
100
AcDbEntity
  8
con
100
AcDbLine
 10
767.7747854724682
 20
579.5958762183287
 30
0.0
 11
1268.649785472468
 21
579.5958762183287
 31
0.0
  0
LINE
  5
550
330
1F
100
AcDbEntity
  8
dash
100
AcDbLine
 10
1239.649785472468
 20
912.8364061159308
 30
0.0
 11
1239.649785472468
 21
1060.336406115931
 31
0.0
  0
LINE
  5
551
330
1F
100
AcDbEntity
  8
dash
100
AcDbLine
 10
1229.649785472467
 20
1070.336406115931
 30
0.0
 11
799.649785472468
 21
1070.336406115931
 31
0.0
  0
LINE
  5
552
330
1F
100
AcDbEntity
  8
dash
100
AcDbLine
 10
789.649785472468
 20
1060.336406115931
 30
0.0
 11
789.649785472468
 21
765.3364061159308
 31
0.0
  0
LINE
  5
553
330
1F
100
AcDbEntity
  8
dash
100
AcDbLine
 10
799.649785472468
 20
755.3364061159308
 30
0.0
 11
1229.649785472468
 21
755.3364061159307
 31
0.0
  0
LINE
  5
554
102
{ACAD_REACTORS
330
590
102
}
330
1F
100
AcDbEntity
  8
dash
100
AcDbLine
 10
1239.649785472468
 20
765.3364061159305
 30
0.0
 11
1239.649785472468
 21
912.8364061159308
 31
0.0
  0
ARC
  5
555
330
1F
100
AcDbEntity
  8
dash
100
AcDbCircle
 10
799.649785472468
 20
1060.336406115931
 30
0.0
 40
10.0
100
AcDbArc
 50
90.0
 51
180.0
  0
ARC
  5
556
330
1F
100
AcDbEntity
  8
dash
100
AcDbCircle
 10
1229.649785472467
 20
1060.336406115931
 30
0.0
 40
10.0
100
AcDbArc
 50
0.0
 51
90.0
  0
ARC
  5
557
330
1F
100
AcDbEntity
  8
dash
100
AcDbCircle
 10
1229.649785472468
 20
765.3364061159305
 30
0.0
 40
10.0
100
AcDbArc
 50
270.0
 51
0.0
  0
ARC
  5
558
330
1F
100
AcDbEntity
  8
dash
100
AcDbCircle
 10
799.649785472468
 20
765.3364061159308
 30
0.0
 40
10.0
100
AcDbArc
 50
180.0
 51
270.0
  0
DIMENSION
  5
577
102
{ACAD_XDICTIONARY
360
585
102
}
102
{ACAD_REACTORS
330
590
102
}
330
1F
100
AcDbEntity
  8
dim
100
AcDbDimension
  2
*D15
 10
1239.649785472468
 20
912.8364061159308
 30
0.0
 11
910.8122699915575
 21
912.8364061159308
 31
0.0
 70
   160
  1
17-3/4"
 71
     5
 42
450.0
 73
     0
 74
     0
 75
     0
  3
ISO-25
100
AcDbAlignedDimension
 13
789.649785472468
 23
912.8364061159308
 33
0.0
 14
1239.649785472468
 24
912.8364061159308
 34
0.0
100
AcDbRotatedDimension
  0
DIMENSION
  5
591
330
1F
100
AcDbEntity
  8
dim
100
AcDbDimension
  2
*D16
 10
1014.649785472468
 20
755.3364061159308
 30
0.0
 11
1014.649785472468
 21
879.5250513748019
 31
0.0
 70
   160
  1
12-3/8"
 71
     5
 42
315.0
 73
     0
 74
     0
 75
     0
  3
ISO-25
100
AcDbAlignedDimension
 13
1014.649785472468
 23
1070.336406115931
 33
0.0
 14
1014.649785472468
 24
755.3364061159308
 34
0.0
 50
90.0
100
AcDbRotatedDimension
  0
LEADER
  5
605
330
1F
100
AcDbEntity
  8
dim
100
AcDbLeader
  3
ISO-25
 73
     0
 40
7.812290127602418
 41
117.2901276024177
 76
     3
 10
1239.429277886386
 20
812.4215466570081
 30
0.0
 10
1216.203491716329
 20
828.5680200421452
 30
0.0
 10
1191.462977921687
 20
828.5680200421452
 30
0.0
340
606
213
0.0
223
3.75
233
0.0
1001
ACAD
1000
DSTYLE
1002
{
1070
   147
1040
0.625
1070
    77
1070
     0
1002
}
  0
MTEXT
  5
606
102
{ACAD_REACTORS
330
605
102
}
330
1F
100
AcDbEntity
  8
dim
100
AcDbMText
 10
1190.837977921687
 20
824.8180200421453
 30
0.0
 40
7.5
 41
0.0
 46
0.0
 71
     9
 72
     1
  1
{\fVerdana|b0|i0|c0|p34;CUT\fVerdana|b0|i0|c134|p34; \fVerdana|b0|i0|c0|p34;ALONG\fVerdana|b0|i0|c134|p34; \fVerdana|b0|i0|c0|p34;THIS\fVerdana|b0|i0|c134|p34; \fVerdana|b0|i0|c0|p34;LINE}
 73
     1
 44
1.0
  0
ENDSEC
  0
SECTION
  2
OBJECTS
  0
DICTIONARY
  5
C
330
0
100
AcDbDictionary
281
     1
  3
ACAD_COLOR
350
6B
  3
ACAD_GROUP
350
D
  3
ACAD_LAYOUT
350
1A
  3
ACAD_MATERIAL
350
6A
  3
ACAD_MLINESTYLE
350
17
  3
ACAD_PLOTSETTINGS
350
19
  3
ACAD_PLOTSTYLENAME
350
E
  3
ACAD_TABLESTYLE
350
7E
  3
ACAD_VISUALSTYLE
350
F0
  3
AcDbVariableDictionary
350
5E
  0
DICTIONARY
  5
12C
330
2
100
AcDbDictionary
280
     1
281
     1
  3
ACAD_LAYERFILTERS
360
60A
  3
ACLYDICTIONARY
360
609
  0
DICTIONARY
  5
14B
330
1F
100
AcDbDictionary
280
     1
281
     1
  3
ACAD_SORTENTS
360
14C
  0
DICTIONARY
  5
23E
330
231
100
AcDbDictionary
280
     1
281
     1
  3
ACAD_DIMASSOC
360
248
  0
DICTIONARY
  5
3AC
330
3A0
100
AcDbDictionary
280
     1
281
     1
  3
ACAD_DIMASSOC
360
3B5
  0
DICTIONARY
  5
42F
330
421
100
AcDbDictionary
280
     1
281
     1
  3
ACAD_DIMASSOC
360
43A
  0
DICTIONARY
  5
449
330
43B
100
AcDbDictionary
280
     1
281
     1
  3
ACAD_DIMASSOC
360
454
  0
DICTIONARY
  5
585
330
577
100
AcDbDictionary
280
     1
281
     1
  3
ACAD_DIMASSOC
360
590
  0
DICTIONARY
  5
6B
102
{ACAD_REACTORS
330
C
102
}
330
C
100
AcDbDictionary
281
     1
  0
DICTIONARY
  5
D
102
{ACAD_REACTORS
330
C
102
}
330
C
100
AcDbDictionary
281
     1
  0
DICTIONARY
  5
1A
102
{ACAD_REACTORS
330
C
102
}
330
C
100
AcDbDictionary
281
     1
  3
Model
350
22
  3
布局1
350
D3
  3
布局2
350
D7
  0
DICTIONARY
  5
6A
102
{ACAD_REACTORS
330
C
102
}
330
C
100
AcDbDictionary
281
     1
  3
ByBlock
350
EE
  3
ByLayer
350
ED
  3
Global
350
EF
  0
DICTIONARY
  5
17
102
{ACAD_REACTORS
330
C
102
}
330
C
100
AcDbDictionary
281
     1
  3
Standard
350
18
  0
DICTIONARY
  5
19
102
{ACAD_REACTORS
330
C
102
}
330
C
100
AcDbDictionary
281
     1
  0
ACDBDICTIONARYWDFLT
  5
E
102
{ACAD_REACTORS
330
C
102
}
330
C
100
AcDbDictionary
281
     1
  3
Normal
350
F
100
AcDbDictionaryWithDefault
340
F
  0
DICTIONARY
  5
7E
102
{ACAD_REACTORS
330
C
102
}
330
C
100
AcDbDictionary
281
     1
  3
Standard
350
7F
  0
DICTIONARY
  5
F0
102
{ACAD_REACTORS
330
C
102
}
330
C
100
AcDbDictionary
281
     1
  3
2dWireframe
350
F6
  3
3D Hidden
350
F8
  3
3dWireframe
350
F7
  3
Basic
350
F5
  3
Brighten
350
FC
  3
ColorChange
350
100
  3
Conceptual
350
F9
  3
Dim
350
FB
  3
Facepattern
350
FF
  3
Flat
350
F1
  3
FlatWithEdges
350
F2
  3
Gouraud
350
F3
  3
GouraudWithEdges
350
F4
  3
Linepattern
350
FE
  3
Realistic
350
FA
  3
Thicken
350
FD
  0
DICTIONARY
  5
5E
102
{ACAD_REACTORS
330
C
102
}
330
C
100
AcDbDictionary
281
     1
  3
CTABLESTYLE
350
84
  3
DIMASSOC
350
5F
  3
HIDETEXT
350
63
  0
DICTIONARY
  5
60A
102
{ACAD_REACTORS
330
12C
102
}
330
12C
100
AcDbDictionary
281
     1
  0
DICTIONARY
  5
609
102
{ACAD_REACTORS
330
12C
102
}
330
12C
100
AcDbDictionary
281
     1
1001
ACAD
1000
<All
  0
SORTENTSTABLE
  5
14C
102
{ACAD_REACTORS
330
14B
102
}
330
14B
100
AcDbSortentsTable
330
1F
331
455
  5
46F
331
17B
  5
17B
331
17A
  5
194
331
421
  5
43B
331
179
  5
177
331
420
  5
40F
331
178
  5
180
331
558
  5
554
331
165
  5
163
331
161
  5
175
331
43B
  5
455
331
3A0
  5
3CC
331
15F
  5
174
331
557
  5
558
331
24B
  5
3A0
331
24A
  5
24B
331
556
  5
551
331
554
  5
557
331
553
  5
556
331
19D
  5
231
331
552
  5
553
331
19C
  5
19D
331
551
  5
552
331
19B
  5
19C
331
550
  5
550
331
199
  5
19B
331
231
  5
24A
331
49B
  5
49B
331
49A
  5
49A
331
149
  5
153
331
417
  5
41F
331
499
  5
499
331
416
  5
41C
331
415
  5
41A
331
497
  5
498
331
496
  5
497
331
413
  5
419
331
495
  5
496
331
411
  5
417
331
410
  5
416
331
40F
  5
411
331
40E
  5
410
331
40D
  5
40E
331
41F
  5
41B
331
41E
  5
421
331
41D
  5
418
331
41C
  5
413
331
177
  5
171
331
41B
  5
415
331
41A
  5
41D
331
419
  5
41E
331
46F
  5
489
331
196
  5
199
331
418
  5
420
331
194
  5
196
331
16E
  5
178
331
16D
  5
176
  0
DIMASSOC
  5
248
102
{ACAD_REACTORS
330
23E
102
}
330
23E
100
AcDbDimAssoc
330
231
 90
        1
 70
     0
 71
     0
  1
AcDbOsnapPointRef
 72
     1
331
161
 73
     2
 91
        0
 40
1.0
 10
0.0
 20
0.0
 30
2.000000000000000E+50
 75
     0
  0
DIMASSOC
  5
3B5
102
{ACAD_REACTORS
330
3AC
102
}
330
3AC
100
AcDbDimAssoc
330
3A0
 90
        2
 70
     0
 71
     0
  1
AcDbOsnapPointRef
 72
     3
331
149
 73
     2
 91
        0
 40
0.0
 10
0.0
 20
0.0
 30
0.0
 75
     0
  0
DIMASSOC
  5
43A
102
{ACAD_REACTORS
330
42F
102
}
330
42F
100
AcDbDimAssoc
330
421
 90
        2
 70
     0
 71
     0
  1
AcDbOsnapPointRef
 72
     1
331
418
 73
     2
 91
        0
 40
1.0
 10
0.0
 20
0.0
 30
2.000000000000000E+50
 75
     0
  0
DIMASSOC
  5
454
102
{ACAD_REACTORS
330
449
102
}
330
449
100
AcDbDimAssoc
330
43B
 90
        2
 70
     0
 71
     0
  1
AcDbOsnapPointRef
 72
     1
331
411
 73
     2
 91
        0
 40
1.0
 10
0.0
 20
0.0
 30
2.000000000000000E+50
 75
     0
  0
DIMASSOC
  5
590
102
{ACAD_REACTORS
330
585
102
}
330
585
100
AcDbDimAssoc
330
577
 90
        2
 70
     0
 71
     0
  1
AcDbOsnapPointRef
 72
     1
331
554
 73
     2
 91
        0
 40
1.0
 10
0.0
 20
0.0
 30
2.000000000000000E+50
 75
     0
  0
LAYOUT
  5
22
102
{ACAD_REACTORS
330
1A
102
}
330
1A
100
AcDbPlotSettings
  1

  2
none_device
  4
ISO_A4_(210.00_x_297.00_MM)
  6

 40
7.5
 41
20.0
 42
7.5
 43
20.0
 44
210.0
 45
297.0
 46
11.54999923706054
 47
-13.65000009536743
 48
0.0
 49
0.0
140
0.0
141
0.0
142
1.0
143
8.704084754739808
 70
 11952
 72
     1
 73
     0
 74
     0
  7

 75
     0
147
0.1148885871608098
 76
     0
 77
     2
 78
   300
148
0.0
149
0.0
100
AcDbLayout
  1
Model
 70
     1
 71
     0
 10
0.0
 20
0.0
 11
12.0
 21
9.0
 12
0.0
 22
0.0
 32
0.0
 14
0.0
 24
0.0
 34
0.0
 15
0.0
 25
0.0
 35
0.0
146
0.0
 13
0.0
 23
0.0
 33
0.0
 16
1.0
 26
0.0
 36
0.0
 17
0.0
 27
1.0
 37
0.0
 76
     0
330
1F
331
EB
1001
ACAD_PSEXT
1000
None
1000
None
1000
Not applicable
1000
The layout will not be plotted unless a new plotter configuration name is selected.
1070
     0
  0
LAYOUT
  5
D3
102
{ACAD_REACTORS
330
1A
102
}
330
1A
100
AcDbPlotSettings
  1

  2
C:\Documents and Settings\basas\Application Data\Autodesk\AutoCAD 2005\R16.1\enu\plotters\Default Windows System Printer.pc3
  4

  6

 40
0.0
 41
0.0
 42
0.0
 43
0.0
 44
0.0
 45
0.0
 46
0.0
 47
0.0
 48
0.0
 49
0.0
140
0.0
141
0.0
142
1.0
143
1.0
 70
   688
 72
     0
 73
     0
 74
     5
  7

 75
    16
147
1.0
 76
     0
 77
     2
 78
   300
148
0.0
149
0.0
100
AcDbLayout
  1
布局1
 70
     1
 71
     1
 10
0.0
 20
0.0
 11
12.0
 21
9.0
 12
0.0
 22
0.0
 32
0.0
 14
0.0
 24
0.0
 34
0.0
 15
0.0
 25
0.0
 35
0.0
146
0.0
 13
0.0
 23
0.0
 33
0.0
 16
1.0
 26
0.0
 36
0.0
 17
0.0
 27
1.0
 37
0.0
 76
     0
330
D2
  0
LAYOUT
  5
D7
102
{ACAD_REACTORS
330
1A
102
}
330
1A
100
AcDbPlotSettings
  1

  2
C:\Documents and Settings\basas\Application Data\Autodesk\AutoCAD 2005\R16.1\enu\plotters\Default Windows System Printer.pc3
  4

  6

 40
0.0
 41
0.0
 42
0.0
 43
0.0
 44
0.0
 45
0.0
 46
0.0
 47
0.0
 48
0.0
 49
0.0
140
0.0
141
0.0
142
1.0
143
1.0
 70
   688
 72
     0
 73
     0
 74
     5
  7

 75
    16
147
1.0
 76
     0
 77
     2
 78
   300
148
0.0
149
0.0
100
AcDbLayout
  1
布局2
 70
     1
 71
     2
 10
0.0
 20
0.0
 11
12.0
 21
9.0
 12
0.0
 22
0.0
 32
0.0
 14
0.0
 24
0.0
 34
0.0
 15
0.0
 25
0.0
 35
0.0
146
0.0
 13
0.0
 23
0.0
 33
0.0
 16
1.0
 26
0.0
 36
0.0
 17
0.0
 27
1.0
 37
0.0
 76
     0
330
D6
  0
MATERIAL
  5
EE
102
{ACAD_REACTORS
330
6A
102
}
330
6A
100
AcDbMaterial
  1
ByBlock
  0
MATERIAL
  5
ED
102
{ACAD_REACTORS
330
6A
102
}
330
6A
100
AcDbMaterial
  1
ByLayer
  0
MATERIAL
  5
EF
102
{ACAD_REACTORS
330
6A
102
}
330
6A
100
AcDbMaterial
  1
Global
  0
MLINESTYLE
  5
18
102
{ACAD_REACTORS
330
17
102
}
330
17
100
AcDbMlineStyle
  2
STANDARD
 70
     0
  3

 62
   256
 51
90.0
 52
90.0
 71
     2
 49
0.5
 62
   256
  6
BYLAYER
 49
-0.5
 62
   256
  6
BYLAYER
  0
ACDBPLACEHOLDER
  5
F
102
{ACAD_REACTORS
330
E
102
}
330
E
  0
TABLESTYLE
  5
7F
102
{ACAD_REACTORS
330
7E
102
}
330
7E
100
AcDbTableStyle
  3
Standard
 70
     0
 71
     0
 40
1.5
 41
1.5
280
     0
281
     0
  7
Standard
140
4.5
170
     2
 62
     0
 63
     7
283
     0
 90
      512
 91
        0
  1

274
    -2
284
     1
 64
     0
275
    -2
285
     1
 65
     0
276
    -2
286
     1
 66
     0
277
    -2
287
     1
 67
     0
278
    -2
288
     1
 68
     0
279
    -2
289
     1
 69
     0
  7
Standard
140
6.0
170
     5
 62
     0
 63
     7
283
     0
 90
      512
 91
        0
  1

274
    -2
284
     1
 64
     0
275
    -2
285
     1
 65
     0
276
    -2
286
     1
 66
     0
277
    -2
287
     1
 67
     0
278
    -2
288
     1
 68
     0
279
    -2
289
     1
 69
     0
  7
Standard
140
4.5
170
     5
 62
     0
 63
     7
283
     0
 90
      512
 91
        0
  1

274
    -2
284
     1
 64
     0
275
    -2
285
     1
 65
     0
276
    -2
286
     1
 66
     0
277
    -2
287
     1
 67
     0
278
    -2
288
     1
 68
     0
279
    -2
289
     1
 69
     0
  0
VISUALSTYLE
  5
F6
102
{ACAD_REACTORS
330
F0
102
}
330
F0
100
AcDbVisualStyle
  2
2dWireframe
 70
     4
 71
     0
 72
     2
 73
     1
 90
        0
 40
-0.6
 41
-30.0
 62
     5
 63
     7
421
 16777215
 74
     1
 91
        4
 64
     7
 65
   257
 75
     1
175
     1
 42
1.0
 92
        0
 66
   257
 43
1.0
 76
     1
 77
     6
 78
     2
 67
     7
 79
     5
170
     0
171
     0
290
     0
174
     0
 93
        1
 44
0.0
173
     0
291
     0
 45
0.0
  0
VISUALSTYLE
  5
F8
102
{ACAD_REACTORS
330
F0
102
}
330
F0
100
AcDbVisualStyle
  2
3D Hidden
 70
     6
 71
     1
 72
     2
 73
     2
 90
        0
 40
-0.6
 41
-30.0
 62
     5
 63
     7
421
 16777215
 74
     2
 91
        2
 64
     7
 65
   257
 75
     2
175
     1
 42
40.0
 92
        0
 66
   257
 43
1.0
 76
     1
 77
     6
 78
     2
 67
     7
 79
     3
170
     0
171
     0
290
     0
174
     0
 93
        1
 44
0.0
173
     0
291
     0
 45
0.0
  0
VISUALSTYLE
  5
F7
102
{ACAD_REACTORS
330
F0
102
}
330
F0
100
AcDbVisualStyle
  2
3dWireframe
 70
     5
 71
     0
 72
     2
 73
     1
 90
        0
 40
-0.6
 41
-30.0
 62
     5
 63
     7
421
 16777215
 74
     1
 91
        4
 64
     7
 65
   257
 75
     1
175
     1
 42
1.0
 92
        0
 66
   257
 43
1.0
 76
     1
 77
     6
 78
     2
 67
     7
 79
     5
170
     0
171
     0
290
     0
174
     0
 93
        1
 44
0.0
173
     0
291
     0
 45
0.0
  0
VISUALSTYLE
  5
F5
102
{ACAD_REACTORS
330
F0
102
}
330
F0
100
AcDbVisualStyle
  2
Basic
 70
     7
 71
     1
 72
     0
 73
     1
 90
        0
 40
-0.6
 41
-30.0
 62
     5
 63
     7
421
 16777215
 74
     0
 91
        4
 64
     7
 65
   257
 75
     1
175
     1
 42
1.0
 92
        8
 66
     7
 43
1.0
 76
     1
 77
     6
 78
     2
 67
     7
 79
     5
170
     0
171
     0
290
     0
174
     0
 93
        1
 44
0.0
173
     0
291
     1
 45
0.0
  0
VISUALSTYLE
  5
FC
102
{ACAD_REACTORS
330
F0
102
}
330
F0
100
AcDbVisualStyle
  2
Brighten
 70
    12
 71
     2
 72
     2
 73
     1
 90
        0
 40
-0.6
 41
-30.0
 62
     5
 63
     7
421
 16777215
 74
     1
 91
        4
 64
     7
 65
   257
 75
     1
175
     1
 42
1.0
 92
        8
 66
     7
 43
1.0
 76
     1
 77
     6
 78
     2
 67
     7
 79
     5
170
     0
171
     0
290
     0
174
     0
 93
        1
 44
50.0
173
     0
291
     1
 45
0.0
  0
VISUALSTYLE
  5
100
102
{ACAD_REACTORS
330
F0
102
}
330
F0
100
AcDbVisualStyle
  2
ColorChange
 70
    16
 71
     2
 72
     2
 73
     3
 90
        0
 40
-0.6
 41
-30.0
 62
     5
 63
     8
421
  8421504
 74
     1
 91
        4
 64
     7
 65
   257
 75
     1
175
     1
 42
1.0
 92
        8
 66
     8
424
  8421504
 43
1.0
 76
     1
 77
     6
 78
     2
 67
     7
 79
     5
170
     0
171
     0
290
     0
174
     0
 93
        1
 44
0.0
173
     0
291
     1
 45
0.0
  0
VISUALSTYLE
  5
F9
102
{ACAD_REACTORS
330
F0
102
}
330
F0
100
AcDbVisualStyle
  2
Conceptual
 70
     9
 71
     3
 72
     2
 73
     1
 90
        0
 40
-0.6
 41
-30.0
 62
     5
 63
     7
421
 16777215
 74
     2
 91
        2
 64
     7
 65
   257
 75
     1
175
     1
 42
40.0
 92
        8
 66
     7
 43
1.0
 76
     1
 77
     6
 78
     2
 67
     7
 79
     3
170
     0
171
     0
290
     0
174
     0
 93
        1
 44
0.0
173
     0
291
     0
 45
0.0
  0
VISUALSTYLE
  5
FB
102
{ACAD_REACTORS
330
F0
102
}
330
F0
100
AcDbVisualStyle
  2
Dim
 70
    11
 71
     2
 72
     2
 73
     1
 90
        0
 40
-0.6
 41
-30.0
 62
     5
 63
     7
421
 16777215
 74
     1
 91
        4
 64
     7
 65
   257
 75
     1
175
     1
 42
1.0
 92
        8
 66
     7
 43
1.0
 76
     1
 77
     6
 78
     2
 67
     7
 79
     5
170
     0
171
     0
290
     0
174
     0
 93
        1
 44
-50.0
173
     0
291
     1
 45
0.0
  0
VISUALSTYLE
  5
FF
102
{ACAD_REACTORS
330
F0
102
}
330
F0
100
AcDbVisualStyle
  2
Facepattern
 70
    15
 71
     2
 72
     2
 73
     1
 90
        0
 40
-0.6
 41
-30.0
 62
     5
 63
     7
421
 16777215
 74
     1
 91
        4
 64
     7
 65
   257
 75
     1
175
     1
 42
1.0
 92
        8
 66
     7
 43
1.0
 76
     1
 77
     6
 78
     2
 67
     7
 79
     5
170
     0
171
     0
290
     0
174
     0
 93
        1
 44
0.0
173
     0
291
     1
 45
0.0
  0
VISUALSTYLE
  5
F1
102
{ACAD_REACTORS
330
F0
102
}
330
F0
100
AcDbVisualStyle
  2
Flat
 70
     0
 71
     2
 72
     1
 73
     1
 90
        2
 40
-0.6
 41
30.0
 62
     5
 63
     7
421
 16777215
 74
     0
 91
        4
 64
     7
 65
   257
 75
     1
175
     1
 42
1.0
 92
        8
 66
     7
 43
1.0
 76
     1
 77
     6
 78
     2
 67
     7
 79
     5
170
     0
171
     0
290
     0
174
     0
 93
        1
 44
0.0
173
     0
291
     1
 45
0.0
  0
VISUALSTYLE
  5
F2
102
{ACAD_REACTORS
330
F0
102
}
330
F0
100
AcDbVisualStyle
  2
FlatWithEdges
 70
     1
 71
     2
 72
     1
 73
     1
 90
        2
 40
-0.6
 41
30.0
 62
     5
 63
     7
421
 16777215
 74
     1
 91
        4
 64
     7
 65
   257
 75
     1
175
     1
 42
1.0
 92
        0
 66
   257
 43
1.0
 76
     1
 77
     6
 78
     2
 67
     7
 79
     5
170
     0
171
     0
290
     0
174
     0
 93
        1
 44
0.0
173
     0
291
     1
 45
0.0
  0
VISUALSTYLE
  5
F3
102
{ACAD_REACTORS
330
F0
102
}
330
F0
100
AcDbVisualStyle
  2
Gouraud
 70
     2
 71
     2
 72
     2
 73
     1
 90
        2
 40
-0.6
 41
30.0
 62
     5
 63
     7
421
 16777215
 74
     0
 91
        4
 64
     7
 65
   257
 75
     1
175
     1
 42
1.0
 92
        0
 66
     7
 43
1.0
 76
     1
 77
     6
 78
     2
 67
     7
 79
     5
170
     0
171
     0
290
     0
174
     0
 93
        1
 44
0.0
173
     0
291
     1
 45
0.0
  0
VISUALSTYLE
  5
F4
102
{ACAD_REACTORS
330
F0
102
}
330
F0
100
AcDbVisualStyle
  2
GouraudWithEdges
 70
     3
 71
     2
 72
     2
 73
     1
 90
        2
 40
-0.6
 41
30.0
 62
     5
 63
     7
421
 16777215
 74
     1
 91
        4
 64
     7
 65
   257
 75
     1
175
     1
 42
1.0
 92
        0
 66
   257
 43
1.0
 76
     1
 77
     6
 78
     2
 67
     7
 79
     5
170
     0
171
     0
290
     0
174
     0
 93
        1
 44
0.0
173
     0
291
     1
 45
0.0
  0
VISUALSTYLE
  5
FE
102
{ACAD_REACTORS
330
F0
102
}
330
F0
100
AcDbVisualStyle
  2
Linepattern
 70
    14
 71
     2
 72
     2
 73
     1
 90
        0
 40
-0.6
 41
-30.0
 62
     5
 63
     7
421
 16777215
 74
     1
 91
        4
 64
     7
 65
   257
 75
     7
175
     7
 42
1.0
 92
        8
 66
     7
 43
1.0
 76
     1
 77
     6
 78
     2
 67
     7
 79
     5
170
     0
171
     0
290
     0
174
     0
 93
        1
 44
0.0
173
     0
291
     1
 45
0.0
  0
VISUALSTYLE
  5
FA
102
{ACAD_REACTORS
330
F0
102
}
330
F0
100
AcDbVisualStyle
  2
Realistic
 70
     8
 71
     2
 72
     2
 73
     1
 90
        0
 40
-0.6
 41
-30.0
 62
     5
 63
     7
421
 16777215
 74
     1
 91
        0
 64
     7
 65
   257
 75
     1
175
     1
 42
1.0
 92
        8
 66
     8
424
  7895160
 43
1.0
 76
     1
 77
     6
 78
     2
 67
     7
 79
     5
170
     0
171
     0
290
     0
174
     0
 93
       13
 44
0.0
173
     0
291
     0
 45
0.0
  0
VISUALSTYLE
  5
FD
102
{ACAD_REACTORS
330
F0
102
}
330
F0
100
AcDbVisualStyle
  2
Thicken
 70
    13
 71
     2
 72
     2
 73
     1
 90
        0
 40
-0.6
 41
-30.0
 62
     5
 63
     7
421
 16777215
 74
     1
 91
        4
 64
     7
 65
   257
 75
     1
175
     1
 42
1.0
 92
       12
 66
     7
 43
1.0
 76
     1
 77
     6
 78
     2
 67
     7
 79
     5
170
     0
171
     0
290
     0
174
     0
 93
        1
 44
0.0
173
     0
291
     1
 45
0.0
  0
DICTIONARYVAR
  5
84
102
{ACAD_REACTORS
330
5E
102
}
330
5E
100
DictionaryVariables
280
     0
  1
STANDARD
  0
DICTIONARYVAR
  5
5F
102
{ACAD_REACTORS
330
5E
102
}
330
5E
100
DictionaryVariables
280
     0
  1
2
  0
DICTIONARYVAR
  5
63
102
{ACAD_REACTORS
330
5E
102
}
330
5E
100
DictionaryVariables
280
     0
  1
1
  0
ENDSEC
  0
EOF
