  0
SECTION
  2
HEADER
  9
$ACADVER
  1
AC1021
  9
$ACADMAINTVER
 70
     1
  9
$DWGCODEPAGE
  3
ANSI_936
  9
$LASTSAVEDBY
  1
Administrator
  9
$INSBASE
 10
0.0
 20
0.0
 30
0.0
  9
$EXTMIN
 10
558.5523931838978
 20
240.3860394261233
 30
0.0
  9
$EXTMAX
 10
1399.974102246368
 20
1077.489166248055
 30
0.0
  9
$LIMMIN
 10
0.0
 20
0.0
  9
$LIMMAX
 10
420.0
 20
297.0
  9
$ORTHOMODE
 70
     1
  9
$REGENMODE
 70
     1
  9
$FILLMODE
 70
     1
  9
$QTEXTMODE
 70
     0
  9
$MIRRTEXT
 70
     0
  9
$LTSCALE
 40
1.0
  9
$ATTMODE
 70
     1
  9
$TEXTSIZE
 40
2.5
  9
$TRACEWID
 40
1.0
  9
$TEXTSTYLE
  7
Standard
  9
$CLAYER
  8
dash
  9
$CELTYPE
  6
ByLayer
  9
$CECOLOR
 62
   256
  9
$CELTSCALE
 40
1.0
  9
$DISPSILH
 70
     0
  9
$DIMSCALE
 40
1.0
  9
$DIMASZ
 40
20.0
  9
$DIMEXO
 40
0.625
  9
$DIMDLI
 40
3.75
  9
$DIMRND
 40
0.0
  9
$DIMDLE
 40
0.0
  9
$DIMEXE
 40
1.25
  9
$DIMTP
 40
0.0
  9
$DIMTM
 40
0.0
  9
$DIMTXT
 40
20.0
  9
$DIMCEN
 40
2.5
  9
$DIMTSZ
 40
0.0
  9
$DIMTOL
 70
     0
  9
$DIMLIM
 70
     0
  9
$DIMTIH
 70
     0
  9
$DIMTOH
 70
     0
  9
$DIMSE1
 70
     0
  9
$DIMSE2
 70
     0
  9
$DIMTAD
 70
     0
  9
$DIMZIN
 70
     8
  9
$DIMBLK
  1

  9
$DIMASO
 70
     1
  9
$DIMSHO
 70
     1
  9
$DIMPOST
  1

  9
$DIMAPOST
  1

  9
$DIMALT
 70
     0
  9
$DIMALTD
 70
     3
  9
$DIMALTF
 40
0.03937007874016
  9
$DIMLFAC
 40
1.0
  9
$DIMTOFL
 70
     1
  9
$DIMTVP
 40
0.0
  9
$DIMTIX
 70
     0
  9
$DIMSOXD
 70
     0
  9
$DIMSAH
 70
     0
  9
$DIMBLK1
  1

  9
$DIMBLK2
  1

  9
$DIMSTYLE
  2
ISO-25
  9
$DIMCLRD
 70
     0
  9
$DIMCLRE
 70
     0
  9
$DIMCLRT
 70
     0
  9
$DIMTFAC
 40
1.0
  9
$DIMGAP
 40
0.625
  9
$DIMJUST
 70
     0
  9
$DIMSD1
 70
     0
  9
$DIMSD2
 70
     0
  9
$DIMTOLJ
 70
     0
  9
$DIMTZIN
 70
     8
  9
$DIMALTZ
 70
     0
  9
$DIMALTTZ
 70
     0
  9
$DIMUPT
 70
     0
  9
$DIMDEC
 70
     2
  9
$DIMTDEC
 70
     2
  9
$DIMALTU
 70
     2
  9
$DIMALTTD
 70
     3
  9
$DIMTXSTY
  7
Standard
  9
$DIMAUNIT
 70
     0
  9
$DIMADEC
 70
     0
  9
$DIMALTRND
 40
0.0
  9
$DIMAZIN
 70
     0
  9
$DIMDSEP
 70
    44
  9
$DIMATFIT
 70
     3
  9
$DIMFRAC
 70
     0
  9
$DIMLDRBLK
  1

  9
$DIMLUNIT
 70
     2
  9
$DIMLWD
 70
    -2
  9
$DIMLWE
 70
    -2
  9
$DIMTMOVE
 70
     0
  9
$DIMFXL
 40
1.0
  9
$DIMFXLON
 70
     0
  9
$DIMJOGANG
 40
0.7853981633974483
  9
$DIMTFILL
 70
     0
  9
$DIMTFILLCLR
 70
     0
  9
$DIMARCSYM
 70
     0
  9
$DIMLTYPE
  6

  9
$DIMLTEX1
  6

  9
$DIMLTEX2
  6

  9
$LUNITS
 70
     2
  9
$LUPREC
 70
     4
  9
$SKETCHINC
 40
1.0
  9
$FILLETRAD
 40
0.0
  9
$AUNITS
 70
     0
  9
$AUPREC
 70
     0
  9
$MENU
  1
.
  9
$ELEVATION
 40
0.0
  9
$PELEVATION
 40
0.0
  9
$THICKNESS
 40
0.0
  9
$LIMCHECK
 70
     0
  9
$CHAMFERA
 40
0.0
  9
$CHAMFERB
 40
0.0
  9
$CHAMFERC
 40
0.0
  9
$CHAMFERD
 40
0.0
  9
$SKPOLY
 70
     0
  9
$TDCREATE
 40
2458246.738043588
  9
$TDUCREATE
 40
2458246.404710255
  9
$TDUPDATE
 40
2458247.592049757
  9
$TDUUPDATE
 40
2458247.258716423
  9
$TDINDWG
 40
0.1348016667
  9
$TDUSRTIMER
 40
0.1348016667
  9
$USRTIMER
 70
     1
  9
$ANGBASE
 50
0.0
  9
$ANGDIR
 70
     0
  9
$PDMODE
 70
     0
  9
$PDSIZE
 40
0.0
  9
$PLINEWID
 40
0.0
  9
$SPLFRAME
 70
     0
  9
$SPLINETYPE
 70
     6
  9
$SPLINESEGS
 70
     8
  9
$HANDSEED
  5
3CE
  9
$SURFTAB1
 70
     6
  9
$SURFTAB2
 70
     6
  9
$SURFTYPE
 70
     6
  9
$SURFU
 70
     6
  9
$SURFV
 70
     6
  9
$UCSBASE
  2

  9
$UCSNAME
  2

  9
$UCSORG
 10
0.0
 20
0.0
 30
0.0
  9
$UCSXDIR
 10
1.0
 20
0.0
 30
0.0
  9
$UCSYDIR
 10
0.0
 20
1.0
 30
0.0
  9
$UCSORTHOREF
  2

  9
$UCSORTHOVIEW
 70
     0
  9
$UCSORGTOP
 10
0.0
 20
0.0
 30
0.0
  9
$UCSORGBOTTOM
 10
0.0
 20
0.0
 30
0.0
  9
$UCSORGLEFT
 10
0.0
 20
0.0
 30
0.0
  9
$UCSORGRIGHT
 10
0.0
 20
0.0
 30
0.0
  9
$UCSORGFRONT
 10
0.0
 20
0.0
 30
0.0
  9
$UCSORGBACK
 10
0.0
 20
0.0
 30
0.0
  9
$PUCSBASE
  2

  9
$PUCSNAME
  2

  9
$PUCSORG
 10
0.0
 20
0.0
 30
0.0
  9
$PUCSXDIR
 10
1.0
 20
0.0
 30
0.0
  9
$PUCSYDIR
 10
0.0
 20
1.0
 30
0.0
  9
$PUCSORTHOREF
  2

  9
$PUCSORTHOVIEW
 70
     0
  9
$PUCSORGTOP
 10
0.0
 20
0.0
 30
0.0
  9
$PUCSORGBOTTOM
 10
0.0
 20
0.0
 30
0.0
  9
$PUCSORGLEFT
 10
0.0
 20
0.0
 30
0.0
  9
$PUCSORGRIGHT
 10
0.0
 20
0.0
 30
0.0
  9
$PUCSORGFRONT
 10
0.0
 20
0.0
 30
0.0
  9
$PUCSORGBACK
 10
0.0
 20
0.0
 30
0.0
  9
$USERI1
 70
     0
  9
$USERI2
 70
     0
  9
$USERI3
 70
     0
  9
$USERI4
 70
     0
  9
$USERI5
 70
     0
  9
$USERR1
 40
0.0
  9
$USERR2
 40
0.0
  9
$USERR3
 40
0.0
  9
$USERR4
 40
0.0
  9
$USERR5
 40
0.0
  9
$WORLDVIEW
 70
     1
  9
$SHADEDGE
 70
     3
  9
$SHADEDIF
 70
    70
  9
$TILEMODE
 70
     1
  9
$MAXACTVP
 70
    64
  9
$PINSBASE
 10
0.0
 20
0.0
 30
0.0
  9
$PLIMCHECK
 70
     0
  9
$PEXTMIN
 10
0.0
 20
0.0
 30
0.0
  9
$PEXTMAX
 10
0.0
 20
0.0
 30
0.0
  9
$PLIMMIN
 10
0.0
 20
0.0
  9
$PLIMMAX
 10
12.0
 20
9.0
  9
$UNITMODE
 70
     0
  9
$VISRETAIN
 70
     1
  9
$PLINEGEN
 70
     0
  9
$PSLTSCALE
 70
     1
  9
$TREEDEPTH
 70
  3020
  9
$CMLSTYLE
  2
Standard
  9
$CMLJUST
 70
     0
  9
$CMLSCALE
 40
20.0
  9
$PROXYGRAPHICS
 70
     1
  9
$MEASUREMENT
 70
     1
  9
$CELWEIGHT
370
    -1
  9
$ENDCAPS
280
     0
  9
$JOINSTYLE
280
     0
  9
$LWDISPLAY
290
     1
  9
$INSUNITS
 70
     4
  9
$HYPERLINKBASE
  1

  9
$STYLESHEET
  1

  9
$XEDIT
290
     1
  9
$CEPSNTYPE
380
     0
  9
$PSTYLEMODE
290
     1
  9
$FINGERPRINTGUID
  2
{65C62926-FFC2-4379-95FE-FB9C146503EA}
  9
$VERSIONGUID
  2
{483F2D52-20FD-4F78-B7AB-8AF3BA85A689}
  9
$EXTNAMES
290
     1
  9
$PSVPSCALE
 40
0.0
  9
$OLESTARTUP
290
     0
  9
$SORTENTS
280
   127
  9
$INDEXCTL
280
     0
  9
$HIDETEXT
280
     1
  9
$XCLIPFRAME
290
     0
  9
$HALOGAP
280
     0
  9
$OBSCOLOR
 70
   257
  9
$OBSLTYPE
280
     0
  9
$INTERSECTIONDISPLAY
280
     0
  9
$INTERSECTIONCOLOR
 70
   257
  9
$DIMASSOC
280
     2
  9
$PROJECTNAME
  1

  9
$CAMERADISPLAY
290
     0
  9
$LENSLENGTH
 40
50.0
  9
$CAMERAHEIGHT
 40
0.0
  9
$STEPSPERSEC
 40
2.0
  9
$STEPSIZE
 40
6.0
  9
$3DDWFPREC
 40
2.0
  9
$PSOLWIDTH
 40
5.0
  9
$PSOLHEIGHT
 40
80.0
  9
$LOFTANG1
 40
1.570796326794896
  9
$LOFTANG2
 40
1.570796326794896
  9
$LOFTMAG1
 40
0.0
  9
$LOFTMAG2
 40
0.0
  9
$LOFTPARAM
 70
     7
  9
$LOFTNORMALS
280
     1
  9
$LATITUDE
 40
37.795
  9
$LONGITUDE
 40
-122.394
  9
$NORTHDIRECTION
 40
0.0
  9
$TIMEZONE
 70
 -8000
  9
$LIGHTGLYPHDISPLAY
280
     1
  9
$TILEMODELIGHTSYNCH
280
     1
  9
$CMATERIAL
347
ED
  9
$SOLIDHIST
280
     1
  9
$SHOWHIST
280
     1
  9
$DWFFRAME
280
     2
  9
$DGNFRAME
280
     0
  9
$REALWORLDSCALE
290
     1
  9
$INTERFERECOLOR
 62
     1
  9
$INTERFEREOBJVS
345
FA
  9
$INTERFEREVPVS
346
F7
  9
$CSHADOW
280
     0
  9
$SHADOWPLANELOCATION
 40
0.0
  0
ENDSEC
  0
SECTION
  2
CLASSES
  0
CLASS
  1
ACDBDICTIONARYWDFLT
  2
AcDbDictionaryWithDefault
  3
ObjectDBX Classes
 90
        0
 91
        1
280
     0
281
     0
  0
CLASS
  1
DICTIONARYVAR
  2
AcDbDictionaryVar
  3
ObjectDBX Classes
 90
        0
 91
        3
280
     0
281
     0
  0
CLASS
  1
TABLESTYLE
  2
AcDbTableStyle
  3
ObjectDBX Classes
 90
     4095
 91
        1
280
     0
281
     0
  0
CLASS
  1
MATERIAL
  2
AcDbMaterial
  3
ObjectDBX Classes
 90
     1024
 91
        3
280
     0
281
     0
  0
CLASS
  1
VISUALSTYLE
  2
AcDbVisualStyle
  3
ObjectDBX Classes
 90
     4095
 91
       16
280
     0
281
     0
  0
CLASS
  1
SORTENTSTABLE
  2
AcDbSortentsTable
  3
ObjectDBX Classes
 90
        0
 91
        1
280
     0
281
     0
  0
CLASS
  1
DIMASSOC
  2
AcDbDimAssoc
  3
"AcDbDimAssoc|Product Desc:     AcDim ARX App For Dimension|Company:          Autodesk, Inc.|WEB Address:      www.autodesk.com"
 90
        0
 91
        9
280
     0
281
     0
  0
ENDSEC
  0
SECTION
  2
TABLES
  0
TABLE
  2
VPORT
  5
8
330
0
100
AcDbSymbolTable
 70
     1
  0
VPORT
  5
EB
330
8
100
AcDbSymbolTableRecord
100
AcDbViewportTableRecord
  2
*Active
 70
     0
 10
0.0
 20
0.0
 11
1.0
 21
1.0
 12
1087.818939824271
 22
645.3354920666481
 13
0.0
 23
0.0
 14
10.0
 24
10.0
 15
10.0
 25
10.0
 16
0.0
 26
0.0
 36
1.0
 17
0.0
 27
0.0
 37
0.0
 40
889.5964193319246
 41
2.321969696969696
 42
50.0
 43
0.0
 44
0.0
 50
0.0
 51
0.0
 71
     0
 72
  1000
 73
     1
 74
     3
 75
     0
 76
     0
 77
     0
 78
     0
281
     0
 65
     1
110
0.0
120
0.0
130
0.0
111
1.0
121
0.0
131
0.0
112
0.0
122
1.0
132
0.0
 79
     0
146
0.0
348
F6
 60
     2
 61
     5
292
     1
282
     1
141
0.0
142
0.0
 63
   250
421
  3355443
  0
ENDTAB
  0
TABLE
  2
LTYPE
  5
5
330
0
100
AcDbSymbolTable
 70
     3
  0
LTYPE
  5
14
330
5
100
AcDbSymbolTableRecord
100
AcDbLinetypeTableRecord
  2
ByBlock
 70
     0
  3

 72
    65
 73
     0
 40
0.0
  0
LTYPE
  5
15
330
5
100
AcDbSymbolTableRecord
100
AcDbLinetypeTableRecord
  2
ByLayer
 70
     0
  3

 72
    65
 73
     0
 40
0.0
  0
LTYPE
  5
16
330
5
100
AcDbSymbolTableRecord
100
AcDbLinetypeTableRecord
  2
Continuous
 70
     0
  3
Solid line
 72
    65
 73
     0
 40
0.0
  0
LTYPE
  5
12A
330
5
100
AcDbSymbolTableRecord
100
AcDbLinetypeTableRecord
  2
ACAD_ISO04W100
 70
     0
  3
ISO long-dash dot ____ . ____ . ____ . ____ . _
 72
    65
 73
     4
 40
30.0
 49
24.0
 74
     0
 49
-3.0
 74
     0
 49
0.0
 74
     0
 49
-3.0
 74
     0
  0
LTYPE
  5
12B
330
5
100
AcDbSymbolTableRecord
100
AcDbLinetypeTableRecord
  2
ACAD_ISO02W100
 70
     0
  3
ISO dash __ __ __ __ __ __ __ __ __ __ __ __ __
 72
    65
 73
     2
 40
15.0
 49
12.0
 74
     0
 49
-3.0
 74
     0
  0
ENDTAB
  0
TABLE
  2
LAYER
  5
2
102
{ACAD_XDICTIONARY
360
12C
102
}
330
0
100
AcDbSymbolTable
 70
     6
  0
LAYER
  5
10
330
2
100
AcDbSymbolTableRecord
100
AcDbLayerTableRecord
  2
0
 70
     0
 62
     7
  6
Continuous
370
    -3
390
F
347
EF
  0
LAYER
  5
123
330
2
100
AcDbSymbolTableRecord
100
AcDbLayerTableRecord
  2
con
 70
     0
 62
     7
  6
Continuous
370
    30
390
F
347
EF
1001
AcAecLayerStandard
1000

1000

  0
LAYER
  5
125
330
2
100
AcDbSymbolTableRecord
100
AcDbLayerTableRecord
  2
center
 70
     0
 62
     1
  6
ACAD_ISO04W100
370
    -3
390
F
347
EF
1001
AcAecLayerStandard
1000

1000

  0
LAYER
  5
126
330
2
100
AcDbSymbolTableRecord
100
AcDbLayerTableRecord
  2
dim
 70
     0
 62
     7
  6
Continuous
370
    -3
390
F
347
EF
1001
AcAecLayerStandard
1000

1000

  0
LAYER
  5
127
330
2
100
AcDbSymbolTableRecord
100
AcDbLayerTableRecord
  2
dash
 70
     0
 62
     7
  6
ACAD_ISO02W100
370
    -3
390
F
347
EF
1001
AcAecLayerStandard
1000

1000

  0
LAYER
  5
17D
330
2
100
AcDbSymbolTableRecord
100
AcDbLayerTableRecord
  2
Defpoints
 70
     0
 62
     7
  6
Continuous
290
     0
370
    -3
390
F
347
EF
  0
ENDTAB
  0
TABLE
  2
STYLE
  5
3
330
0
100
AcDbSymbolTable
 70
     2
  0
STYLE
  5
11
330
3
100
AcDbSymbolTableRecord
100
AcDbTextStyleTableRecord
  2
Standard
 70
     0
 40
0.0
 41
1.0
 50
0.0
 71
     0
 42
2.5
  3
txt
  4
gbcbig.shx
  0
STYLE
  5
129
330
3
100
AcDbSymbolTableRecord
100
AcDbTextStyleTableRecord
  2

 70
     1
 40
0.0
 41
1.0
 50
0.0
 71
     0
 42
2.5
  3
ltypeshp.shx
  4

  0
ENDTAB
  0
TABLE
  2
VIEW
  5
6
330
0
100
AcDbSymbolTable
 70
     0
  0
ENDTAB
  0
TABLE
  2
UCS
  5
7
330
0
100
AcDbSymbolTable
 70
     0
  0
ENDTAB
  0
TABLE
  2
APPID
  5
9
330
0
100
AcDbSymbolTable
 70
     4
  0
APPID
  5
12
330
9
100
AcDbSymbolTableRecord
100
AcDbRegAppTableRecord
  2
ACAD
 70
     0
  0
APPID
  5
9E
330
9
100
AcDbSymbolTableRecord
100
AcDbRegAppTableRecord
  2
ACAD_PSEXT
 70
     0
  0
APPID
  5
124
330
9
100
AcDbSymbolTableRecord
100
AcDbRegAppTableRecord
  2
AcAecLayerStandard
 70
     0
  0
APPID
  5
130
330
9
100
AcDbSymbolTableRecord
100
AcDbRegAppTableRecord
  2
ACAD_EXEMPT_FROM_CAD_STANDARDS
 70
     0
  0
ENDTAB
  0
TABLE
  2
DIMSTYLE
  5
A
330
0
100
AcDbSymbolTable
 70
     1
100
AcDbDimStyleTable
 71
     1
340
27
  0
DIMSTYLE
105
27
102
{ACAD_REACTORS
330
17C
330
1BF
330
1E3
330
1FD
330
22B
330
24F
330
269
330
2DC
330
300
330
32E
102
}
330
A
100
AcDbSymbolTableRecord
100
AcDbDimStyleTableRecord
  2
ISO-25
 70
     0
 41
20.0
 42
0.625
 43
3.75
 44
1.25
 73
     0
 74
     0
 78
     8
140
20.0
141
2.5
143
0.03937007874016
147
0.625
171
     3
172
     1
271
     2
272
     2
274
     3
278
    44
283
     0
284
     8
340
11
  0
ENDTAB
  0
TABLE
  2
BLOCK_RECORD
  5
1
330
0
100
AcDbSymbolTable
 70
    12
  0
BLOCK_RECORD
  5
1F
102
{ACAD_XDICTIONARY
360
14E
102
}
330
1
100
AcDbSymbolTableRecord
100
AcDbBlockTableRecord
  2
*Model_Space
340
22
 70
     0
280
     1
281
     0
  0
BLOCK_RECORD
  5
D2
330
1
100
AcDbSymbolTableRecord
100
AcDbBlockTableRecord
  2
*Paper_Space
340
D3
 70
     0
280
     1
281
     0
  0
BLOCK_RECORD
  5
D6
330
1
100
AcDbSymbolTableRecord
100
AcDbBlockTableRecord
  2
*Paper_Space0
340
D7
 70
     0
280
     1
281
     0
  0
BLOCK_RECORD
  5
17E
330
1
100
AcDbSymbolTableRecord
100
AcDbBlockTableRecord
  2
*D1
340
0
 70
     0
280
     1
281
     0
  0
BLOCK_RECORD
  5
1C0
330
1
100
AcDbSymbolTableRecord
100
AcDbBlockTableRecord
  2
*D2
340
0
 70
     0
280
     1
281
     0
  0
BLOCK_RECORD
  5
1E4
330
1
100
AcDbSymbolTableRecord
100
AcDbBlockTableRecord
  2
*D3
340
0
 70
     0
280
     1
281
     0
  0
BLOCK_RECORD
  5
1FE
330
1
100
AcDbSymbolTableRecord
100
AcDbBlockTableRecord
  2
*D4
340
0
 70
     0
280
     1
281
     0
  0
BLOCK_RECORD
  5
22C
330
1
100
AcDbSymbolTableRecord
100
AcDbBlockTableRecord
  2
*D5
340
0
 70
     0
280
     1
281
     0
  0
BLOCK_RECORD
  5
250
330
1
100
AcDbSymbolTableRecord
100
AcDbBlockTableRecord
  2
*D6
340
0
 70
     0
280
     1
281
     0
  0
BLOCK_RECORD
  5
26A
330
1
100
AcDbSymbolTableRecord
100
AcDbBlockTableRecord
  2
*D7
340
0
 70
     0
280
     1
281
     0
  0
BLOCK_RECORD
  5
2DD
330
1
100
AcDbSymbolTableRecord
100
AcDbBlockTableRecord
  2
*D9
340
0
 70
     0
280
     1
281
     0
  0
BLOCK_RECORD
  5
301
330
1
100
AcDbSymbolTableRecord
100
AcDbBlockTableRecord
  2
*D10
340
0
 70
     0
280
     1
281
     0
  0
BLOCK_RECORD
  5
32F
330
1
100
AcDbSymbolTableRecord
100
AcDbBlockTableRecord
  2
*D11
340
0
 70
     0
280
     1
281
     0
  0
ENDTAB
  0
ENDSEC
  0
SECTION
  2
BLOCKS
  0
BLOCK
  5
20
330
1F
100
AcDbEntity
  8
0
100
AcDbBlockBegin
  2
*Model_Space
 70
     0
 10
0.0
 20
0.0
 30
0.0
  3
*Model_Space
  1

  0
ENDBLK
  5
21
330
1F
100
AcDbEntity
  8
0
100
AcDbBlockEnd
  0
BLOCK
  5
D4
330
D2
100
AcDbEntity
 67
     1
  8
0
100
AcDbBlockBegin
  2
*Paper_Space
 70
     0
 10
0.0
 20
0.0
 30
0.0
  3
*Paper_Space
  1

  0
ENDBLK
  5
D5
330
D2
100
AcDbEntity
 67
     1
  8
0
100
AcDbBlockEnd
  0
BLOCK
  5
D8
330
D6
100
AcDbEntity
 67
     1
  8
0
100
AcDbBlockBegin
  2
*Paper_Space0
 70
     0
 10
0.0
 20
0.0
 30
0.0
  3
*Paper_Space0
  1

  0
ENDBLK
  5
D9
330
D6
100
AcDbEntity
 67
     1
  8
0
100
AcDbBlockEnd
  0
BLOCK
  5
189
330
17E
100
AcDbEntity
  8
0
100
AcDbBlockBegin
  2
*D1
 70
     1
 10
0.0
 20
0.0
 30
0.0
  3
*D1
  1

  0
LINE
  5
368
330
17E
100
AcDbEntity
  8
dim
 62
     0
370
    -2
100
AcDbLine
 10
1041.887204224846
 20
1037.489166248055
 30
0.0
 11
572.2649743633076
 21
1037.489166248055
 31
0.0
  0
LINE
  5
369
330
17E
100
AcDbEntity
  8
dim
 62
     0
370
    -2
100
AcDbLine
 10
1041.887204224846
 20
602.4891662480554
 30
0.0
 11
572.2649743633074
 21
602.4891662480555
 31
0.0
  0
LINE
  5
36A
330
17E
100
AcDbEntity
  8
dim
 62
     0
370
    -2
100
AcDbLine
 10
573.5149743633075
 20
1017.489166248055
 30
0.0
 11
573.5149743633075
 21
877.2808329147222
 31
0.0
  0
LINE
  5
36B
330
17E
100
AcDbEntity
  8
dim
 62
     0
370
    -2
100
AcDbLine
 10
573.5149743633074
 20
622.4891662480555
 30
0.0
 11
573.5149743633074
 21
762.6974995813888
 31
0.0
  0
SOLID
  5
36C
330
17E
100
AcDbEntity
  8
dim
 62
     0
100
AcDbTrace
 10
570.1816410299742
 20
1017.489166248055
 30
0.0
 11
576.8483076966409
 21
1017.489166248055
 31
0.0
 12
573.5149743633075
 22
1037.489166248055
 32
0.0
 13
573.5149743633075
 23
1037.489166248055
 33
0.0
  0
SOLID
  5
36D
330
17E
100
AcDbEntity
  8
dim
 62
     0
100
AcDbTrace
 10
570.181641029974
 20
622.4891662480555
 30
0.0
 11
576.8483076966409
 21
622.4891662480555
 31
0.0
 12
573.5149743633074
 22
602.4891662480555
 32
0.0
 13
573.5149743633074
 23
602.4891662480555
 33
0.0
  0
MTEXT
  5
36E
330
17E
100
AcDbEntity
  8
dim
 62
     0
100
AcDbMText
 10
573.5149743633074
 20
819.9891662480556
 30
0.0
 40
20.0
 41
0.0
 46
0.0
 71
     5
 72
     1
  1
17-1/8"
 11
0.0000000000000001
 21
1.0
 31
0.0
 73
     1
 44
1.0
  0
POINT
  5
36F
330
17E
100
AcDbEntity
  8
Defpoints
 62
     0
100
AcDbPoint
 10
1042.512204224846
 20
1037.489166248055
 30
0.0
  0
POINT
  5
370
330
17E
100
AcDbEntity
  8
Defpoints
 62
     0
100
AcDbPoint
 10
1042.512204224846
 20
602.4891662480554
 30
0.0
  0
POINT
  5
371
330
17E
100
AcDbEntity
  8
Defpoints
 62
     0
100
AcDbPoint
 10
573.5149743633074
 20
602.4891662480555
 30
0.0
  0
ENDBLK
  5
18A
330
17E
100
AcDbEntity
  8
0
100
AcDbBlockEnd
  0
BLOCK
  5
1CB
330
1C0
100
AcDbEntity
  8
0
100
AcDbBlockBegin
  2
*D2
 70
     1
 10
0.0
 20
0.0
 30
0.0
  3
*D2
  1

  0
LINE
  5
39E
330
1C0
100
AcDbEntity
  8
dim
 62
     0
370
    -2
100
AcDbLine
 10
1041.887204224846
 20
917.4891662480554
 30
0.0
 11
680.299621570731
 21
917.4891662480556
 31
0.0
  0
LINE
  5
39F
330
1C0
100
AcDbEntity
  8
dim
 62
     0
370
    -2
100
AcDbLine
 10
1041.887204224846
 20
642.4891662480555
 30
0.0
 11
680.2996215707309
 21
642.4891662480556
 31
0.0
  0
LINE
  5
3A0
330
1C0
100
AcDbEntity
  8
dim
 62
     0
370
    -2
100
AcDbLine
 10
681.549621570731
 20
897.4891662480555
 30
0.0
 11
681.549621570731
 21
838.9474995813889
 31
0.0
  0
LINE
  5
3A1
330
1C0
100
AcDbEntity
  8
dim
 62
     0
370
    -2
100
AcDbLine
 10
681.5496215707309
 20
662.4891662480556
 30
0.0
 11
681.5496215707309
 21
721.0308329147221
 31
0.0
  0
SOLID
  5
3A2
330
1C0
100
AcDbEntity
  8
dim
 62
     0
100
AcDbTrace
 10
678.2162882373976
 20
897.4891662480555
 30
0.0
 11
684.8829549040644
 21
897.4891662480555
 31
0.0
 12
681.549621570731
 22
917.4891662480556
 32
0.0
 13
681.549621570731
 23
917.4891662480556
 33
0.0
  0
SOLID
  5
3A3
330
1C0
100
AcDbEntity
  8
dim
 62
     0
100
AcDbTrace
 10
678.2162882373975
 20
662.4891662480556
 30
0.0
 11
684.8829549040642
 21
662.4891662480556
 31
0.0
 12
681.5496215707309
 22
642.4891662480556
 32
0.0
 13
681.5496215707309
 23
642.4891662480556
 33
0.0
  0
MTEXT
  5
3A4
330
1C0
100
AcDbEntity
  8
dim
 62
     0
100
AcDbMText
 10
681.5496215707307
 20
779.9891662480556
 30
0.0
 40
20.0
 41
0.0
 46
0.0
 71
     5
 72
     1
  1
10-7/8"
 11
0.0000000000000001
 21
1.0
 31
0.0
 73
     1
 44
1.0
  0
POINT
  5
3A5
330
1C0
100
AcDbEntity
  8
Defpoints
 62
     0
100
AcDbPoint
 10
1042.512204224846
 20
917.4891662480554
 30
0.0
  0
POINT
  5
3A6
330
1C0
100
AcDbEntity
  8
Defpoints
 62
     0
100
AcDbPoint
 10
1042.512204224846
 20
642.4891662480555
 30
0.0
  0
POINT
  5
3A7
330
1C0
100
AcDbEntity
  8
Defpoints
 62
     0
100
AcDbPoint
 10
681.5496215707309
 20
642.4891662480556
 30
0.0
  0
ENDBLK
  5
1CC
330
1C0
100
AcDbEntity
  8
0
100
AcDbBlockEnd
  0
BLOCK
  5
1EF
330
1E4
100
AcDbEntity
  8
0
100
AcDbBlockBegin
  2
*D3
 70
     1
 10
0.0
 20
0.0
 30
0.0
  3
*D3
  1

  0
LINE
  5
354
330
1E4
100
AcDbEntity
  8
dim
 62
     0
370
    -2
100
AcDbLine
 10
737.5122042248458
 20
601.8641662480554
 30
0.0
 11
737.5122042248458
 21
513.2266535068297
 31
0.0
  0
LINE
  5
355
330
1E4
100
AcDbEntity
  8
dim
 62
     0
370
    -2
100
AcDbLine
 10
1347.512204224846
 20
601.8641662480554
 30
0.0
 11
1347.512204224846
 21
513.2266535068297
 31
0.0
  0
LINE
  5
356
330
1E4
100
AcDbEntity
  8
dim
 62
     0
370
    -2
100
AcDbLine
 10
757.5122042248458
 20
514.4766535068297
 30
0.0
 11
1018.553870891512
 21
514.4766535068297
 31
0.0
  0
LINE
  5
357
330
1E4
100
AcDbEntity
  8
dim
 62
     0
370
    -2
100
AcDbLine
 10
1327.512204224846
 20
514.4766535068297
 30
0.0
 11
1066.470537558179
 21
514.4766535068297
 31
0.0
  0
SOLID
  5
358
330
1E4
100
AcDbEntity
  8
dim
 62
     0
100
AcDbTrace
 10
757.5122042248458
 20
517.8099868401631
 30
0.0
 11
757.5122042248458
 21
511.1433201734964
 31
0.0
 12
737.5122042248458
 22
514.4766535068297
 32
0.0
 13
737.5122042248458
 23
514.4766535068297
 33
0.0
  0
SOLID
  5
359
330
1E4
100
AcDbEntity
  8
dim
 62
     0
100
AcDbTrace
 10
1327.512204224846
 20
517.8099868401631
 30
0.0
 11
1327.512204224846
 21
511.1433201734964
 31
0.0
 12
1347.512204224846
 22
514.4766535068297
 32
0.0
 13
1347.512204224846
 23
514.4766535068297
 33
0.0
  0
MTEXT
  5
35A
330
1E4
100
AcDbEntity
  8
dim
 62
     0
100
AcDbMText
 10
1042.512204224846
 20
514.4766535068297
 30
0.0
 40
20.0
 41
0.0
 46
0.0
 71
     5
 72
     1
  1
24"
 73
     1
 44
1.0
  0
POINT
  5
35B
330
1E4
100
AcDbEntity
  8
Defpoints
 62
     0
100
AcDbPoint
 10
737.5122042248458
 20
602.4891662480554
 30
0.0
  0
POINT
  5
35C
330
1E4
100
AcDbEntity
  8
Defpoints
 62
     0
100
AcDbPoint
 10
1347.512204224846
 20
602.4891662480554
 30
0.0
  0
POINT
  5
35D
330
1E4
100
AcDbEntity
  8
Defpoints
 62
     0
100
AcDbPoint
 10
1347.512204224846
 20
514.4766535068297
 30
0.0
  0
ENDBLK
  5
1F0
330
1E4
100
AcDbEntity
  8
0
100
AcDbBlockEnd
  0
BLOCK
  5
209
330
1FE
100
AcDbEntity
  8
0
100
AcDbBlockBegin
  2
*D4
 70
     1
 10
0.0
 20
0.0
 30
0.0
  3
*D4
  1

  0
LINE
  5
35E
330
1FE
100
AcDbEntity
  8
dim
 62
     0
370
    -2
100
AcDbLine
 10
777.5122042248459
 20
641.8641662480556
 30
0.0
 11
777.5122042248459
 21
562.8199274821112
 31
0.0
  0
LINE
  5
35F
330
1FE
100
AcDbEntity
  8
dim
 62
     0
370
    -2
100
AcDbLine
 10
1307.512204224846
 20
641.8641662480555
 30
0.0
 11
1307.512204224846
 21
562.8199274821112
 31
0.0
  0
LINE
  5
360
330
1FE
100
AcDbEntity
  8
dim
 62
     0
370
    -2
100
AcDbLine
 10
797.5122042248459
 20
564.0699274821113
 30
0.0
 11
980.2205375581793
 21
564.0699274821113
 31
0.0
  0
LINE
  5
361
330
1FE
100
AcDbEntity
  8
dim
 62
     0
370
    -2
100
AcDbLine
 10
1287.512204224846
 20
564.0699274821113
 30
0.0
 11
1104.803870891513
 21
564.0699274821113
 31
0.0
  0
SOLID
  5
362
330
1FE
100
AcDbEntity
  8
dim
 62
     0
100
AcDbTrace
 10
797.5122042248459
 20
567.4032608154447
 30
0.0
 11
797.5122042248459
 21
560.7365941487779
 31
0.0
 12
777.5122042248459
 22
564.0699274821113
 32
0.0
 13
777.5122042248459
 23
564.0699274821113
 33
0.0
  0
SOLID
  5
363
330
1FE
100
AcDbEntity
  8
dim
 62
     0
100
AcDbTrace
 10
1287.512204224846
 20
567.4032608154447
 30
0.0
 11
1287.512204224846
 21
560.7365941487779
 31
0.0
 12
1307.512204224846
 22
564.0699274821113
 32
0.0
 13
1307.512204224846
 23
564.0699274821113
 33
0.0
  0
MTEXT
  5
364
330
1FE
100
AcDbEntity
  8
dim
 62
     0
100
AcDbMText
 10
1042.512204224846
 20
564.0699274821113
 30
0.0
 40
20.0
 41
0.0
 46
0.0
 71
     5
 72
     1
  1
20-7/8"
 73
     1
 44
1.0
  0
POINT
  5
365
330
1FE
100
AcDbEntity
  8
Defpoints
 62
     0
100
AcDbPoint
 10
777.5122042248459
 20
642.4891662480556
 30
0.0
  0
POINT
  5
366
330
1FE
100
AcDbEntity
  8
Defpoints
 62
     0
100
AcDbPoint
 10
1307.512204224846
 20
642.4891662480555
 30
0.0
  0
POINT
  5
367
330
1FE
100
AcDbEntity
  8
Defpoints
 62
     0
100
AcDbPoint
 10
1307.512204224846
 20
564.0699274821113
 30
0.0
  0
ENDBLK
  5
20A
330
1FE
100
AcDbEntity
  8
0
100
AcDbBlockEnd
  0
BLOCK
  5
237
330
22C
100
AcDbEntity
  8
0
100
AcDbBlockBegin
  2
*D5
 70
     1
 10
0.0
 20
0.0
 30
0.0
  3
*D5
  1

  0
LINE
  5
392
330
22C
100
AcDbEntity
  8
dim
 62
     0
370
    -2
100
AcDbLine
 10
736.8872042248458
 20
1037.489166248055
 30
0.0
 11
636.228106055447
 21
1037.489166248055
 31
0.0
  0
LINE
  5
393
330
22C
100
AcDbEntity
  8
dim
 62
     0
370
    -2
100
AcDbLine
 10
736.8872042248458
 20
917.4891662480556
 30
0.0
 11
636.228106055447
 21
917.4891662480556
 31
0.0
  0
LINE
  5
394
330
22C
100
AcDbEntity
  8
dim
 62
     0
370
    -2
100
AcDbLine
 10
637.478106055447
 20
1057.489166248055
 30
0.0
 11
637.478106055447
 21
1077.489166248055
 31
0.0
  0
LINE
  5
395
330
22C
100
AcDbEntity
  8
dim
 62
     0
370
    -2
100
AcDbLine
 10
637.478106055447
 20
897.4891662480555
 30
0.0
 11
637.478106055447
 21
877.4891662480555
 31
0.0
  0
LINE
  5
396
330
22C
100
AcDbEntity
  8
dim
 62
     0
370
    -2
100
AcDbLine
 10
637.478106055447
 20
1037.489166248055
 30
0.0
 11
637.478106055447
 21
1031.447499581388
 31
0.0
  0
LINE
  5
397
330
22C
100
AcDbEntity
  8
dim
 62
     0
370
    -2
100
AcDbLine
 10
637.478106055447
 20
917.4891662480556
 30
0.0
 11
637.478106055447
 21
923.5308329147221
 31
0.0
  0
SOLID
  5
398
330
22C
100
AcDbEntity
  8
dim
 62
     0
100
AcDbTrace
 10
634.1447727221137
 20
1057.489166248055
 30
0.0
 11
640.8114393887804
 21
1057.489166248055
 31
0.0
 12
637.478106055447
 22
1037.489166248055
 32
0.0
 13
637.478106055447
 23
1037.489166248055
 33
0.0
  0
SOLID
  5
399
330
22C
100
AcDbEntity
  8
dim
 62
     0
100
AcDbTrace
 10
634.1447727221137
 20
897.4891662480555
 30
0.0
 11
640.8114393887804
 21
897.4891662480555
 31
0.0
 12
637.478106055447
 22
917.4891662480556
 32
0.0
 13
637.478106055447
 23
917.4891662480556
 33
0.0
  0
MTEXT
  5
39A
330
22C
100
AcDbEntity
  8
dim
 62
     0
100
AcDbMText
 10
637.4781060554469
 20
977.4891662480555
 30
0.0
 40
20.0
 41
0.0
 46
0.0
 71
     5
 72
     1
  1
4-3/4"
 11
0.0000000000000001
 21
1.0
 31
0.0
 73
     1
 44
1.0
  0
POINT
  5
39B
330
22C
100
AcDbEntity
  8
Defpoints
 62
     0
100
AcDbPoint
 10
737.5122042248458
 20
1037.489166248055
 30
0.0
  0
POINT
  5
39C
330
22C
100
AcDbEntity
  8
Defpoints
 62
     0
100
AcDbPoint
 10
737.5122042248458
 20
917.4891662480556
 30
0.0
  0
POINT
  5
39D
330
22C
100
AcDbEntity
  8
Defpoints
 62
     0
100
AcDbPoint
 10
637.478106055447
 20
917.4891662480556
 30
0.0
  0
ENDBLK
  5
238
330
22C
100
AcDbEntity
  8
0
100
AcDbBlockEnd
  0
BLOCK
  5
25B
330
250
100
AcDbEntity
  8
0
100
AcDbBlockBegin
  2
*D6
 70
     1
 10
0.0
 20
0.0
 30
0.0
  3
*D6
  1

  0
LINE
  5
3A8
330
250
100
AcDbEntity
  8
dim
 62
     0
370
    -2
100
AcDbLine
 10
1041.887204224846
 20
448.4422087778479
 30
0.0
 11
567.3023931838979
 21
448.4422087778481
 31
0.0
  0
LINE
  5
3A9
330
250
100
AcDbEntity
  8
dim
 62
     0
370
    -2
100
AcDbLine
 10
1041.887204224846
 20
258.442208777848
 30
0.0
 11
567.3023931838979
 21
258.4422087778481
 31
0.0
  0
LINE
  5
3AA
330
250
100
AcDbEntity
  8
dim
 62
     0
370
    -2
100
AcDbLine
 10
568.5523931838979
 20
428.4422087778481
 30
0.0
 11
568.5523931838979
 21
404.0672087778481
 31
0.0
  0
LINE
  5
3AB
330
250
100
AcDbEntity
  8
dim
 62
     0
370
    -2
100
AcDbLine
 10
568.5523931838979
 20
278.4422087778481
 30
0.0
 11
568.5523931838979
 21
302.8172087778481
 31
0.0
  0
SOLID
  5
3AC
330
250
100
AcDbEntity
  8
dim
 62
     0
100
AcDbTrace
 10
565.2190598505645
 20
428.4422087778481
 30
0.0
 11
571.8857265172313
 21
428.4422087778481
 31
0.0
 12
568.5523931838979
 22
448.4422087778481
 32
0.0
 13
568.5523931838979
 23
448.4422087778481
 33
0.0
  0
SOLID
  5
3AD
330
250
100
AcDbEntity
  8
dim
 62
     0
100
AcDbTrace
 10
565.2190598505645
 20
278.4422087778481
 30
0.0
 11
571.8857265172313
 21
278.4422087778481
 31
0.0
 12
568.5523931838979
 22
258.4422087778481
 32
0.0
 13
568.5523931838979
 23
258.4422087778481
 33
0.0
  0
MTEXT
  5
3AE
330
250
100
AcDbEntity
  8
dim
 62
     0
100
AcDbMText
 10
568.5523931838978
 20
353.4422087778482
 30
0.0
 40
20.0
 41
0.0
 46
0.0
 71
     5
 72
     1
  1
7-1/2"
 11
0.0000000000000001
 21
1.0
 31
0.0
 73
     1
 44
1.0
  0
POINT
  5
3AF
330
250
100
AcDbEntity
  8
Defpoints
 62
     0
100
AcDbPoint
 10
1042.512204224846
 20
448.4422087778479
 30
0.0
  0
POINT
  5
3B0
330
250
100
AcDbEntity
  8
Defpoints
 62
     0
100
AcDbPoint
 10
1042.512204224846
 20
258.442208777848
 30
0.0
  0
POINT
  5
3B1
330
250
100
AcDbEntity
  8
Defpoints
 62
     0
100
AcDbPoint
 10
568.5523931838979
 20
258.4422087778481
 30
0.0
  0
ENDBLK
  5
25C
330
250
100
AcDbEntity
  8
0
100
AcDbBlockEnd
  0
BLOCK
  5
275
330
26A
100
AcDbEntity
  8
0
100
AcDbBlockBegin
  2
*D7
 70
     1
 10
0.0
 20
0.0
 30
0.0
  3
*D7
  1

  0
LINE
  5
3BE
330
26A
100
AcDbEntity
  8
dim
 62
     0
370
    -2
100
AcDbLine
 10
1041.887204224846
 20
448.4422087778479
 30
0.0
 11
668.2082183089951
 21
448.442208777848
 31
0.0
  0
LINE
  5
3BF
330
26A
100
AcDbEntity
  8
dim
 62
     0
370
    -2
100
AcDbLine
 10
1041.887204224846
 20
348.442208777848
 30
0.0
 11
668.2082183089951
 21
348.4422087778481
 31
0.0
  0
LINE
  5
3C0
330
26A
100
AcDbEntity
  8
dim
 62
     0
370
    -2
100
AcDbLine
 10
669.4582183089951
 20
428.442208777848
 30
0.0
 11
669.4582183089951
 21
412.4005421111814
 31
0.0
  0
LINE
  5
3C1
330
26A
100
AcDbEntity
  8
dim
 62
     0
370
    -2
100
AcDbLine
 10
669.4582183089951
 20
368.4422087778481
 30
0.0
 11
669.4582183089951
 21
384.4838754445147
 31
0.0
  0
SOLID
  5
3C2
330
26A
100
AcDbEntity
  8
dim
 62
     0
100
AcDbTrace
 10
666.1248849756617
 20
428.442208777848
 30
0.0
 11
672.7915516423284
 21
428.442208777848
 31
0.0
 12
669.4582183089951
 22
448.442208777848
 32
0.0
 13
669.4582183089951
 23
448.442208777848
 33
0.0
  0
SOLID
  5
3C3
330
26A
100
AcDbEntity
  8
dim
 62
     0
100
AcDbTrace
 10
666.1248849756617
 20
368.4422087778481
 30
0.0
 11
672.7915516423284
 21
368.4422087778481
 31
0.0
 12
669.4582183089951
 22
348.4422087778481
 32
0.0
 13
669.4582183089951
 23
348.4422087778481
 33
0.0
  0
MTEXT
  5
3C4
330
26A
100
AcDbEntity
  8
dim
 62
     0
100
AcDbMText
 10
669.4582183089949
 20
398.4422087778482
 30
0.0
 40
20.0
 41
0.0
 46
0.0
 71
     5
 72
     1
  1
4"
 11
0.0000000000000001
 21
1.0
 31
0.0
 73
     1
 44
1.0
  0
POINT
  5
3C5
330
26A
100
AcDbEntity
  8
Defpoints
 62
     0
100
AcDbPoint
 10
1042.512204224846
 20
448.4422087778479
 30
0.0
  0
POINT
  5
3C6
330
26A
100
AcDbEntity
  8
Defpoints
 62
     0
100
AcDbPoint
 10
1042.512204224846
 20
348.442208777848
 30
0.0
  0
POINT
  5
3C7
330
26A
100
AcDbEntity
  8
Defpoints
 62
     0
100
AcDbPoint
 10
669.4582183089951
 20
348.4422087778481
 30
0.0
  0
ENDBLK
  5
276
330
26A
100
AcDbEntity
  8
0
100
AcDbBlockEnd
  0
BLOCK
  5
2E8
330
2DD
100
AcDbEntity
  8
0
100
AcDbBlockBegin
  2
*D9
 70
     1
 10
0.0
 20
0.0
 30
0.0
  3
*D9
  1

  0
LINE
  5
3B2
330
2DD
100
AcDbEntity
  8
dim
 62
     0
370
    -2
100
AcDbLine
 10
1041.262204224846
 20
448.4422087778479
 30
0.0
 11
622.0138674533837
 21
448.4422087778481
 31
0.0
  0
LINE
  5
3B3
330
2DD
100
AcDbEntity
  8
dim
 62
     0
370
    -2
100
AcDbLine
 10
1041.887204224846
 20
303.4422087778481
 30
0.0
 11
622.0138674533837
 21
303.4422087778482
 31
0.0
  0
LINE
  5
3B4
330
2DD
100
AcDbEntity
  8
dim
 62
     0
370
    -2
100
AcDbLine
 10
623.2638674533837
 20
468.4422087778481
 30
0.0
 11
623.2638674533837
 21
488.4422087778481
 31
0.0
  0
LINE
  5
3B5
330
2DD
100
AcDbEntity
  8
dim
 62
     0
370
    -2
100
AcDbLine
 10
623.2638674533837
 20
283.4422087778482
 30
0.0
 11
623.2638674533837
 21
263.4422087778482
 31
0.0
  0
LINE
  5
3B6
330
2DD
100
AcDbEntity
  8
dim
 62
     0
370
    -2
100
AcDbLine
 10
623.2638674533837
 20
448.4422087778481
 30
0.0
 11
623.2638674533837
 21
429.9005421111814
 31
0.0
  0
LINE
  5
3B7
330
2DD
100
AcDbEntity
  8
dim
 62
     0
370
    -2
100
AcDbLine
 10
623.2638674533837
 20
303.4422087778482
 30
0.0
 11
623.2638674533837
 21
321.9838754445149
 31
0.0
  0
SOLID
  5
3B8
330
2DD
100
AcDbEntity
  8
dim
 62
     0
100
AcDbTrace
 10
619.9305341200503
 20
468.4422087778481
 30
0.0
 11
626.597200786717
 21
468.4422087778481
 31
0.0
 12
623.2638674533837
 22
448.4422087778481
 32
0.0
 13
623.2638674533837
 23
448.4422087778481
 33
0.0
  0
SOLID
  5
3B9
330
2DD
100
AcDbEntity
  8
dim
 62
     0
100
AcDbTrace
 10
619.9305341200503
 20
283.4422087778482
 30
0.0
 11
626.597200786717
 21
283.4422087778482
 31
0.0
 12
623.2638674533837
 22
303.4422087778482
 32
0.0
 13
623.2638674533837
 23
303.4422087778482
 33
0.0
  0
MTEXT
  5
3BA
330
2DD
100
AcDbEntity
  8
dim
 62
     0
100
AcDbMText
 10
623.2638674533835
 20
375.9422087778482
 30
0.0
 40
20.0
 41
0.0
 46
0.0
 71
     5
 72
     1
  1
5-3/4"
 11
0.0000000000000001
 21
1.0
 31
0.0
 73
     1
 44
1.0
  0
POINT
  5
3BB
330
2DD
100
AcDbEntity
  8
Defpoints
 62
     0
100
AcDbPoint
 10
1041.887204224846
 20
448.4422087778479
 30
0.0
  0
POINT
  5
3BC
330
2DD
100
AcDbEntity
  8
Defpoints
 62
     0
100
AcDbPoint
 10
1042.512204224846
 20
303.4422087778481
 30
0.0
  0
POINT
  5
3BD
330
2DD
100
AcDbEntity
  8
Defpoints
 62
     0
100
AcDbPoint
 10
623.2638674533837
 20
303.4422087778482
 30
0.0
  0
ENDBLK
  5
2E9
330
2DD
100
AcDbEntity
  8
0
100
AcDbBlockEnd
  0
BLOCK
  5
30A
330
301
100
AcDbEntity
  8
0
100
AcDbBlockBegin
  2
*D10
 70
     1
 10
0.0
 20
0.0
 30
0.0
  3
*D10
  1

  0
LINE
  5
326
330
301
100
AcDbEntity
  8
dim
 62
     0
370
    -2
100
AcDbLine
 10
981.0134365393599
 20
863.3734089803697
 30
0.0
 11
1001.013035786672
 21
863.2467995537993
 31
0.0
  0
LINE
  5
327
330
301
100
AcDbEntity
  8
dim
 62
     0
370
    -2
100
AcDbLine
 10
1084.011372663019
 20
862.7213704335325
 30
0.0
 11
1104.010971910332
 21
862.5947610069623
 31
0.0
  0
MTEXT
  5
328
330
301
100
AcDbEntity
  8
dim
 62
     0
100
AcDbMText
 10
936.0559107332088
 20
863.6580170113582
 30
0.0
 40
20.0
 41
0.0
 46
0.0
 71
     5
 72
     1
  1
{\H1.4x;%%C1\H0.7x;\S11/16;\H1.4286x;"}
 11
0.999979962365626
 21
-0.006330471328516
 31
0.0
 73
     1
 44
1.0
  0
LINE
  5
329
330
301
100
AcDbEntity
  8
dim
 62
     0
370
    -2
100
AcDbLine
 10
1064.011773415707
 20
862.8479798601029
 30
0.0
 11
1021.012635033985
 21
863.1201901272291
 31
0.0
  0
SOLID
  5
32A
330
301
100
AcDbEntity
  8
dim
 62
     0
100
AcDbTrace
 10
1084.032474234114
 20
866.0546369747514
 30
0.0
 11
1083.990271091924
 21
859.3881038923138
 31
0.0
 12
1064.011773415707
 22
862.8479798601029
 32
0.0
 13
1064.011773415707
 23
862.8479798601029
 33
0.0
  0
SOLID
  5
32B
330
301
100
AcDbEntity
  8
dim
 62
     0
100
AcDbTrace
 10
1001.034137357767
 20
866.5800660950182
 30
0.0
 11
1000.991934215577
 21
859.9135330125806
 31
0.0
 12
1021.012635033985
 22
863.1201901272291
 32
0.0
 13
1021.012635033985
 23
863.1201901272291
 33
0.0
  0
POINT
  5
32C
330
301
100
AcDbEntity
  8
Defpoints
 62
     0
100
AcDbPoint
 10
1021.012635033985
 20
863.1201901272291
 30
0.0
  0
POINT
  5
32D
330
301
100
AcDbEntity
  8
Defpoints
 62
     0
100
AcDbPoint
 10
1064.011773415707
 20
862.8479798601029
 30
0.0
  0
ENDBLK
  5
30B
330
301
100
AcDbEntity
  8
0
100
AcDbBlockEnd
  0
BLOCK
  5
338
330
32F
100
AcDbEntity
  8
0
100
AcDbBlockBegin
  2
*D11
 70
     1
 10
0.0
 20
0.0
 30
0.0
  3
*D11
  1

  0
LINE
  5
34C
330
32F
100
AcDbEntity
  8
dash
 62
     0
370
    -2
100
AcDbLine
 10
985.0123681793558
 20
977.6264788177385
 30
0.0
 11
1005.0123111517
 21
977.5787179239358
 31
0.0
  0
LINE
  5
34D
330
32F
100
AcDbEntity
  8
dash
 62
     0
370
    -2
100
AcDbLine
 10
1080.012097297991
 20
977.3996145721758
 30
0.0
 11
1100.012040270335
 21
977.3518536783733
 31
0.0
  0
MTEXT
  5
34E
330
32F
100
AcDbEntity
  8
dash
 62
     0
100
AcDbMText
 10
946.5873844106722
 20
977.7182396578409
 30
0.0
 40
20.0
 41
0.0
 46
0.0
 71
     5
 72
     1
  1
{\H1.4x;%%C1\H0.7x;\S3/8;\H1.4286x;"}
 11
0.9999971486172137
 21
-0.0023880446901327
 31
0.0
 73
     1
 44
1.0
  0
LINE
  5
34F
330
32F
100
AcDbEntity
  8
dash
 62
     0
370
    -2
100
AcDbLine
 10
1060.012154325647
 20
977.4473754659785
 30
0.0
 11
1025.012254124044
 21
977.5309570301331
 31
0.0
  0
SOLID
  5
350
330
32F
100
AcDbEntity
  8
dash
 62
     0
100
AcDbTrace
 10
1080.020057446958
 20
980.7329384008999
 30
0.0
 11
1080.004137149024
 21
974.0662907434517
 31
0.0
 12
1060.012154325647
 22
977.4473754659785
 32
0.0
 13
1060.012154325647
 23
977.4473754659785
 33
0.0
  0
SOLID
  5
351
330
32F
100
AcDbEntity
  8
dash
 62
     0
100
AcDbTrace
 10
1005.020271300667
 20
980.9120417526598
 30
0.0
 11
1005.004351002733
 21
974.2453940952117
 31
0.0
 12
1025.012254124044
 22
977.5309570301331
 32
0.0
 13
1025.012254124044
 23
977.5309570301331
 33
0.0
  0
POINT
  5
352
330
32F
100
AcDbEntity
  8
Defpoints
 62
     0
100
AcDbPoint
 10
1025.012254124044
 20
977.5309570301331
 30
0.0
  0
POINT
  5
353
330
32F
100
AcDbEntity
  8
Defpoints
 62
     0
100
AcDbPoint
 10
1060.012154325647
 20
977.4473754659785
 30
0.0
  0
ENDBLK
  5
339
330
32F
100
AcDbEntity
  8
0
100
AcDbBlockEnd
  0
ENDSEC
  0
SECTION
  2
ENTITIES
  0
LINE
  5
13A
330
1F
100
AcDbEntity
  8
con
100
AcDbLine
 10
1042.512204224846
 20
1037.489166248055
 30
0.0
 11
1347.512204224846
 21
1037.489166248055
 31
0.0
  0
LINE
  5
13B
330
1F
100
AcDbEntity
  8
con
100
AcDbLine
 10
1347.512204224846
 20
1037.489166248055
 30
0.0
 11
1347.512204224846
 21
602.4891662480554
 31
0.0
  0
LINE
  5
13C
102
{ACAD_REACTORS
330
1FC
102
}
330
1F
100
AcDbEntity
  8
con
100
AcDbLine
 10
1347.512204224846
 20
602.4891662480554
 30
0.0
 11
737.5122042248458
 21
602.4891662480554
 31
0.0
  0
LINE
  5
13D
102
{ACAD_REACTORS
330
1FC
102
}
330
1F
100
AcDbEntity
  8
con
100
AcDbLine
 10
737.5122042248458
 20
602.4891662480554
 30
0.0
 11
737.5122042248458
 21
1037.489166248055
 31
0.0
  0
LINE
  5
13E
102
{ACAD_REACTORS
330
196
330
244
102
}
330
1F
100
AcDbEntity
  8
con
100
AcDbLine
 10
737.5122042248458
 20
1037.489166248055
 30
0.0
 11
1042.512204224846
 21
1037.489166248055
 31
0.0
  0
LINE
  5
13F
330
1F
100
AcDbEntity
  8
con
100
AcDbLine
 10
1042.512204224846
 20
448.4422087778479
 30
0.0
 11
1347.512204224846
 21
448.4422087778479
 31
0.0
  0
LINE
  5
141
330
1F
100
AcDbEntity
  8
con
100
AcDbLine
 10
1347.512204224846
 20
448.4422087778479
 30
0.0
 11
1347.512204224846
 21
348.442208777848
 31
0.0
  0
LINE
  5
142
330
1F
100
AcDbEntity
  8
con
100
AcDbLine
 10
1347.512204224846
 20
348.442208777848
 30
0.0
 11
737.5122042248458
 21
348.442208777848
 31
0.0
  0
LINE
  5
143
330
1F
100
AcDbEntity
  8
con
100
AcDbLine
 10
737.5122042248458
 20
348.442208777848
 30
0.0
 11
737.5122042248458
 21
448.4422087778479
 31
0.0
  0
LINE
  5
144
102
{ACAD_REACTORS
330
268
330
282
102
}
330
1F
100
AcDbEntity
  8
con
100
AcDbLine
 10
737.5122042248458
 20
448.4422087778479
 30
0.0
 11
1042.512204224846
 21
448.4422087778479
 31
0.0
  0
LINE
  5
148
330
1F
100
AcDbEntity
  8
con
100
AcDbLine
 10
777.5122042248459
 20
917.4891662480556
 30
0.0
 11
777.5122042248459
 21
642.4891662480555
 31
0.0
  0
LINE
  5
14C
102
{ACAD_REACTORS
330
216
102
}
330
1F
100
AcDbEntity
  8
con
100
AcDbLine
 10
1307.512204224846
 20
917.4891662480552
 30
0.0
 11
1307.512204224846
 21
642.4891662480555
 31
0.0
  0
LINE
  5
150
330
1F
100
AcDbEntity
  8
con
100
AcDbLine
 10
777.5122042248459
 20
917.4891662480554
 30
0.0
 11
1307.512204224846
 21
917.4891662480554
 31
0.0
  0
LINE
  5
151
330
1F
100
AcDbEntity
  8
con
100
AcDbLine
 10
777.5122042248459
 20
642.4891662480555
 30
0.0
 11
1307.512204224845
 21
642.4891662480555
 31
0.0
  0
LINE
  5
16B
330
1F
100
AcDbEntity
  8
con
100
AcDbLine
 10
1077.512204224846
 20
283.3244657019394
 30
0.0
 11
1077.512204224846
 21
258.442208777848
 31
0.0
  0
LINE
  5
16C
330
1F
100
AcDbEntity
  8
con
100
AcDbLine
 10
1007.512204224846
 20
283.3244657019394
 30
0.0
 11
1007.512204224845
 21
258.442208777848
 31
0.0
  0
LINE
  5
16D
330
1F
100
AcDbEntity
  8
con
100
AcDbLine
 10
1007.512204224845
 20
258.442208777848
 30
0.0
 11
1077.512204224846
 21
258.442208777848
 31
0.0
  0
CIRCLE
  5
16F
102
{ACAD_REACTORS
330
343
102
}
330
1F
100
AcDbEntity
  8
con
100
AcDbCircle
 10
1042.512204224846
 20
977.4891662480554
 30
0.0
 40
17.5
  0
CIRCLE
  5
171
102
{ACAD_REACTORS
330
315
102
}
330
1F
100
AcDbEntity
  8
con
100
AcDbCircle
 10
1042.512204224846
 20
862.9840849936654
 30
0.0
 40
21.5
  0
DIMENSION
  5
17C
102
{ACAD_XDICTIONARY
360
18B
102
}
102
{ACAD_REACTORS
330
196
102
}
330
1F
100
AcDbEntity
  8
dim
100
AcDbDimension
  2
*D1
 10
573.5149743633074
 20
602.4891662480555
 30
0.0
 11
573.5149743633074
 21
819.9891662480556
 31
0.0
 70
   160
  1
17-1/8"
 71
     5
 42
435.0
 73
     0
 74
     0
 75
     0
  3
ISO-25
100
AcDbAlignedDimension
 13
1042.512204224846
 23
1037.489166248055
 33
0.0
 14
1042.512204224846
 24
602.4891662480554
 34
0.0
 50
90.0
100
AcDbRotatedDimension
  0
DIMENSION
  5
1BF
330
1F
100
AcDbEntity
  8
dim
100
AcDbDimension
  2
*D2
 10
681.5496215707309
 20
642.4891662480556
 30
0.0
 11
681.5496215707307
 21
779.9891662480556
 31
0.0
 70
   160
  1
10-7/8"
 71
     5
 42
274.9999999999999
 73
     0
 74
     0
 75
     0
  3
ISO-25
100
AcDbAlignedDimension
 13
1042.512204224846
 23
917.4891662480554
 33
0.0
 14
1042.512204224846
 24
642.4891662480555
 34
0.0
 50
90.0
100
AcDbRotatedDimension
  0
DIMENSION
  5
1E3
102
{ACAD_XDICTIONARY
360
1F1
102
}
102
{ACAD_REACTORS
330
1FC
102
}
330
1F
100
AcDbEntity
  8
dim
100
AcDbDimension
  2
*D3
 10
1347.512204224846
 20
514.4766535068297
 30
0.0
 11
1042.512204224846
 21
514.4766535068297
 31
0.0
 70
    32
  1
24"
 71
     5
 42
610.0
 73
     0
 74
     0
 75
     0
  3
ISO-25
100
AcDbAlignedDimension
 13
737.5122042248458
 23
602.4891662480554
 33
0.0
 14
1347.512204224846
 24
602.4891662480554
 34
0.0
100
AcDbRotatedDimension
  0
DIMENSION
  5
1FD
102
{ACAD_XDICTIONARY
360
20B
102
}
102
{ACAD_REACTORS
330
216
102
}
330
1F
100
AcDbEntity
  8
dim
100
AcDbDimension
  2
*D4
 10
1307.512204224846
 20
564.0699274821113
 30
0.0
 11
1042.512204224846
 21
564.0699274821113
 31
0.0
 70
    32
  1
20-7/8"
 71
     5
 42
530.0000000000001
 73
     0
 74
     0
 75
     0
  3
ISO-25
100
AcDbAlignedDimension
 13
777.5122042248459
 23
642.4891662480556
 33
0.0
 14
1307.512204224846
 24
642.4891662480555
 34
0.0
100
AcDbRotatedDimension
  0
DIMENSION
  5
22B
102
{ACAD_XDICTIONARY
360
239
102
}
102
{ACAD_REACTORS
330
244
102
}
330
1F
100
AcDbEntity
  8
dim
100
AcDbDimension
  2
*D5
 10
637.478106055447
 20
917.4891662480556
 30
0.0
 11
637.4781060554469
 21
977.4891662480555
 31
0.0
 70
   160
  1
4-3/4"
 71
     5
 42
120.0
 73
     0
 74
     0
 75
     0
  3
ISO-25
100
AcDbAlignedDimension
 13
737.5122042248458
 23
1037.489166248055
 33
0.0
 14
737.5122042248458
 24
917.4891662480556
 34
0.0
 50
90.0
100
AcDbRotatedDimension
  0
DIMENSION
  5
24F
102
{ACAD_XDICTIONARY
360
25D
102
}
102
{ACAD_REACTORS
330
268
102
}
330
1F
100
AcDbEntity
  8
dim
100
AcDbDimension
  2
*D6
 10
568.5523931838979
 20
258.4422087778481
 30
0.0
 11
568.5523931838978
 21
353.4422087778482
 31
0.0
 70
    32
  1
7-1/2"
 71
     5
 42
190.0
 73
     0
 74
     0
 75
     0
  3
ISO-25
100
AcDbAlignedDimension
 13
1042.512204224846
 23
448.4422087778479
 33
0.0
 14
1042.512204224846
 24
258.442208777848
 34
0.0
 50
90.0
100
AcDbRotatedDimension
  0
DIMENSION
  5
269
102
{ACAD_XDICTIONARY
360
277
102
}
102
{ACAD_REACTORS
330
282
102
}
330
1F
100
AcDbEntity
  8
dim
100
AcDbDimension
  2
*D7
 10
669.4582183089951
 20
348.4422087778481
 30
0.0
 11
669.4582183089949
 21
398.4422087778482
 31
0.0
 70
    32
  1
4"
 71
     5
 42
100.0
 73
     0
 74
     0
 75
     0
  3
ISO-25
100
AcDbAlignedDimension
 13
1042.512204224846
 23
448.4422087778479
 33
0.0
 14
1042.512204224846
 24
348.442208777848
 34
0.0
 50
90.0
100
AcDbRotatedDimension
  0
LINE
  5
2A7
330
1F
100
AcDbEntity
  8
center
100
AcDbLine
 10
1042.512204224846
 20
1067.421919144451
 30
0.0
 11
1042.512204224846
 21
583.7277208469317
 31
0.0
  0
LINE
  5
2A8
102
{ACAD_REACTORS
330
2F5
102
}
330
1F
100
AcDbEntity
  8
center
100
AcDbLine
 10
1042.512204224846
 20
470.0537852146312
 30
0.0
 11
1042.512204224846
 21
240.3860394261233
 31
0.0
  0
LINE
  5
2A9
330
1F
100
AcDbEntity
  8
center
100
AcDbLine
 10
711.6794401923953
 20
819.9891662480554
 30
0.0
 11
1399.974102246368
 21
819.9891662480554
 31
0.0
  0
ARC
  5
2D8
102
{ACAD_REACTORS
330
2F5
102
}
330
1F
100
AcDbEntity
  8
dash
100
AcDbCircle
 10
1042.512204224846
 20
618.0973811916411
 30
0.0
 40
314.655172413793
100
AcDbArc
 50
212.6277048525212
 51
327.3722951474789
  0
ARC
  5
2DB
330
1F
100
AcDbEntity
  8
con
100
AcDbCircle
 10
1042.512204224846
 20
618.0973811916411
 30
0.0
 40
336.5975415024224
100
AcDbArc
 50
233.2372306183119
 51
306.7627693816882
  0
DIMENSION
  5
2DC
102
{ACAD_XDICTIONARY
360
2EA
102
}
102
{ACAD_REACTORS
330
2F5
102
}
330
1F
100
AcDbEntity
  8
dim
100
AcDbDimension
  2
*D9
 10
623.2638674533837
 20
303.4422087778482
 30
0.0
 11
623.2638674533835
 21
375.9422087778482
 31
0.0
 70
    32
  1
5-3/4"
 71
     5
 42
144.9999999999999
 73
     0
 74
     0
 75
     0
  3
ISO-25
100
AcDbAlignedDimension
 13
1041.887204224846
 23
448.4422087778479
 33
0.0
 14
1042.512204224846
 24
303.4422087778481
 34
0.0
 50
90.0
100
AcDbRotatedDimension
  0
DIMENSION
  5
300
102
{ACAD_XDICTIONARY
360
30C
102
}
102
{ACAD_REACTORS
330
315
102
}
330
1F
100
AcDbEntity
  8
dim
100
AcDbDimension
  2
*D10
 10
1064.011773415707
 20
862.8479798601029
 30
0.0
 11
936.0559107332088
 21
863.6580170113582
 31
0.0
 70
    35
  1
{\H1.4x;%%C1\H0.7x;\S11/16;\H1.4286x;"}
 71
     5
 42
43.0
 73
     0
 74
     0
 75
     0
  3
ISO-25
100
AcDbDiametricDimension
 15
1021.012635033985
 25
863.1201901272291
 35
0.0
 40
0.0
1001
ACAD
1000
DSTYLE
1002
{
1070
   288
1070
     1
1002
}
  0
DIMENSION
  5
32E
102
{ACAD_XDICTIONARY
360
33A
102
}
102
{ACAD_REACTORS
330
343
102
}
330
1F
100
AcDbEntity
  8
dash
100
AcDbDimension
  2
*D11
 10
1060.012154325647
 20
977.4473754659785
 30
0.0
 11
946.5873844106722
 21
977.7182396578409
 31
0.0
 70
    35
  1
{\H1.4x;%%C1\H0.7x;\S3/8;\H1.4286x;"}
 71
     5
 42
35.00000000000011
 73
     0
 74
     0
 75
     0
  3
ISO-25
100
AcDbDiametricDimension
 15
1025.012254124044
 25
977.5309570301331
 35
0.0
 40
0.0
1001
ACAD
1000
DSTYLE
1002
{
1070
   288
1070
     1
1002
}
  0
ENDSEC
  0
SECTION
  2
OBJECTS
  0
DICTIONARY
  5
C
330
0
100
AcDbDictionary
281
     1
  3
ACAD_COLOR
350
6B
  3
ACAD_GROUP
350
D
  3
ACAD_LAYOUT
350
1A
  3
ACAD_MATERIAL
350
6A
  3
ACAD_MLINESTYLE
350
17
  3
ACAD_PLOTSETTINGS
350
19
  3
ACAD_PLOTSTYLENAME
350
E
  3
ACAD_TABLESTYLE
350
7E
  3
ACAD_VISUALSTYLE
350
F0
  3
AcDbVariableDictionary
350
5E
  0
DICTIONARY
  5
12C
330
2
100
AcDbDictionary
280
     1
281
     1
  3
ACAD_LAYERFILTERS
360
12E
  3
ACLYDICTIONARY
360
12D
  0
DICTIONARY
  5
14E
330
1F
100
AcDbDictionary
280
     1
281
     1
  3
ACAD_SORTENTS
360
14F
  0
DICTIONARY
  5
18B
330
17C
100
AcDbDictionary
280
     1
281
     1
  3
ACAD_DIMASSOC
360
196
  0
DICTIONARY
  5
1F1
330
1E3
100
AcDbDictionary
280
     1
281
     1
  3
ACAD_DIMASSOC
360
1FC
  0
DICTIONARY
  5
20B
330
1FD
100
AcDbDictionary
280
     1
281
     1
  3
ACAD_DIMASSOC
360
216
  0
DICTIONARY
  5
239
330
22B
100
AcDbDictionary
280
     1
281
     1
  3
ACAD_DIMASSOC
360
244
  0
DICTIONARY
  5
25D
330
24F
100
AcDbDictionary
280
     1
281
     1
  3
ACAD_DIMASSOC
360
268
  0
DICTIONARY
  5
277
330
269
100
AcDbDictionary
280
     1
281
     1
  3
ACAD_DIMASSOC
360
282
  0
DICTIONARY
  5
2EA
330
2DC
100
AcDbDictionary
280
     1
281
     1
  3
ACAD_DIMASSOC
360
2F5
  0
DICTIONARY
  5
30C
330
300
100
AcDbDictionary
280
     1
281
     1
  3
ACAD_DIMASSOC
360
315
  0
DICTIONARY
  5
33A
330
32E
100
AcDbDictionary
280
     1
281
     1
  3
ACAD_DIMASSOC
360
343
  0
DICTIONARY
  5
6B
102
{ACAD_REACTORS
330
C
102
}
330
C
100
AcDbDictionary
281
     1
  0
DICTIONARY
  5
D
102
{ACAD_REACTORS
330
C
102
}
330
C
100
AcDbDictionary
281
     1
  0
DICTIONARY
  5
1A
102
{ACAD_REACTORS
330
C
102
}
330
C
100
AcDbDictionary
281
     1
  3
Model
350
22
  3
布局1
350
D3
  3
布局2
350
D7
  0
DICTIONARY
  5
6A
102
{ACAD_REACTORS
330
C
102
}
330
C
100
AcDbDictionary
281
     1
  3
ByBlock
350
EE
  3
ByLayer
350
ED
  3
Global
350
EF
  0
DICTIONARY
  5
17
102
{ACAD_REACTORS
330
C
102
}
330
C
100
AcDbDictionary
281
     1
  3
Standard
350
18
  0
DICTIONARY
  5
19
102
{ACAD_REACTORS
330
C
102
}
330
C
100
AcDbDictionary
281
     1
  0
ACDBDICTIONARYWDFLT
  5
E
102
{ACAD_REACTORS
330
C
102
}
330
C
100
AcDbDictionary
281
     1
  3
Normal
350
F
100
AcDbDictionaryWithDefault
340
F
  0
DICTIONARY
  5
7E
102
{ACAD_REACTORS
330
C
102
}
330
C
100
AcDbDictionary
281
     1
  3
Standard
350
7F
  0
DICTIONARY
  5
F0
102
{ACAD_REACTORS
330
C
102
}
330
C
100
AcDbDictionary
281
     1
  3
2dWireframe
350
F6
  3
3D Hidden
350
F8
  3
3dWireframe
350
F7
  3
Basic
350
F5
  3
Brighten
350
FC
  3
ColorChange
350
100
  3
Conceptual
350
F9
  3
Dim
350
FB
  3
Facepattern
350
FF
  3
Flat
350
F1
  3
FlatWithEdges
350
F2
  3
Gouraud
350
F3
  3
GouraudWithEdges
350
F4
  3
Linepattern
350
FE
  3
Realistic
350
FA
  3
Thicken
350
FD
  0
DICTIONARY
  5
5E
102
{ACAD_REACTORS
330
C
102
}
330
C
100
AcDbDictionary
281
     1
  3
CTABLESTYLE
350
84
  3
DIMASSOC
350
5F
  3
HIDETEXT
350
63
  0
DICTIONARY
  5
12E
102
{ACAD_REACTORS
330
12C
102
}
330
12C
100
AcDbDictionary
281
     1
  0
DICTIONARY
  5
12D
102
{ACAD_REACTORS
330
12C
102
}
330
12C
100
AcDbDictionary
281
     1
1001
ACAD
1000
<All
  0
SORTENTSTABLE
  5
14F
102
{ACAD_REACTORS
330
14E
102
}
330
14E
100
AcDbSortentsTable
330
1F
331
16D
  5
17C
331
2A9
  5
2D6
331
13D
  5
13D
331
269
  5
2A9
331
2D8
  5
2D9
331
16C
  5
16F
331
2A8
  5
2D5
331
1E3
  5
24F
331
13C
  5
13C
331
17C
  5
1FD
331
144
  5
156
331
16B
  5
171
331
14C
  5
16D
331
13B
  5
13B
331
143
  5
155
331
24F
  5
2A8
331
13A
  5
13A
331
151
  5
157
331
2A7
  5
2D4
331
142
  5
14A
331
171
  5
1E3
331
141
  5
147
331
150
  5
16B
331
148
  5
16A
331
1BF
  5
22B
331
16F
  5
1BF
331
13F
  5
13F
331
1FD
  5
269
331
13E
  5
13E
331
22B
  5
2A7
  0
DIMASSOC
  5
196
102
{ACAD_REACTORS
330
18B
102
}
330
18B
100
AcDbDimAssoc
330
17C
 90
        1
 70
     0
 71
     0
  1
AcDbOsnapPointRef
 72
     1
331
13E
 73
     2
 91
        0
 40
1.0
 10
0.0
 20
0.0
 30
2.000000000000000E+50
 75
     0
  0
DIMASSOC
  5
1FC
102
{ACAD_REACTORS
330
1F1
102
}
330
1F1
100
AcDbDimAssoc
330
1E3
 90
        3
 70
     0
 71
     0
  1
AcDbOsnapPointRef
 72
    13
331
13D
 73
     2
 91
        0
 40
0.0
 10
0.0
 20
0.0
 30
2.000000000000000E+50
 75
     0
  1
AcDbOsnapPointRef
 72
    13
331
13C
 73
     2
 91
        0
 40
0.0
 10
0.0
 20
0.0
 30
2.000000000000000E+50
 75
     0
  0
DIMASSOC
  5
216
102
{ACAD_REACTORS
330
20B
102
}
330
20B
100
AcDbDimAssoc
330
1FD
 90
        2
 70
     0
 71
     0
  1
AcDbOsnapPointRef
 72
     1
331
14C
 73
     2
 91
        0
 40
1.0
 10
0.0
 20
0.0
 30
2.000000000000000E+50
 75
     0
  0
DIMASSOC
  5
244
102
{ACAD_REACTORS
330
239
102
}
330
239
100
AcDbDimAssoc
330
22B
 90
        1
 70
     0
 71
     0
  1
AcDbOsnapPointRef
 72
    13
331
13E
 73
     2
 91
        0
 40
0.0
 10
0.0
 20
0.0
 30
2.000000000000000E+50
 75
     0
  0
DIMASSOC
  5
268
102
{ACAD_REACTORS
330
25D
102
}
330
25D
100
AcDbDimAssoc
330
24F
 90
        1
 70
     0
 71
     0
  1
AcDbOsnapPointRef
 72
     1
331
144
 73
     2
 91
        0
 40
1.0
 10
0.0
 20
0.0
 30
2.000000000000000E+50
 75
     0
  0
DIMASSOC
  5
282
102
{ACAD_REACTORS
330
277
102
}
330
277
100
AcDbDimAssoc
330
269
 90
        1
 70
     0
 71
     0
  1
AcDbOsnapPointRef
 72
     1
331
144
 73
     2
 91
        0
 40
1.0
 10
0.0
 20
0.0
 30
2.000000000000000E+50
 75
     0
  0
DIMASSOC
  5
2F5
102
{ACAD_REACTORS
330
2EA
102
}
330
2EA
100
AcDbDimAssoc
330
2DC
 90
        2
 70
     0
 71
     0
  1
AcDbOsnapPointRef
 72
     6
331
2A8
 73
     2
 91
        0
 40
0.7254461259449517
 10
0.0
 20
0.0
 30
0.0
332
2D8
 74
     2
 92
        0
 75
     0
  0
DIMASSOC
  5
315
102
{ACAD_REACTORS
330
30C
102
}
330
30C
100
AcDbDimAssoc
330
300
 90
        2
 70
     0
 71
     0
  1
AcDbOsnapPointRef
 72
     3
331
171
 73
     2
 91
        0
 40
0.0
 10
0.0
 20
0.0
 30
0.0
 75
     0
  0
DIMASSOC
  5
343
102
{ACAD_REACTORS
330
33A
102
}
330
33A
100
AcDbDimAssoc
330
32E
 90
        2
 70
     0
 71
     0
  1
AcDbOsnapPointRef
 72
     3
331
16F
 73
     2
 91
        0
 40
0.0
 10
0.0
 20
0.0
 30
0.0
 75
     0
  0
LAYOUT
  5
22
102
{ACAD_REACTORS
330
1A
102
}
330
1A
100
AcDbPlotSettings
  1

  2
none_device
  4
ISO_A4_(210.00_x_297.00_MM)
  6

 40
7.5
 41
20.0
 42
7.5
 43
20.0
 44
210.0
 45
297.0
 46
11.54999923706054
 47
-13.65000009536743
 48
0.0
 49
0.0
140
0.0
141
0.0
142
1.0
143
8.704084754739808
 70
 11952
 72
     1
 73
     0
 74
     0
  7

 75
     0
147
0.1148885871608098
 76
     0
 77
     2
 78
   300
148
0.0
149
0.0
100
AcDbLayout
  1
Model
 70
     1
 71
     0
 10
0.0
 20
0.0
 11
12.0
 21
9.0
 12
0.0
 22
0.0
 32
0.0
 14
0.0
 24
0.0
 34
0.0
 15
0.0
 25
0.0
 35
0.0
146
0.0
 13
0.0
 23
0.0
 33
0.0
 16
1.0
 26
0.0
 36
0.0
 17
0.0
 27
1.0
 37
0.0
 76
     0
330
1F
331
EB
1001
ACAD_PSEXT
1000
None
1000
None
1000
Not applicable
1000
The layout will not be plotted unless a new plotter configuration name is selected.
1070
     0
  0
LAYOUT
  5
D3
102
{ACAD_REACTORS
330
1A
102
}
330
1A
100
AcDbPlotSettings
  1

  2
C:\Documents and Settings\basas\Application Data\Autodesk\AutoCAD 2005\R16.1\enu\plotters\Default Windows System Printer.pc3
  4

  6

 40
0.0
 41
0.0
 42
0.0
 43
0.0
 44
0.0
 45
0.0
 46
0.0
 47
0.0
 48
0.0
 49
0.0
140
0.0
141
0.0
142
1.0
143
1.0
 70
   688
 72
     0
 73
     0
 74
     5
  7

 75
    16
147
1.0
 76
     0
 77
     2
 78
   300
148
0.0
149
0.0
100
AcDbLayout
  1
布局1
 70
     1
 71
     1
 10
0.0
 20
0.0
 11
12.0
 21
9.0
 12
0.0
 22
0.0
 32
0.0
 14
0.0
 24
0.0
 34
0.0
 15
0.0
 25
0.0
 35
0.0
146
0.0
 13
0.0
 23
0.0
 33
0.0
 16
1.0
 26
0.0
 36
0.0
 17
0.0
 27
1.0
 37
0.0
 76
     0
330
D2
  0
LAYOUT
  5
D7
102
{ACAD_REACTORS
330
1A
102
}
330
1A
100
AcDbPlotSettings
  1

  2
C:\Documents and Settings\basas\Application Data\Autodesk\AutoCAD 2005\R16.1\enu\plotters\Default Windows System Printer.pc3
  4

  6

 40
0.0
 41
0.0
 42
0.0
 43
0.0
 44
0.0
 45
0.0
 46
0.0
 47
0.0
 48
0.0
 49
0.0
140
0.0
141
0.0
142
1.0
143
1.0
 70
   688
 72
     0
 73
     0
 74
     5
  7

 75
    16
147
1.0
 76
     0
 77
     2
 78
   300
148
0.0
149
0.0
100
AcDbLayout
  1
布局2
 70
     1
 71
     2
 10
0.0
 20
0.0
 11
12.0
 21
9.0
 12
0.0
 22
0.0
 32
0.0
 14
0.0
 24
0.0
 34
0.0
 15
0.0
 25
0.0
 35
0.0
146
0.0
 13
0.0
 23
0.0
 33
0.0
 16
1.0
 26
0.0
 36
0.0
 17
0.0
 27
1.0
 37
0.0
 76
     0
330
D6
  0
MATERIAL
  5
EE
102
{ACAD_REACTORS
330
6A
102
}
330
6A
100
AcDbMaterial
  1
ByBlock
  0
MATERIAL
  5
ED
102
{ACAD_REACTORS
330
6A
102
}
330
6A
100
AcDbMaterial
  1
ByLayer
  0
MATERIAL
  5
EF
102
{ACAD_REACTORS
330
6A
102
}
330
6A
100
AcDbMaterial
  1
Global
  0
MLINESTYLE
  5
18
102
{ACAD_REACTORS
330
17
102
}
330
17
100
AcDbMlineStyle
  2
STANDARD
 70
     0
  3

 62
   256
 51
90.0
 52
90.0
 71
     2
 49
0.5
 62
   256
  6
BYLAYER
 49
-0.5
 62
   256
  6
BYLAYER
  0
ACDBPLACEHOLDER
  5
F
102
{ACAD_REACTORS
330
E
102
}
330
E
  0
TABLESTYLE
  5
7F
102
{ACAD_REACTORS
330
7E
102
}
330
7E
100
AcDbTableStyle
  3
Standard
 70
     0
 71
     0
 40
1.5
 41
1.5
280
     0
281
     0
  7
Standard
140
4.5
170
     2
 62
     0
 63
     7
283
     0
 90
      512
 91
        0
  1

274
    -2
284
     1
 64
     0
275
    -2
285
     1
 65
     0
276
    -2
286
     1
 66
     0
277
    -2
287
     1
 67
     0
278
    -2
288
     1
 68
     0
279
    -2
289
     1
 69
     0
  7
Standard
140
6.0
170
     5
 62
     0
 63
     7
283
     0
 90
      512
 91
        0
  1

274
    -2
284
     1
 64
     0
275
    -2
285
     1
 65
     0
276
    -2
286
     1
 66
     0
277
    -2
287
     1
 67
     0
278
    -2
288
     1
 68
     0
279
    -2
289
     1
 69
     0
  7
Standard
140
4.5
170
     5
 62
     0
 63
     7
283
     0
 90
      512
 91
        0
  1

274
    -2
284
     1
 64
     0
275
    -2
285
     1
 65
     0
276
    -2
286
     1
 66
     0
277
    -2
287
     1
 67
     0
278
    -2
288
     1
 68
     0
279
    -2
289
     1
 69
     0
  0
VISUALSTYLE
  5
F6
102
{ACAD_REACTORS
330
F0
102
}
330
F0
100
AcDbVisualStyle
  2
2dWireframe
 70
     4
 71
     0
 72
     2
 73
     1
 90
        0
 40
-0.6
 41
-30.0
 62
     5
 63
     7
421
 16777215
 74
     1
 91
        4
 64
     7
 65
   257
 75
     1
175
     1
 42
1.0
 92
        0
 66
   257
 43
1.0
 76
     1
 77
     6
 78
     2
 67
     7
 79
     5
170
     0
171
     0
290
     0
174
     0
 93
        1
 44
0.0
173
     0
291
     0
 45
0.0
  0
VISUALSTYLE
  5
F8
102
{ACAD_REACTORS
330
F0
102
}
330
F0
100
AcDbVisualStyle
  2
3D Hidden
 70
     6
 71
     1
 72
     2
 73
     2
 90
        0
 40
-0.6
 41
-30.0
 62
     5
 63
     7
421
 16777215
 74
     2
 91
        2
 64
     7
 65
   257
 75
     2
175
     1
 42
40.0
 92
        0
 66
   257
 43
1.0
 76
     1
 77
     6
 78
     2
 67
     7
 79
     3
170
     0
171
     0
290
     0
174
     0
 93
        1
 44
0.0
173
     0
291
     0
 45
0.0
  0
VISUALSTYLE
  5
F7
102
{ACAD_REACTORS
330
F0
102
}
330
F0
100
AcDbVisualStyle
  2
3dWireframe
 70
     5
 71
     0
 72
     2
 73
     1
 90
        0
 40
-0.6
 41
-30.0
 62
     5
 63
     7
421
 16777215
 74
     1
 91
        4
 64
     7
 65
   257
 75
     1
175
     1
 42
1.0
 92
        0
 66
   257
 43
1.0
 76
     1
 77
     6
 78
     2
 67
     7
 79
     5
170
     0
171
     0
290
     0
174
     0
 93
        1
 44
0.0
173
     0
291
     0
 45
0.0
  0
VISUALSTYLE
  5
F5
102
{ACAD_REACTORS
330
F0
102
}
330
F0
100
AcDbVisualStyle
  2
Basic
 70
     7
 71
     1
 72
     0
 73
     1
 90
        0
 40
-0.6
 41
-30.0
 62
     5
 63
     7
421
 16777215
 74
     0
 91
        4
 64
     7
 65
   257
 75
     1
175
     1
 42
1.0
 92
        8
 66
     7
 43
1.0
 76
     1
 77
     6
 78
     2
 67
     7
 79
     5
170
     0
171
     0
290
     0
174
     0
 93
        1
 44
0.0
173
     0
291
     1
 45
0.0
  0
VISUALSTYLE
  5
FC
102
{ACAD_REACTORS
330
F0
102
}
330
F0
100
AcDbVisualStyle
  2
Brighten
 70
    12
 71
     2
 72
     2
 73
     1
 90
        0
 40
-0.6
 41
-30.0
 62
     5
 63
     7
421
 16777215
 74
     1
 91
        4
 64
     7
 65
   257
 75
     1
175
     1
 42
1.0
 92
        8
 66
     7
 43
1.0
 76
     1
 77
     6
 78
     2
 67
     7
 79
     5
170
     0
171
     0
290
     0
174
     0
 93
        1
 44
50.0
173
     0
291
     1
 45
0.0
  0
VISUALSTYLE
  5
100
102
{ACAD_REACTORS
330
F0
102
}
330
F0
100
AcDbVisualStyle
  2
ColorChange
 70
    16
 71
     2
 72
     2
 73
     3
 90
        0
 40
-0.6
 41
-30.0
 62
     5
 63
     8
421
  8421504
 74
     1
 91
        4
 64
     7
 65
   257
 75
     1
175
     1
 42
1.0
 92
        8
 66
     8
424
  8421504
 43
1.0
 76
     1
 77
     6
 78
     2
 67
     7
 79
     5
170
     0
171
     0
290
     0
174
     0
 93
        1
 44
0.0
173
     0
291
     1
 45
0.0
  0
VISUALSTYLE
  5
F9
102
{ACAD_REACTORS
330
F0
102
}
330
F0
100
AcDbVisualStyle
  2
Conceptual
 70
     9
 71
     3
 72
     2
 73
     1
 90
        0
 40
-0.6
 41
-30.0
 62
     5
 63
     7
421
 16777215
 74
     2
 91
        2
 64
     7
 65
   257
 75
     1
175
     1
 42
40.0
 92
        8
 66
     7
 43
1.0
 76
     1
 77
     6
 78
     2
 67
     7
 79
     3
170
     0
171
     0
290
     0
174
     0
 93
        1
 44
0.0
173
     0
291
     0
 45
0.0
  0
VISUALSTYLE
  5
FB
102
{ACAD_REACTORS
330
F0
102
}
330
F0
100
AcDbVisualStyle
  2
Dim
 70
    11
 71
     2
 72
     2
 73
     1
 90
        0
 40
-0.6
 41
-30.0
 62
     5
 63
     7
421
 16777215
 74
     1
 91
        4
 64
     7
 65
   257
 75
     1
175
     1
 42
1.0
 92
        8
 66
     7
 43
1.0
 76
     1
 77
     6
 78
     2
 67
     7
 79
     5
170
     0
171
     0
290
     0
174
     0
 93
        1
 44
-50.0
173
     0
291
     1
 45
0.0
  0
VISUALSTYLE
  5
FF
102
{ACAD_REACTORS
330
F0
102
}
330
F0
100
AcDbVisualStyle
  2
Facepattern
 70
    15
 71
     2
 72
     2
 73
     1
 90
        0
 40
-0.6
 41
-30.0
 62
     5
 63
     7
421
 16777215
 74
     1
 91
        4
 64
     7
 65
   257
 75
     1
175
     1
 42
1.0
 92
        8
 66
     7
 43
1.0
 76
     1
 77
     6
 78
     2
 67
     7
 79
     5
170
     0
171
     0
290
     0
174
     0
 93
        1
 44
0.0
173
     0
291
     1
 45
0.0
  0
VISUALSTYLE
  5
F1
102
{ACAD_REACTORS
330
F0
102
}
330
F0
100
AcDbVisualStyle
  2
Flat
 70
     0
 71
     2
 72
     1
 73
     1
 90
        2
 40
-0.6
 41
30.0
 62
     5
 63
     7
421
 16777215
 74
     0
 91
        4
 64
     7
 65
   257
 75
     1
175
     1
 42
1.0
 92
        8
 66
     7
 43
1.0
 76
     1
 77
     6
 78
     2
 67
     7
 79
     5
170
     0
171
     0
290
     0
174
     0
 93
        1
 44
0.0
173
     0
291
     1
 45
0.0
  0
VISUALSTYLE
  5
F2
102
{ACAD_REACTORS
330
F0
102
}
330
F0
100
AcDbVisualStyle
  2
FlatWithEdges
 70
     1
 71
     2
 72
     1
 73
     1
 90
        2
 40
-0.6
 41
30.0
 62
     5
 63
     7
421
 16777215
 74
     1
 91
        4
 64
     7
 65
   257
 75
     1
175
     1
 42
1.0
 92
        0
 66
   257
 43
1.0
 76
     1
 77
     6
 78
     2
 67
     7
 79
     5
170
     0
171
     0
290
     0
174
     0
 93
        1
 44
0.0
173
     0
291
     1
 45
0.0
  0
VISUALSTYLE
  5
F3
102
{ACAD_REACTORS
330
F0
102
}
330
F0
100
AcDbVisualStyle
  2
Gouraud
 70
     2
 71
     2
 72
     2
 73
     1
 90
        2
 40
-0.6
 41
30.0
 62
     5
 63
     7
421
 16777215
 74
     0
 91
        4
 64
     7
 65
   257
 75
     1
175
     1
 42
1.0
 92
        0
 66
     7
 43
1.0
 76
     1
 77
     6
 78
     2
 67
     7
 79
     5
170
     0
171
     0
290
     0
174
     0
 93
        1
 44
0.0
173
     0
291
     1
 45
0.0
  0
VISUALSTYLE
  5
F4
102
{ACAD_REACTORS
330
F0
102
}
330
F0
100
AcDbVisualStyle
  2
GouraudWithEdges
 70
     3
 71
     2
 72
     2
 73
     1
 90
        2
 40
-0.6
 41
30.0
 62
     5
 63
     7
421
 16777215
 74
     1
 91
        4
 64
     7
 65
   257
 75
     1
175
     1
 42
1.0
 92
        0
 66
   257
 43
1.0
 76
     1
 77
     6
 78
     2
 67
     7
 79
     5
170
     0
171
     0
290
     0
174
     0
 93
        1
 44
0.0
173
     0
291
     1
 45
0.0
  0
VISUALSTYLE
  5
FE
102
{ACAD_REACTORS
330
F0
102
}
330
F0
100
AcDbVisualStyle
  2
Linepattern
 70
    14
 71
     2
 72
     2
 73
     1
 90
        0
 40
-0.6
 41
-30.0
 62
     5
 63
     7
421
 16777215
 74
     1
 91
        4
 64
     7
 65
   257
 75
     7
175
     7
 42
1.0
 92
        8
 66
     7
 43
1.0
 76
     1
 77
     6
 78
     2
 67
     7
 79
     5
170
     0
171
     0
290
     0
174
     0
 93
        1
 44
0.0
173
     0
291
     1
 45
0.0
  0
VISUALSTYLE
  5
FA
102
{ACAD_REACTORS
330
F0
102
}
330
F0
100
AcDbVisualStyle
  2
Realistic
 70
     8
 71
     2
 72
     2
 73
     1
 90
        0
 40
-0.6
 41
-30.0
 62
     5
 63
     7
421
 16777215
 74
     1
 91
        0
 64
     7
 65
   257
 75
     1
175
     1
 42
1.0
 92
        8
 66
     8
424
  7895160
 43
1.0
 76
     1
 77
     6
 78
     2
 67
     7
 79
     5
170
     0
171
     0
290
     0
174
     0
 93
       13
 44
0.0
173
     0
291
     0
 45
0.0
  0
VISUALSTYLE
  5
FD
102
{ACAD_REACTORS
330
F0
102
}
330
F0
100
AcDbVisualStyle
  2
Thicken
 70
    13
 71
     2
 72
     2
 73
     1
 90
        0
 40
-0.6
 41
-30.0
 62
     5
 63
     7
421
 16777215
 74
     1
 91
        4
 64
     7
 65
   257
 75
     1
175
     1
 42
1.0
 92
       12
 66
     7
 43
1.0
 76
     1
 77
     6
 78
     2
 67
     7
 79
     5
170
     0
171
     0
290
     0
174
     0
 93
        1
 44
0.0
173
     0
291
     1
 45
0.0
  0
DICTIONARYVAR
  5
84
102
{ACAD_REACTORS
330
5E
102
}
330
5E
100
DictionaryVariables
280
     0
  1
STANDARD
  0
DICTIONARYVAR
  5
5F
102
{ACAD_REACTORS
330
5E
102
}
330
5E
100
DictionaryVariables
280
     0
  1
2
  0
DICTIONARYVAR
  5
63
102
{ACAD_REACTORS
330
5E
102
}
330
5E
100
DictionaryVariables
280
     0
  1
1
  0
ENDSEC
  0
EOF
