  0
SECTION
  2
HEADER
  9
$ACADVER
  1
AC1021
  9
$ACADMAINTVER
 70
     1
  9
$DWGCODEPAGE
  3
ANSI_936
  9
$LASTSAVEDBY
  1
Administrator
  9
$INSBASE
 10
0.0
 20
0.0
 30
0.0
  9
$EXTMIN
 10
807.7805168610447
 20
251.2674065624192
 30
0.0
  9
$EXTMAX
 10
1415.910611908151
 20
988.3588756169997
 30
0.0
  9
$LIMMIN
 10
0.0
 20
0.0
  9
$LIMMAX
 10
420.0
 20
297.0
  9
$ORTHOMODE
 70
     1
  9
$REGENMODE
 70
     1
  9
$FILLMODE
 70
     1
  9
$QTEXTMODE
 70
     0
  9
$MIRRTEXT
 70
     0
  9
$LTSCALE
 40
1.0
  9
$ATTMODE
 70
     1
  9
$TEXTSIZE
 40
2.5
  9
$TRACEWID
 40
1.0
  9
$TEXTSTYLE
  7
Standard
  9
$CLAYER
  8
0
  9
$CELTYPE
  6
ByLayer
  9
$CECOLOR
 62
   256
  9
$CELTSCALE
 40
1.0
  9
$DISPSILH
 70
     0
  9
$DIMSCALE
 40
1.0
  9
$DIMASZ
 40
7.5
  9
$DIMEXO
 40
0.625
  9
$DIMDLI
 40
3.75
  9
$DIMRND
 40
0.0
  9
$DIMDLE
 40
0.0
  9
$DIMEXE
 40
1.25
  9
$DIMTP
 40
0.0
  9
$DIMTM
 40
0.0
  9
$DIMTXT
 40
7.5
  9
$DIMCEN
 40
12.0
  9
$DIMTSZ
 40
0.0
  9
$DIMTOL
 70
     0
  9
$DIMLIM
 70
     0
  9
$DIMTIH
 70
     0
  9
$DIMTOH
 70
     0
  9
$DIMSE1
 70
     0
  9
$DIMSE2
 70
     0
  9
$DIMTAD
 70
     0
  9
$DIMZIN
 70
     8
  9
$DIMBLK
  1

  9
$DIMASO
 70
     1
  9
$DIMSHO
 70
     1
  9
$DIMPOST
  1

  9
$DIMAPOST
  1

  9
$DIMALT
 70
     0
  9
$DIMALTD
 70
     3
  9
$DIMALTF
 40
0.03937007874016
  9
$DIMLFAC
 40
1.0
  9
$DIMTOFL
 70
     1
  9
$DIMTVP
 40
0.0
  9
$DIMTIX
 70
     0
  9
$DIMSOXD
 70
     0
  9
$DIMSAH
 70
     0
  9
$DIMBLK1
  1

  9
$DIMBLK2
  1

  9
$DIMSTYLE
  2
ISO-25
  9
$DIMCLRD
 70
     0
  9
$DIMCLRE
 70
     0
  9
$DIMCLRT
 70
     0
  9
$DIMTFAC
 40
1.0
  9
$DIMGAP
 40
0.625
  9
$DIMJUST
 70
     0
  9
$DIMSD1
 70
     0
  9
$DIMSD2
 70
     0
  9
$DIMTOLJ
 70
     0
  9
$DIMTZIN
 70
     8
  9
$DIMALTZ
 70
     0
  9
$DIMALTTZ
 70
     0
  9
$DIMUPT
 70
     0
  9
$DIMDEC
 70
     2
  9
$DIMTDEC
 70
     2
  9
$DIMALTU
 70
     2
  9
$DIMALTTD
 70
     3
  9
$DIMTXSTY
  7
Standard
  9
$DIMAUNIT
 70
     0
  9
$DIMADEC
 70
     0
  9
$DIMALTRND
 40
0.0
  9
$DIMAZIN
 70
     0
  9
$DIMDSEP
 70
    44
  9
$DIMATFIT
 70
     3
  9
$DIMFRAC
 70
     0
  9
$DIMLDRBLK
  1

  9
$DIMLUNIT
 70
     2
  9
$DIMLWD
 70
    -2
  9
$DIMLWE
 70
    -2
  9
$DIMTMOVE
 70
     0
  9
$DIMFXL
 40
1.0
  9
$DIMFXLON
 70
     0
  9
$DIMJOGANG
 40
0.7853981633974483
  9
$DIMTFILL
 70
     0
  9
$DIMTFILLCLR
 70
     0
  9
$DIMARCSYM
 70
     0
  9
$DIMLTYPE
  6

  9
$DIMLTEX1
  6

  9
$DIMLTEX2
  6

  9
$LUNITS
 70
     2
  9
$LUPREC
 70
     4
  9
$SKETCHINC
 40
1.0
  9
$FILLETRAD
 40
10.0
  9
$AUNITS
 70
     0
  9
$AUPREC
 70
     0
  9
$MENU
  1
.
  9
$ELEVATION
 40
0.0
  9
$PELEVATION
 40
0.0
  9
$THICKNESS
 40
0.0
  9
$LIMCHECK
 70
     0
  9
$CHAMFERA
 40
0.0
  9
$CHAMFERB
 40
0.0
  9
$CHAMFERC
 40
0.0
  9
$CHAMFERD
 40
0.0
  9
$SKPOLY
 70
     0
  9
$TDCREATE
 40
2458246.463077431
  9
$TDUCREATE
 40
2458246.129744097
  9
$TDUPDATE
 40
2458319.765817616
  9
$TDUUPDATE
 40
2458319.432484282
  9
$TDINDWG
 40
0.0468226157
  9
$TDUSRTIMER
 40
0.0468217708
  9
$USRTIMER
 70
     1
  9
$ANGBASE
 50
0.0
  9
$ANGDIR
 70
     0
  9
$PDMODE
 70
     0
  9
$PDSIZE
 40
0.0
  9
$PLINEWID
 40
0.0
  9
$SPLFRAME
 70
     0
  9
$SPLINETYPE
 70
     6
  9
$SPLINESEGS
 70
     8
  9
$HANDSEED
  5
43F
  9
$SURFTAB1
 70
     6
  9
$SURFTAB2
 70
     6
  9
$SURFTYPE
 70
     6
  9
$SURFU
 70
     6
  9
$SURFV
 70
     6
  9
$UCSBASE
  2

  9
$UCSNAME
  2

  9
$UCSORG
 10
0.0
 20
0.0
 30
0.0
  9
$UCSXDIR
 10
1.0
 20
0.0
 30
0.0
  9
$UCSYDIR
 10
0.0
 20
1.0
 30
0.0
  9
$UCSORTHOREF
  2

  9
$UCSORTHOVIEW
 70
     0
  9
$UCSORGTOP
 10
0.0
 20
0.0
 30
0.0
  9
$UCSORGBOTTOM
 10
0.0
 20
0.0
 30
0.0
  9
$UCSORGLEFT
 10
0.0
 20
0.0
 30
0.0
  9
$UCSORGRIGHT
 10
0.0
 20
0.0
 30
0.0
  9
$UCSORGFRONT
 10
0.0
 20
0.0
 30
0.0
  9
$UCSORGBACK
 10
0.0
 20
0.0
 30
0.0
  9
$PUCSBASE
  2

  9
$PUCSNAME
  2

  9
$PUCSORG
 10
0.0
 20
0.0
 30
0.0
  9
$PUCSXDIR
 10
1.0
 20
0.0
 30
0.0
  9
$PUCSYDIR
 10
0.0
 20
1.0
 30
0.0
  9
$PUCSORTHOREF
  2

  9
$PUCSORTHOVIEW
 70
     0
  9
$PUCSORGTOP
 10
0.0
 20
0.0
 30
0.0
  9
$PUCSORGBOTTOM
 10
0.0
 20
0.0
 30
0.0
  9
$PUCSORGLEFT
 10
0.0
 20
0.0
 30
0.0
  9
$PUCSORGRIGHT
 10
0.0
 20
0.0
 30
0.0
  9
$PUCSORGFRONT
 10
0.0
 20
0.0
 30
0.0
  9
$PUCSORGBACK
 10
0.0
 20
0.0
 30
0.0
  9
$USERI1
 70
     0
  9
$USERI2
 70
     0
  9
$USERI3
 70
     0
  9
$USERI4
 70
     0
  9
$USERI5
 70
     0
  9
$USERR1
 40
0.0
  9
$USERR2
 40
0.0
  9
$USERR3
 40
0.0
  9
$USERR4
 40
0.0
  9
$USERR5
 40
0.0
  9
$WORLDVIEW
 70
     1
  9
$SHADEDGE
 70
     3
  9
$SHADEDIF
 70
    70
  9
$TILEMODE
 70
     1
  9
$MAXACTVP
 70
    64
  9
$PINSBASE
 10
0.0
 20
0.0
 30
0.0
  9
$PLIMCHECK
 70
     0
  9
$PEXTMIN
 10
0.0
 20
0.0
 30
0.0
  9
$PEXTMAX
 10
0.0
 20
0.0
 30
0.0
  9
$PLIMMIN
 10
0.0
 20
0.0
  9
$PLIMMAX
 10
12.0
 20
9.0
  9
$UNITMODE
 70
     0
  9
$VISRETAIN
 70
     1
  9
$PLINEGEN
 70
     0
  9
$PSLTSCALE
 70
     1
  9
$TREEDEPTH
 70
  3020
  9
$CMLSTYLE
  2
Standard
  9
$CMLJUST
 70
     0
  9
$CMLSCALE
 40
20.0
  9
$PROXYGRAPHICS
 70
     1
  9
$MEASUREMENT
 70
     1
  9
$CELWEIGHT
370
    -1
  9
$ENDCAPS
280
     0
  9
$JOINSTYLE
280
     0
  9
$LWDISPLAY
290
     1
  9
$INSUNITS
 70
     4
  9
$HYPERLINKBASE
  1

  9
$STYLESHEET
  1

  9
$XEDIT
290
     1
  9
$CEPSNTYPE
380
     0
  9
$PSTYLEMODE
290
     1
  9
$FINGERPRINTGUID
  2
{E92EABB7-15FE-4A61-BB50-FC6407D3EB85}
  9
$VERSIONGUID
  2
{1B0BEFEC-8AF5-42C7-BB5B-7E4F8036FBCB}
  9
$EXTNAMES
290
     1
  9
$PSVPSCALE
 40
0.0
  9
$OLESTARTUP
290
     0
  9
$SORTENTS
280
   127
  9
$INDEXCTL
280
     0
  9
$HIDETEXT
280
     1
  9
$XCLIPFRAME
290
     0
  9
$HALOGAP
280
     0
  9
$OBSCOLOR
 70
   257
  9
$OBSLTYPE
280
     0
  9
$INTERSECTIONDISPLAY
280
     0
  9
$INTERSECTIONCOLOR
 70
   257
  9
$DIMASSOC
280
     2
  9
$PROJECTNAME
  1

  9
$CAMERADISPLAY
290
     0
  9
$LENSLENGTH
 40
50.0
  9
$CAMERAHEIGHT
 40
0.0
  9
$STEPSPERSEC
 40
2.0
  9
$STEPSIZE
 40
6.0
  9
$3DDWFPREC
 40
2.0
  9
$PSOLWIDTH
 40
5.0
  9
$PSOLHEIGHT
 40
80.0
  9
$LOFTANG1
 40
1.570796326794896
  9
$LOFTANG2
 40
1.570796326794896
  9
$LOFTMAG1
 40
0.0
  9
$LOFTMAG2
 40
0.0
  9
$LOFTPARAM
 70
     7
  9
$LOFTNORMALS
280
     1
  9
$LATITUDE
 40
37.795
  9
$LONGITUDE
 40
-122.394
  9
$NORTHDIRECTION
 40
0.0
  9
$TIMEZONE
 70
 -8000
  9
$LIGHTGLYPHDISPLAY
280
     1
  9
$TILEMODELIGHTSYNCH
280
     1
  9
$CMATERIAL
347
ED
  9
$SOLIDHIST
280
     1
  9
$SHOWHIST
280
     1
  9
$DWFFRAME
280
     2
  9
$DGNFRAME
280
     0
  9
$REALWORLDSCALE
290
     1
  9
$INTERFERECOLOR
 62
     1
  9
$INTERFEREOBJVS
345
FA
  9
$INTERFEREVPVS
346
F7
  9
$CSHADOW
280
     0
  9
$SHADOWPLANELOCATION
 40
0.0
  0
ENDSEC
  0
SECTION
  2
CLASSES
  0
CLASS
  1
ACDBDICTIONARYWDFLT
  2
AcDbDictionaryWithDefault
  3
ObjectDBX Classes
 90
        0
 91
        1
280
     0
281
     0
  0
CLASS
  1
DICTIONARYVAR
  2
AcDbDictionaryVar
  3
ObjectDBX Classes
 90
        0
 91
        3
280
     0
281
     0
  0
CLASS
  1
TABLESTYLE
  2
AcDbTableStyle
  3
ObjectDBX Classes
 90
     4095
 91
        1
280
     0
281
     0
  0
CLASS
  1
MATERIAL
  2
AcDbMaterial
  3
ObjectDBX Classes
 90
     1024
 91
        3
280
     0
281
     0
  0
CLASS
  1
VISUALSTYLE
  2
AcDbVisualStyle
  3
ObjectDBX Classes
 90
     4095
 91
       16
280
     0
281
     0
  0
CLASS
  1
SORTENTSTABLE
  2
AcDbSortentsTable
  3
ObjectDBX Classes
 90
        0
 91
        1
280
     0
281
     0
  0
CLASS
  1
DIMASSOC
  2
AcDbDimAssoc
  3
"AcDbDimAssoc|Product Desc:     AcDim ARX App For Dimension|Company:          Autodesk, Inc.|WEB Address:      www.autodesk.com"
 90
        0
 91
        8
280
     0
281
     0
  0
ENDSEC
  0
SECTION
  2
TABLES
  0
TABLE
  2
VPORT
  5
8
330
0
100
AcDbSymbolTable
 70
     1
  0
VPORT
  5
EB
330
8
100
AcDbSymbolTableRecord
100
AcDbViewportTableRecord
  2
*Active
 70
     0
 10
0.0
 20
0.0
 11
1.0
 21
1.0
 12
1166.471580233863
 22
613.9522825767649
 13
0.0
 23
0.0
 14
10.0
 24
10.0
 15
10.0
 25
10.0
 16
0.0
 26
0.0
 36
1.0
 17
0.0
 27
0.0
 37
0.0
 40
886.0563435924401
 41
2.223150357995226
 42
50.0
 43
0.0
 44
0.0
 50
0.0
 51
0.0
 71
     0
 72
  1000
 73
     1
 74
     3
 75
     0
 76
     0
 77
     0
 78
     0
281
     0
 65
     1
110
0.0
120
0.0
130
0.0
111
1.0
121
0.0
131
0.0
112
0.0
122
1.0
132
0.0
 79
     0
146
0.0
348
F6
 60
     2
 61
     5
292
     1
282
     1
141
0.0
142
0.0
 63
   250
421
  3355443
  0
ENDTAB
  0
TABLE
  2
LTYPE
  5
5
330
0
100
AcDbSymbolTable
 70
     3
  0
LTYPE
  5
14
330
5
100
AcDbSymbolTableRecord
100
AcDbLinetypeTableRecord
  2
ByBlock
 70
     0
  3

 72
    65
 73
     0
 40
0.0
  0
LTYPE
  5
15
330
5
100
AcDbSymbolTableRecord
100
AcDbLinetypeTableRecord
  2
ByLayer
 70
     0
  3

 72
    65
 73
     0
 40
0.0
  0
LTYPE
  5
16
330
5
100
AcDbSymbolTableRecord
100
AcDbLinetypeTableRecord
  2
Continuous
 70
     0
  3
Solid line
 72
    65
 73
     0
 40
0.0
  0
LTYPE
  5
12A
330
5
100
AcDbSymbolTableRecord
100
AcDbLinetypeTableRecord
  2
ACAD_ISO02W100
 70
     0
  3
ISO dash __ __ __ __ __ __ __ __ __ __ __ __ __
 72
    65
 73
     2
 40
15.0
 49
12.0
 74
     0
 49
-3.0
 74
     0
  0
LTYPE
  5
12B
330
5
100
AcDbSymbolTableRecord
100
AcDbLinetypeTableRecord
  2
ACAD_ISO04W100
 70
     0
  3
ISO long-dash dot ____ . ____ . ____ . ____ . _
 72
    65
 73
     4
 40
30.0
 49
24.0
 74
     0
 49
-3.0
 74
     0
 49
0.0
 74
     0
 49
-3.0
 74
     0
  0
ENDTAB
  0
TABLE
  2
LAYER
  5
2
102
{ACAD_XDICTIONARY
360
12C
102
}
330
0
100
AcDbSymbolTable
 70
     7
  0
LAYER
  5
10
330
2
100
AcDbSymbolTableRecord
100
AcDbLayerTableRecord
  2
0
 70
     0
 62
     7
  6
Continuous
370
    -3
390
F
347
EF
  0
LAYER
  5
123
330
2
100
AcDbSymbolTableRecord
100
AcDbLayerTableRecord
  2
con
 70
     0
 62
     7
  6
Continuous
370
    30
390
F
347
EF
1001
AcAecLayerStandard
1000

1000

  0
LAYER
  5
125
330
2
100
AcDbSymbolTableRecord
100
AcDbLayerTableRecord
  2
dim
 70
     0
 62
     7
  6
Continuous
370
    -3
390
F
347
EF
1001
AcAecLayerStandard
1000

1000

  0
LAYER
  5
126
330
2
100
AcDbSymbolTableRecord
100
AcDbLayerTableRecord
  2
dash
 70
     0
 62
     7
  6
ACAD_ISO02W100
370
    -3
390
F
347
EF
1001
AcAecLayerStandard
1000

1000

  0
LAYER
  5
127
330
2
100
AcDbSymbolTableRecord
100
AcDbLayerTableRecord
  2
center
 70
     0
 62
     1
  6
ACAD_ISO04W100
370
    -3
390
F
347
EF
1001
AcAecLayerStandard
1000

1000

  0
LAYER
  5
197
330
2
100
AcDbSymbolTableRecord
100
AcDbLayerTableRecord
  2
Defpoints
 70
     0
 62
     7
  6
Continuous
290
     0
370
    -3
390
F
347
EF
  0
LAYER
  5
328
330
2
100
AcDbSymbolTableRecord
100
AcDbLayerTableRecord
  2
图层1
 70
     0
 62
     6
  6
ACAD_ISO02W100
370
    -3
390
F
347
EF
1001
AcAecLayerStandard
1000

1000

  0
ENDTAB
  0
TABLE
  2
STYLE
  5
3
330
0
100
AcDbSymbolTable
 70
     2
  0
STYLE
  5
11
330
3
100
AcDbSymbolTableRecord
100
AcDbTextStyleTableRecord
  2
Standard
 70
     0
 40
0.0
 41
1.0
 50
0.0
 71
     0
 42
2.5
  3
txt
  4
gbcbig.shx
  0
STYLE
  5
129
330
3
100
AcDbSymbolTableRecord
100
AcDbTextStyleTableRecord
  2

 70
     1
 40
0.0
 41
1.0
 50
0.0
 71
     0
 42
2.5
  3
ltypeshp.shx
  4

  0
ENDTAB
  0
TABLE
  2
VIEW
  5
6
330
0
100
AcDbSymbolTable
 70
     0
  0
ENDTAB
  0
TABLE
  2
UCS
  5
7
330
0
100
AcDbSymbolTable
 70
     0
  0
ENDTAB
  0
TABLE
  2
APPID
  5
9
330
0
100
AcDbSymbolTable
 70
     4
  0
APPID
  5
12
330
9
100
AcDbSymbolTableRecord
100
AcDbRegAppTableRecord
  2
ACAD
 70
     0
  0
APPID
  5
9E
330
9
100
AcDbSymbolTableRecord
100
AcDbRegAppTableRecord
  2
ACAD_PSEXT
 70
     0
  0
APPID
  5
124
330
9
100
AcDbSymbolTableRecord
100
AcDbRegAppTableRecord
  2
AcAecLayerStandard
 70
     0
  0
APPID
  5
130
330
9
100
AcDbSymbolTableRecord
100
AcDbRegAppTableRecord
  2
ACAD_EXEMPT_FROM_CAD_STANDARDS
 70
     0
  0
ENDTAB
  0
TABLE
  2
DIMSTYLE
  5
A
330
0
100
AcDbSymbolTable
 70
     1
100
AcDbDimStyleTable
 71
     1
340
27
  0
DIMSTYLE
105
27
102
{ACAD_REACTORS
330
196
330
1B1
330
1CB
330
1E5
330
1FF
330
219
330
2DE
330
33B
330
36A
102
}
330
A
100
AcDbSymbolTableRecord
100
AcDbDimStyleTableRecord
  2
ISO-25
 70
     0
 41
7.5
 42
0.625
 43
3.75
 44
1.25
 73
     0
 74
     0
 78
     8
140
7.5
141
12.0
143
0.03937007874016
147
0.625
171
     3
172
     1
271
     2
272
     2
274
     3
278
    44
283
     0
284
     8
340
11
  0
ENDTAB
  0
TABLE
  2
BLOCK_RECORD
  5
1
330
0
100
AcDbSymbolTable
 70
    10
  0
BLOCK_RECORD
  5
1F
102
{ACAD_XDICTIONARY
360
147
102
}
330
1
100
AcDbSymbolTableRecord
100
AcDbBlockTableRecord
  2
*Model_Space
340
22
 70
     0
280
     1
281
     0
  0
BLOCK_RECORD
  5
D2
330
1
100
AcDbSymbolTableRecord
100
AcDbBlockTableRecord
  2
*Paper_Space
340
D3
 70
     0
280
     1
281
     0
  0
BLOCK_RECORD
  5
D6
330
1
100
AcDbSymbolTableRecord
100
AcDbBlockTableRecord
  2
*Paper_Space0
340
D7
 70
     0
280
     1
281
     0
  0
BLOCK_RECORD
  5
198
330
1
100
AcDbSymbolTableRecord
100
AcDbBlockTableRecord
  2
*D1
340
0
 70
     0
280
     1
281
     0
  0
BLOCK_RECORD
  5
1B2
330
1
100
AcDbSymbolTableRecord
100
AcDbBlockTableRecord
  2
*D2
340
0
 70
     0
280
     1
281
     0
  0
BLOCK_RECORD
  5
1CC
330
1
100
AcDbSymbolTableRecord
100
AcDbBlockTableRecord
  2
*D3
340
0
 70
     0
280
     1
281
     0
  0
BLOCK_RECORD
  5
1E6
330
1
100
AcDbSymbolTableRecord
100
AcDbBlockTableRecord
  2
*D4
340
0
 70
     0
280
     1
281
     0
  0
BLOCK_RECORD
  5
200
330
1
100
AcDbSymbolTableRecord
100
AcDbBlockTableRecord
  2
*D5
340
0
 70
     0
280
     1
281
     0
  0
BLOCK_RECORD
  5
21A
330
1
100
AcDbSymbolTableRecord
100
AcDbBlockTableRecord
  2
*D6
340
0
 70
     0
280
     1
281
     0
  0
BLOCK_RECORD
  5
2DF
330
1
100
AcDbSymbolTableRecord
100
AcDbBlockTableRecord
  2
*D7
340
0
 70
     0
280
     1
281
     0
  0
BLOCK_RECORD
  5
33C
330
1
100
AcDbSymbolTableRecord
100
AcDbBlockTableRecord
  2
*D8
340
0
 70
     0
280
     1
281
     0
  0
BLOCK_RECORD
  5
36B
330
1
100
AcDbSymbolTableRecord
100
AcDbBlockTableRecord
  2
*D9
340
0
 70
     0
280
     1
281
     0
  0
ENDTAB
  0
ENDSEC
  0
SECTION
  2
BLOCKS
  0
BLOCK
  5
20
330
1F
100
AcDbEntity
  8
0
100
AcDbBlockBegin
  2
*Model_Space
 70
     0
 10
0.0
 20
0.0
 30
0.0
  3
*Model_Space
  1

  0
ENDBLK
  5
21
330
1F
100
AcDbEntity
  8
0
100
AcDbBlockEnd
  0
BLOCK
  5
D4
330
D2
100
AcDbEntity
 67
     1
  8
0
100
AcDbBlockBegin
  2
*Paper_Space
 70
     0
 10
0.0
 20
0.0
 30
0.0
  3
*Paper_Space
  1

  0
ENDBLK
  5
D5
330
D2
100
AcDbEntity
 67
     1
  8
0
100
AcDbBlockEnd
  0
BLOCK
  5
D8
330
D6
100
AcDbEntity
 67
     1
  8
0
100
AcDbBlockBegin
  2
*Paper_Space0
 70
     0
 10
0.0
 20
0.0
 30
0.0
  3
*Paper_Space0
  1

  0
ENDBLK
  5
D9
330
D6
100
AcDbEntity
 67
     1
  8
0
100
AcDbBlockEnd
  0
BLOCK
  5
1A3
330
198
100
AcDbEntity
  8
0
100
AcDbBlockBegin
  2
*D1
 70
     1
 10
0.0
 20
0.0
 30
0.0
  3
*D1
  1

  0
LINE
  5
3C3
330
198
100
AcDbEntity
  8
dim
 62
     0
370
    -2
100
AcDbLine
 10
1165.285611908151
 20
988.3588756169997
 30
0.0
 11
810.280516861045
 21
988.3588756169997
 31
0.0
  0
LINE
  5
3C4
330
198
100
AcDbEntity
  8
dim
 62
     0
370
    -2
100
AcDbLine
 10
1165.285611908151
 20
588.3588756169997
 30
0.0
 11
810.2805168610448
 21
588.3588756169997
 31
0.0
  0
LINE
  5
3C5
330
198
100
AcDbEntity
  8
dim
 62
     0
370
    -2
100
AcDbLine
 10
811.5305168610449
 20
980.8588756169996
 30
0.0
 11
811.5305168610449
 21
811.4838756169998
 31
0.0
  0
LINE
  5
3C6
330
198
100
AcDbEntity
  8
dim
 62
     0
370
    -2
100
AcDbLine
 10
811.5305168610447
 20
595.8588756169997
 30
0.0
 11
811.5305168610447
 21
765.2338756169998
 31
0.0
  0
SOLID
  5
3C7
330
198
100
AcDbEntity
  8
dim
 62
     0
100
AcDbTrace
 10
810.280516861045
 20
980.8588756169996
 30
0.0
 11
812.7805168610448
 21
980.8588756169996
 31
0.0
 12
811.5305168610449
 22
988.3588756169997
 32
0.0
 13
811.5305168610449
 23
988.3588756169997
 33
0.0
  0
SOLID
  5
3C8
330
198
100
AcDbEntity
  8
dim
 62
     0
100
AcDbTrace
 10
810.2805168610448
 20
595.8588756169997
 30
0.0
 11
812.7805168610448
 21
595.8588756169997
 31
0.0
 12
811.5305168610447
 22
588.3588756169997
 32
0.0
 13
811.5305168610447
 23
588.3588756169997
 33
0.0
  0
MTEXT
  5
3C9
330
198
100
AcDbEntity
  8
dim
 62
     0
100
AcDbMText
 10
811.5305168610447
 20
788.3588756169999
 30
0.0
 40
7.5
 41
0.0
 46
0.0
 71
     5
 72
     1
  1
15-3/4"
 11
0.0000000000000001
 21
1.0
 31
0.0
 73
     1
 44
1.0
  0
POINT
  5
3CA
330
198
100
AcDbEntity
  8
Defpoints
 62
     0
100
AcDbPoint
 10
1165.910611908151
 20
988.3588756169997
 30
0.0
  0
POINT
  5
3CB
330
198
100
AcDbEntity
  8
Defpoints
 62
     0
100
AcDbPoint
 10
1165.910611908151
 20
588.3588756169997
 30
0.0
  0
POINT
  5
3CC
330
198
100
AcDbEntity
  8
Defpoints
 62
     0
100
AcDbPoint
 10
811.5305168610447
 20
588.3588756169997
 30
0.0
  0
ENDBLK
  5
1A4
330
198
100
AcDbEntity
  8
0
100
AcDbBlockEnd
  0
BLOCK
  5
1BD
330
1B2
100
AcDbEntity
  8
0
100
AcDbBlockBegin
  2
*D2
 70
     1
 10
0.0
 20
0.0
 30
0.0
  3
*D2
  1

  0
LINE
  5
3CD
330
1B2
100
AcDbEntity
  8
dim
 62
     0
370
    -2
100
AcDbLine
 10
1165.285611908151
 20
955.8588756169998
 30
0.0
 11
871.2940583381262
 21
955.8588756169998
 31
0.0
  0
LINE
  5
3CE
330
1B2
100
AcDbEntity
  8
dim
 62
     0
370
    -2
100
AcDbLine
 10
1165.285611908151
 20
620.8588756169997
 30
0.0
 11
871.2940583381261
 21
620.8588756169997
 31
0.0
  0
LINE
  5
3CF
330
1B2
100
AcDbEntity
  8
dim
 62
     0
370
    -2
100
AcDbLine
 10
872.5440583381262
 20
948.3588756169998
 30
0.0
 11
872.5440583381262
 21
810.2338756169999
 31
0.0
  0
LINE
  5
3D0
330
1B2
100
AcDbEntity
  8
dim
 62
     0
370
    -2
100
AcDbLine
 10
872.544058338126
 20
628.3588756169997
 30
0.0
 11
872.544058338126
 21
766.4838756169999
 31
0.0
  0
SOLID
  5
3D1
330
1B2
100
AcDbEntity
  8
dim
 62
     0
100
AcDbTrace
 10
871.2940583381262
 20
948.3588756169998
 30
0.0
 11
873.7940583381261
 21
948.3588756169998
 31
0.0
 12
872.5440583381262
 22
955.8588756169998
 32
0.0
 13
872.5440583381262
 23
955.8588756169998
 33
0.0
  0
SOLID
  5
3D2
330
1B2
100
AcDbEntity
  8
dim
 62
     0
100
AcDbTrace
 10
871.2940583381261
 20
628.3588756169997
 30
0.0
 11
873.7940583381261
 21
628.3588756169997
 31
0.0
 12
872.544058338126
 22
620.8588756169997
 32
0.0
 13
872.544058338126
 23
620.8588756169997
 33
0.0
  0
MTEXT
  5
3D3
330
1B2
100
AcDbEntity
  8
dim
 62
     0
100
AcDbMText
 10
872.544058338126
 20
788.3588756169999
 30
0.0
 40
7.5
 41
0.0
 46
0.0
 71
     5
 72
     1
  1
13-1/4"
 11
0.0000000000000001
 21
1.0
 31
0.0
 73
     1
 44
1.0
  0
POINT
  5
3D4
330
1B2
100
AcDbEntity
  8
Defpoints
 62
     0
100
AcDbPoint
 10
1165.910611908151
 20
955.8588756169998
 30
0.0
  0
POINT
  5
3D5
330
1B2
100
AcDbEntity
  8
Defpoints
 62
     0
100
AcDbPoint
 10
1165.910611908151
 20
620.8588756169997
 30
0.0
  0
POINT
  5
3D6
330
1B2
100
AcDbEntity
  8
Defpoints
 62
     0
100
AcDbPoint
 10
872.544058338126
 20
620.8588756169997
 30
0.0
  0
ENDBLK
  5
1BE
330
1B2
100
AcDbEntity
  8
0
100
AcDbBlockEnd
  0
BLOCK
  5
1D7
330
1CC
100
AcDbEntity
  8
0
100
AcDbBlockBegin
  2
*D3
 70
     1
 10
0.0
 20
0.0
 30
0.0
  3
*D3
  1

  0
LINE
  5
3D7
330
1CC
100
AcDbEntity
  8
dim
 62
     0
370
    -2
100
AcDbLine
 10
915.9106119081508
 20
597.7338756169997
 30
0.0
 11
915.9106119081508
 21
525.5724559688339
 31
0.0
  0
LINE
  5
3D8
330
1CC
100
AcDbEntity
  8
dim
 62
     0
370
    -2
100
AcDbLine
 10
1415.910611908151
 20
597.7338756169997
 30
0.0
 11
1415.910611908151
 21
525.5724559688339
 31
0.0
  0
LINE
  5
3D9
330
1CC
100
AcDbEntity
  8
dim
 62
     0
370
    -2
100
AcDbLine
 10
923.4106119081507
 20
526.8224559688341
 30
0.0
 11
1142.785611908151
 21
526.8224559688341
 31
0.0
  0
LINE
  5
3DA
330
1CC
100
AcDbEntity
  8
dim
 62
     0
370
    -2
100
AcDbLine
 10
1408.410611908151
 20
526.8224559688341
 30
0.0
 11
1189.035611908151
 21
526.8224559688341
 31
0.0
  0
SOLID
  5
3DB
330
1CC
100
AcDbEntity
  8
dim
 62
     0
100
AcDbTrace
 10
923.4106119081507
 20
528.0724559688341
 30
0.0
 11
923.4106119081507
 21
525.5724559688339
 31
0.0
 12
915.9106119081508
 22
526.8224559688341
 32
0.0
 13
915.9106119081508
 23
526.8224559688341
 33
0.0
  0
SOLID
  5
3DC
330
1CC
100
AcDbEntity
  8
dim
 62
     0
100
AcDbTrace
 10
1408.410611908151
 20
528.0724559688341
 30
0.0
 11
1408.410611908151
 21
525.5724559688339
 31
0.0
 12
1415.910611908151
 22
526.8224559688341
 32
0.0
 13
1415.910611908151
 23
526.8224559688341
 33
0.0
  0
MTEXT
  5
3DD
330
1CC
100
AcDbEntity
  8
dim
 62
     0
100
AcDbMText
 10
1165.910611908151
 20
526.8224559688341
 30
0.0
 40
7.5
 41
0.0
 46
0.0
 71
     5
 72
     1
  1
19-3/4"
 73
     1
 44
1.0
  0
POINT
  5
3DE
330
1CC
100
AcDbEntity
  8
Defpoints
 62
     0
100
AcDbPoint
 10
915.9106119081508
 20
598.3588756169997
 30
0.0
  0
POINT
  5
3DF
330
1CC
100
AcDbEntity
  8
Defpoints
 62
     0
100
AcDbPoint
 10
1415.910611908151
 20
598.3588756169997
 30
0.0
  0
POINT
  5
3E0
330
1CC
100
AcDbEntity
  8
Defpoints
 62
     0
100
AcDbPoint
 10
1415.910611908151
 20
526.8224559688341
 30
0.0
  0
ENDBLK
  5
1D8
330
1CC
100
AcDbEntity
  8
0
100
AcDbBlockEnd
  0
BLOCK
  5
1F1
330
1E6
100
AcDbEntity
  8
0
100
AcDbBlockBegin
  2
*D4
 70
     1
 10
0.0
 20
0.0
 30
0.0
  3
*D4
  1

  0
LINE
  5
3E1
330
1E6
100
AcDbEntity
  8
dim
 62
     0
370
    -2
100
AcDbLine
 10
948.4106119081507
 20
630.2338756169997
 30
0.0
 11
948.4106119081507
 21
560.8205841308707
 31
0.0
  0
LINE
  5
3E2
330
1E6
100
AcDbEntity
  8
dim
 62
     0
370
    -2
100
AcDbLine
 10
1383.410611908151
 20
630.2338756169997
 30
0.0
 11
1383.410611908151
 21
560.8205841308707
 31
0.0
  0
LINE
  5
3E3
330
1E6
100
AcDbEntity
  8
dim
 62
     0
370
    -2
100
AcDbLine
 10
955.9106119081508
 20
562.0705841308708
 30
0.0
 11
1144.035611908151
 21
562.0705841308708
 31
0.0
  0
LINE
  5
3E4
330
1E6
100
AcDbEntity
  8
dim
 62
     0
370
    -2
100
AcDbLine
 10
1375.910611908151
 20
562.0705841308708
 30
0.0
 11
1187.785611908151
 21
562.0705841308708
 31
0.0
  0
SOLID
  5
3E5
330
1E6
100
AcDbEntity
  8
dim
 62
     0
100
AcDbTrace
 10
955.9106119081508
 20
563.3205841308707
 30
0.0
 11
955.9106119081508
 21
560.8205841308707
 31
0.0
 12
948.4106119081507
 22
562.0705841308708
 32
0.0
 13
948.4106119081507
 23
562.0705841308708
 33
0.0
  0
SOLID
  5
3E6
330
1E6
100
AcDbEntity
  8
dim
 62
     0
100
AcDbTrace
 10
1375.910611908151
 20
563.3205841308707
 30
0.0
 11
1375.910611908151
 21
560.8205841308707
 31
0.0
 12
1383.410611908151
 22
562.0705841308708
 32
0.0
 13
1383.410611908151
 23
562.0705841308708
 33
0.0
  0
MTEXT
  5
3E7
330
1E6
100
AcDbEntity
  8
dim
 62
     0
100
AcDbMText
 10
1165.910611908151
 20
562.0705841308708
 30
0.0
 40
7.5
 41
0.0
 46
0.0
 71
     5
 72
     1
  1
17-1/4"
 73
     1
 44
1.0
  0
POINT
  5
3E8
330
1E6
100
AcDbEntity
  8
Defpoints
 62
     0
100
AcDbPoint
 10
948.4106119081507
 20
630.8588756169997
 30
0.0
  0
POINT
  5
3E9
330
1E6
100
AcDbEntity
  8
Defpoints
 62
     0
100
AcDbPoint
 10
1383.410611908151
 20
630.8588756169997
 30
0.0
  0
POINT
  5
3EA
330
1E6
100
AcDbEntity
  8
Defpoints
 62
     0
100
AcDbPoint
 10
1383.410611908151
 20
562.0705841308708
 30
0.0
  0
ENDBLK
  5
1F2
330
1E6
100
AcDbEntity
  8
0
100
AcDbBlockEnd
  0
BLOCK
  5
20B
330
200
100
AcDbEntity
  8
0
100
AcDbBlockBegin
  2
*D5
 70
     1
 10
0.0
 20
0.0
 30
0.0
  3
*D5
  1

  0
LINE
  5
3EB
330
200
100
AcDbEntity
  8
dim
 62
     0
370
    -2
100
AcDbLine
 10
1165.285611908151
 20
431.2674065624191
 30
0.0
 11
841.9156388750462
 21
431.2674065624191
 31
0.0
  0
LINE
  5
3EC
330
200
100
AcDbEntity
  8
dim
 62
     0
370
    -2
100
AcDbLine
 10
1165.285611908151
 20
251.2674065624192
 30
0.0
 11
841.915638875046
 21
251.2674065624193
 31
0.0
  0
LINE
  5
3ED
330
200
100
AcDbEntity
  8
dim
 62
     0
370
    -2
100
AcDbLine
 10
843.1656388750461
 20
423.7674065624191
 30
0.0
 11
843.1656388750461
 21
360.6424065624193
 31
0.0
  0
LINE
  5
3EE
330
200
100
AcDbEntity
  8
dim
 62
     0
370
    -2
100
AcDbLine
 10
843.1656388750461
 20
258.7674065624193
 30
0.0
 11
843.1656388750461
 21
321.8924065624193
 31
0.0
  0
SOLID
  5
3EF
330
200
100
AcDbEntity
  8
dim
 62
     0
100
AcDbTrace
 10
841.9156388750462
 20
423.7674065624191
 30
0.0
 11
844.4156388750462
 21
423.7674065624191
 31
0.0
 12
843.1656388750461
 22
431.2674065624191
 32
0.0
 13
843.1656388750461
 23
431.2674065624191
 33
0.0
  0
SOLID
  5
3F0
330
200
100
AcDbEntity
  8
dim
 62
     0
100
AcDbTrace
 10
841.9156388750462
 20
258.7674065624193
 30
0.0
 11
844.4156388750462
 21
258.7674065624193
 31
0.0
 12
843.1656388750461
 22
251.2674065624193
 32
0.0
 13
843.1656388750461
 23
251.2674065624193
 33
0.0
  0
MTEXT
  5
3F1
330
200
100
AcDbEntity
  8
dim
 62
     0
100
AcDbMText
 10
843.1656388750461
 20
341.2674065624194
 30
0.0
 40
7.5
 41
0.0
 46
0.0
 71
     5
 72
     1
  1
7-1/8"
 11
0.0000000000000001
 21
1.0
 31
0.0
 73
     1
 44
1.0
  0
POINT
  5
3F2
330
200
100
AcDbEntity
  8
Defpoints
 62
     0
100
AcDbPoint
 10
1165.910611908151
 20
431.2674065624191
 30
0.0
  0
POINT
  5
3F3
330
200
100
AcDbEntity
  8
Defpoints
 62
     0
100
AcDbPoint
 10
1165.910611908151
 20
251.2674065624192
 30
0.0
  0
POINT
  5
3F4
330
200
100
AcDbEntity
  8
Defpoints
 62
     0
100
AcDbPoint
 10
843.1656388750461
 20
251.2674065624193
 30
0.0
  0
ENDBLK
  5
20C
330
200
100
AcDbEntity
  8
0
100
AcDbBlockEnd
  0
BLOCK
  5
225
330
21A
100
AcDbEntity
  8
0
100
AcDbBlockBegin
  2
*D6
 70
     1
 10
0.0
 20
0.0
 30
0.0
  3
*D6
  1

  0
LINE
  5
3F5
330
21A
100
AcDbEntity
  8
dim
 62
     0
370
    -2
100
AcDbLine
 10
1165.285611908151
 20
431.2674065624191
 30
0.0
 11
888.3120457115648
 21
431.2674065624191
 31
0.0
  0
LINE
  5
3F6
330
21A
100
AcDbEntity
  8
dim
 62
     0
370
    -2
100
AcDbLine
 10
1165.285611908151
 20
291.2674065624192
 30
0.0
 11
888.3120457115648
 21
291.2674065624193
 31
0.0
  0
LINE
  5
3F7
330
21A
100
AcDbEntity
  8
dim
 62
     0
370
    -2
100
AcDbLine
 10
889.5620457115647
 20
423.7674065624191
 30
0.0
 11
889.5620457115647
 21
380.6424065624192
 31
0.0
  0
LINE
  5
3F8
330
21A
100
AcDbEntity
  8
dim
 62
     0
370
    -2
100
AcDbLine
 10
889.5620457115647
 20
298.7674065624193
 30
0.0
 11
889.5620457115647
 21
341.8924065624192
 31
0.0
  0
SOLID
  5
3F9
330
21A
100
AcDbEntity
  8
dim
 62
     0
100
AcDbTrace
 10
888.3120457115648
 20
423.7674065624191
 30
0.0
 11
890.8120457115648
 21
423.7674065624191
 31
0.0
 12
889.5620457115647
 22
431.2674065624191
 32
0.0
 13
889.5620457115647
 23
431.2674065624191
 33
0.0
  0
SOLID
  5
3FA
330
21A
100
AcDbEntity
  8
dim
 62
     0
100
AcDbTrace
 10
888.3120457115648
 20
298.7674065624193
 30
0.0
 11
890.8120457115648
 21
298.7674065624193
 31
0.0
 12
889.5620457115647
 22
291.2674065624193
 32
0.0
 13
889.5620457115647
 23
291.2674065624193
 33
0.0
  0
MTEXT
  5
3FB
330
21A
100
AcDbEntity
  8
dim
 62
     0
100
AcDbMText
 10
889.5620457115647
 20
361.2674065624194
 30
0.0
 40
7.5
 41
0.0
 46
0.0
 71
     5
 72
     1
  1
5-1/2"
 11
0.0000000000000001
 21
1.0
 31
0.0
 73
     1
 44
1.0
  0
POINT
  5
3FC
330
21A
100
AcDbEntity
  8
Defpoints
 62
     0
100
AcDbPoint
 10
1165.910611908151
 20
431.2674065624191
 30
0.0
  0
POINT
  5
3FD
330
21A
100
AcDbEntity
  8
Defpoints
 62
     0
100
AcDbPoint
 10
1165.910611908151
 20
291.2674065624192
 30
0.0
  0
POINT
  5
3FE
330
21A
100
AcDbEntity
  8
Defpoints
 62
     0
100
AcDbPoint
 10
889.5620457115647
 20
291.2674065624193
 30
0.0
  0
ENDBLK
  5
226
330
21A
100
AcDbEntity
  8
0
100
AcDbBlockEnd
  0
BLOCK
  5
2E8
330
2DF
100
AcDbEntity
  8
0
100
AcDbBlockBegin
  2
*D7
 70
     1
 10
0.0
 20
0.0
 30
0.0
  3
*D7
  1

  0
LINE
  5
3FF
330
2DF
100
AcDbEntity
  8
dim
 62
     0
370
    -2
100
AcDbLine
 10
1113.852879175
 20
816.7638783884198
 30
0.0
 11
1140.453670765061
 21
802.2493092904753
 31
0.0
  0
LINE
  5
400
330
2DF
100
AcDbEntity
  8
dim
 62
     0
370
    -2
100
AcDbLine
 10
1191.367553051241
 20
774.4684419435237
 30
0.0
 11
1197.951244726178
 21
770.8760884072801
 31
0.0
  0
MTEXT
  5
401
330
2DF
100
AcDbEntity
  8
dim
 62
     0
100
AcDbMText
 10
1098.71035759875
 20
825.0263082860971
 30
0.0
 40
7.5
 41
0.0
 46
0.0
 71
     5
 72
     1
  1
{\H1.4x;%%C1\H0.7x;\S11/16;\H1.4286x;"}
 11
0.8778255566582886
 21
-0.4789804714991685
 31
0.0
 73
     1
 44
1.0
  0
LINE
  5
402
330
2DF
100
AcDbEntity
  8
dim
 62
     0
370
    -2
100
AcDbLine
 10
1184.783861376304
 20
778.0607954797676
 30
0.0
 11
1147.037362439998
 21
798.6569557542316
 31
0.0
  0
SOLID
  5
403
330
2DF
100
AcDbEntity
  8
dim
 62
     0
100
AcDbTrace
 10
1191.966278640615
 20
775.5657238893468
 30
0.0
 11
1190.768827461867
 21
773.371159997701
 31
0.0
 12
1184.783861376304
 22
778.0607954797676
 32
0.0
 13
1184.783861376304
 23
778.0607954797676
 33
0.0
  0
SOLID
  5
404
330
2DF
100
AcDbEntity
  8
dim
 62
     0
100
AcDbTrace
 10
1141.052396354435
 20
803.3465912362981
 30
0.0
 11
1139.854945175687
 21
801.1520273446524
 31
0.0
 12
1147.037362439998
 22
798.6569557542316
 32
0.0
 13
1147.037362439998
 23
798.6569557542316
 33
0.0
  0
POINT
  5
405
330
2DF
100
AcDbEntity
  8
Defpoints
 62
     0
100
AcDbPoint
 10
1147.037362439998
 20
798.6569557542316
 30
0.0
  0
POINT
  5
406
330
2DF
100
AcDbEntity
  8
Defpoints
 62
     0
100
AcDbPoint
 10
1184.783861376304
 20
778.0607954797676
 30
0.0
  0
ENDBLK
  5
2E9
330
2DF
100
AcDbEntity
  8
0
100
AcDbBlockEnd
  0
BLOCK
  5
347
330
33C
100
AcDbEntity
  8
0
100
AcDbBlockBegin
  2
*D8
 70
     1
 10
0.0
 20
0.0
 30
0.0
  3
*D8
  1

  0
LINE
  5
422
330
33C
100
AcDbEntity
  8
0
 62
     0
370
    -2
100
AcDbLine
 10
953.410611908151
 20
788.9838756169998
 30
0.0
 11
953.410611908151
 21
789.6088756169998
 31
0.0
  0
LINE
  5
423
330
33C
100
AcDbEntity
  8
0
 62
     0
370
    -2
100
AcDbLine
 10
1378.410611908151
 20
788.9838756169998
 30
0.0
 11
1378.410611908151
 21
789.6088756169998
 31
0.0
  0
LINE
  5
424
330
33C
100
AcDbEntity
  8
0
 62
     0
370
    -2
100
AcDbLine
 10
960.9106119081509
 20
788.3588756169999
 30
0.0
 11
1003.719208725767
 21
788.3588756169999
 31
0.0
  0
LINE
  5
425
330
33C
100
AcDbEntity
  8
0
 62
     0
370
    -2
100
AcDbLine
 10
1370.910611908151
 20
788.3588756169999
 30
0.0
 11
1049.969208725767
 21
788.3588756169999
 31
0.0
  0
SOLID
  5
426
330
33C
100
AcDbEntity
  8
0
 62
     0
100
AcDbTrace
 10
960.9106119081509
 20
789.6088756169998
 30
0.0
 11
960.9106119081509
 21
787.1088756169998
 31
0.0
 12
953.410611908151
 22
788.3588756169999
 32
0.0
 13
953.410611908151
 23
788.3588756169999
 33
0.0
  0
SOLID
  5
427
330
33C
100
AcDbEntity
  8
0
 62
     0
100
AcDbTrace
 10
1370.910611908151
 20
789.6088756169998
 30
0.0
 11
1370.910611908151
 21
787.1088756169998
 31
0.0
 12
1378.410611908151
 22
788.3588756169999
 32
0.0
 13
1378.410611908151
 23
788.3588756169999
 33
0.0
  0
MTEXT
  5
428
330
33C
100
AcDbEntity
  8
0
 62
     0
100
AcDbMText
 10
1026.844208725767
 20
788.3588756169999
 30
0.0
 40
7.5
 41
0.0
 46
0.0
 71
     5
 72
     1
  1
16-3/4"
 73
     1
 44
1.0
  0
POINT
  5
429
330
33C
100
AcDbEntity
  8
Defpoints
 62
     0
100
AcDbPoint
 10
953.410611908151
 20
788.3588756169999
 30
0.0
  0
POINT
  5
42A
330
33C
100
AcDbEntity
  8
Defpoints
 62
     0
100
AcDbPoint
 10
1378.410611908151
 20
788.3588756169999
 30
0.0
  0
POINT
  5
42B
330
33C
100
AcDbEntity
  8
Defpoints
 62
     0
100
AcDbPoint
 10
1378.410611908151
 20
788.3588756169999
 30
0.0
  0
ENDBLK
  5
348
330
33C
100
AcDbEntity
  8
0
100
AcDbBlockEnd
  0
BLOCK
  5
376
330
36B
100
AcDbEntity
  8
0
100
AcDbBlockBegin
  2
*D9
 70
     1
 10
0.0
 20
0.0
 30
0.0
  3
*D9
  1

  0
LINE
  5
42C
330
36B
100
AcDbEntity
  8
0
 62
     0
370
    -2
100
AcDbLine
 10
1164.660611908151
 20
950.8588756169999
 30
0.0
 11
1164.03561190815
 21
950.8588756169999
 31
0.0
  0
LINE
  5
42D
330
36B
100
AcDbEntity
  8
0
 62
     0
370
    -2
100
AcDbLine
 10
1164.660611908151
 20
625.8588756169999
 30
0.0
 11
1164.03561190815
 21
625.8588756169999
 31
0.0
  0
LINE
  5
42E
330
36B
100
AcDbEntity
  8
0
 62
     0
370
    -2
100
AcDbLine
 10
1165.28561190815
 20
943.3588756169999
 30
0.0
 11
1165.28561190815
 21
897.2532378606244
 31
0.0
  0
LINE
  5
42F
330
36B
100
AcDbEntity
  8
0
 62
     0
370
    -2
100
AcDbLine
 10
1165.28561190815
 20
633.3588756169998
 30
0.0
 11
1165.28561190815
 21
851.0032378606243
 31
0.0
  0
SOLID
  5
430
330
36B
100
AcDbEntity
  8
0
 62
     0
100
AcDbTrace
 10
1164.03561190815
 20
943.3588756169999
 30
0.0
 11
1166.53561190815
 21
943.3588756169999
 31
0.0
 12
1165.28561190815
 22
950.8588756169999
 32
0.0
 13
1165.28561190815
 23
950.8588756169999
 33
0.0
  0
SOLID
  5
431
330
36B
100
AcDbEntity
  8
0
 62
     0
100
AcDbTrace
 10
1164.03561190815
 20
633.3588756169998
 30
0.0
 11
1166.53561190815
 21
633.3588756169998
 31
0.0
 12
1165.28561190815
 22
625.8588756169999
 32
0.0
 13
1165.28561190815
 23
625.8588756169999
 33
0.0
  0
MTEXT
  5
432
330
36B
100
AcDbEntity
  8
0
 62
     0
100
AcDbMText
 10
1165.28561190815
 20
874.1282378606245
 30
0.0
 40
7.5
 41
0.0
 46
0.0
 71
     5
 72
     1
  1
12-3/4"
 11
0.0000000000000001
 21
1.0
 31
0.0
 73
     1
 44
1.0
  0
POINT
  5
433
330
36B
100
AcDbEntity
  8
Defpoints
 62
     0
100
AcDbPoint
 10
1165.285611908151
 20
950.8588756169999
 30
0.0
  0
POINT
  5
434
330
36B
100
AcDbEntity
  8
Defpoints
 62
     0
100
AcDbPoint
 10
1165.285611908151
 20
625.8588756169999
 30
0.0
  0
POINT
  5
435
330
36B
100
AcDbEntity
  8
Defpoints
 62
     0
100
AcDbPoint
 10
1165.28561190815
 20
625.8588756169999
 30
0.0
  0
ENDBLK
  5
377
330
36B
100
AcDbEntity
  8
0
100
AcDbBlockEnd
  0
ENDSEC
  0
SECTION
  2
ENTITIES
  0
LINE
  5
13A
330
1F
100
AcDbEntity
  8
con
100
AcDbLine
 10
1165.910611908151
 20
988.3588756169997
 30
0.0
 11
1405.910611908151
 21
988.3588756169997
 31
0.0
  0
LINE
  5
13B
330
1F
100
AcDbEntity
  8
con
100
AcDbLine
 10
1415.910611908151
 20
978.3588756169995
 30
0.0
 11
1415.910611908151
 21
598.3588756169997
 31
0.0
  0
LINE
  5
13C
330
1F
100
AcDbEntity
  8
con
100
AcDbLine
 10
1405.910611908151
 20
588.3588756169997
 30
0.0
 11
925.9106119081508
 21
588.3588756169997
 31
0.0
  0
LINE
  5
13D
330
1F
100
AcDbEntity
  8
con
100
AcDbLine
 10
915.9106119081508
 20
598.3588756169997
 30
0.0
 11
915.9106119081506
 21
978.3588756169995
 31
0.0
  0
LINE
  5
13E
102
{ACAD_REACTORS
330
1B0
102
}
330
1F
100
AcDbEntity
  8
con
100
AcDbLine
 10
925.9106119081506
 20
988.3588756169997
 30
0.0
 11
1165.910611908151
 21
988.3588756169997
 31
0.0
  0
LINE
  5
140
330
1F
100
AcDbEntity
  8
con
100
AcDbLine
 10
1165.910611908151
 20
955.8588756169998
 30
0.0
 11
1373.410611908151
 21
955.8588756169998
 31
0.0
  0
LINE
  5
141
330
1F
100
AcDbEntity
  8
con
100
AcDbLine
 10
1383.410611908151
 20
945.8588756169998
 30
0.0
 11
1383.410611908151
 21
630.8588756169997
 31
0.0
  0
LINE
  5
142
330
1F
100
AcDbEntity
  8
con
100
AcDbLine
 10
1373.410611908151
 20
620.8588756169997
 30
0.0
 11
958.4106119081509
 21
620.8588756169997
 31
0.0
  0
LINE
  5
143
330
1F
100
AcDbEntity
  8
con
100
AcDbLine
 10
948.4106119081507
 20
630.8588756169997
 30
0.0
 11
948.4106119081507
 21
945.8588756169998
 31
0.0
  0
LINE
  5
144
102
{ACAD_REACTORS
330
1CA
102
}
330
1F
100
AcDbEntity
  8
con
100
AcDbLine
 10
958.4106119081509
 20
955.8588756169998
 30
0.0
 11
1165.910611908151
 21
955.8588756169998
 31
0.0
  0
CIRCLE
  5
145
102
{ACAD_REACTORS
330
2F3
102
}
330
1F
100
AcDbEntity
  8
con
100
AcDbCircle
 10
1165.910611908151
 20
788.3588756169999
 30
0.0
 40
21.5
  0
ARC
  5
146
330
1F
100
AcDbEntity
  8
con
100
AcDbCircle
 10
1405.910611908151
 20
978.3588756169995
 30
0.0
 40
10.0
100
AcDbArc
 50
0.0
 51
90.0
  0
ARC
  5
149
330
1F
100
AcDbEntity
  8
con
100
AcDbCircle
 10
1373.410611908151
 20
945.8588756169998
 30
0.0
 40
10.0
100
AcDbArc
 50
0.0
 51
90.0
  0
ARC
  5
14A
330
1F
100
AcDbEntity
  8
con
100
AcDbCircle
 10
958.4106119081509
 20
945.8588756169998
 30
0.0
 40
10.0
100
AcDbArc
 50
90.0
 51
180.0
  0
ARC
  5
14B
330
1F
100
AcDbEntity
  8
con
100
AcDbCircle
 10
925.9106119081506
 20
978.3588756169995
 30
0.0
 40
10.0
100
AcDbArc
 50
90.0
 51
180.0
  0
ARC
  5
14C
102
{ACAD_REACTORS
330
1E4
102
}
330
1F
100
AcDbEntity
  8
con
100
AcDbCircle
 10
925.9106119081508
 20
598.3588756169997
 30
0.0
 40
10.0
100
AcDbArc
 50
180.0
 51
270.0
  0
ARC
  5
14D
102
{ACAD_REACTORS
330
1FE
102
}
330
1F
100
AcDbEntity
  8
con
100
AcDbCircle
 10
958.4106119081509
 20
630.8588756169997
 30
0.0
 40
10.0
100
AcDbArc
 50
180.0
 51
270.0
  0
ARC
  5
14E
102
{ACAD_REACTORS
330
1FE
102
}
330
1F
100
AcDbEntity
  8
con
100
AcDbCircle
 10
1373.410611908151
 20
630.8588756169997
 30
0.0
 40
10.0
100
AcDbArc
 50
270.0
 51
0.0
  0
ARC
  5
14F
102
{ACAD_REACTORS
330
1E4
102
}
330
1F
100
AcDbEntity
  8
con
100
AcDbCircle
 10
1405.910611908151
 20
598.3588756169997
 30
0.0
 40
10.0
100
AcDbArc
 50
270.0
 51
0.0
  0
LINE
  5
153
330
1F
100
AcDbEntity
  8
con
100
AcDbLine
 10
1415.910611908151
 20
421.2674065624192
 30
0.0
 11
1415.910611908151
 21
411.2674065624191
 31
0.0
  0
LINE
  5
154
330
1F
100
AcDbEntity
  8
con
100
AcDbLine
 10
1415.910611908151
 20
411.2674065624191
 30
0.0
 11
1400.366862803651
 21
411.2674065624188
 31
0.0
  0
LINE
  5
155
330
1F
100
AcDbEntity
  8
con
100
AcDbLine
 10
915.9106119081506
 20
411.2674065624191
 30
0.0
 11
915.9106119081506
 21
421.2674065624192
 31
0.0
  0
LINE
  5
156
102
{ACAD_REACTORS
330
218
330
232
102
}
330
1F
100
AcDbEntity
  8
con
100
AcDbLine
 10
925.9106119081506
 20
431.2674065624191
 30
0.0
 11
1165.910611908151
 21
431.2674065624191
 31
0.0
  0
LINE
  5
158
330
1F
100
AcDbEntity
  8
con
100
AcDbLine
 10
1165.910611908151
 20
431.2674065624191
 30
0.0
 11
1405.910611908151
 21
431.2674065624191
 31
0.0
  0
LINE
  5
161
330
1F
100
AcDbEntity
  8
con
100
AcDbLine
 10
1125.298426985788
 20
392.7632055272519
 30
0.0
 11
1135.216704369332
 21
260.5195070800028
 31
0.0
  0
LINE
  5
162
330
1F
100
AcDbEntity
  8
con
100
AcDbLine
 10
1206.522796830513
 20
392.7632055272519
 30
0.0
 11
1196.604519446969
 21
260.5195070800028
 31
0.0
  0
LINE
  5
169
330
1F
100
AcDbEntity
  8
con
100
AcDbLine
 10
1198.16061190815
 20
281.2674065624191
 30
0.0
 11
1354.173106535145
 21
281.2674065624192
 31
0.0
  0
LINE
  5
16A
330
1F
100
AcDbEntity
  8
con
100
AcDbLine
 10
1133.66061190815
 20
281.2674065624191
 30
0.0
 11
977.6481172811562
 21
281.2674065624192
 31
0.0
  0
LINE
  5
16B
330
1F
100
AcDbEntity
  8
con
100
AcDbLine
 10
936.4214056920056
 20
406.8405271023449
 30
0.0
 11
947.8458492050222
 21
307.8286833228653
 31
0.0
  0
LINE
  5
16C
330
1F
100
AcDbEntity
  8
con
100
AcDbLine
 10
1395.399818124296
 20
406.8405271023445
 30
0.0
 11
1383.975374611279
 21
307.8286833228653
 31
0.0
  0
LINE
  5
16D
330
1F
100
AcDbEntity
  8
con
100
AcDbLine
 10
1145.188697468216
 20
251.2674065624192
 30
0.0
 11
1186.632526348085
 21
251.2674065624192
 31
0.0
  0
ARC
  5
172
330
1F
100
AcDbEntity
  8
con
100
AcDbCircle
 10
977.6481172811562
 20
311.2674065624192
 30
0.0
 40
30.0
100
AcDbArc
 50
186.581944655178
 51
270.0
  0
ARC
  5
173
330
1F
100
AcDbEntity
  8
con
100
AcDbCircle
 10
1354.173106535145
 20
311.2674065624192
 30
0.0
 40
30.0
100
AcDbArc
 50
270.0
 51
353.418055344822
  0
ARC
  5
174
330
1F
100
AcDbEntity
  8
con
100
AcDbCircle
 10
1186.632526348085
 20
261.2674065624192
 30
0.0
 40
10.0
100
AcDbArc
 50
270.0
 51
355.710846671181
  0
ARC
  5
175
330
1F
100
AcDbEntity
  8
con
100
AcDbCircle
 10
1145.188697468216
 20
261.2674065624192
 30
0.0
 40
10.0
100
AcDbArc
 50
184.289153328819
 51
270.0
  0
ARC
  5
176
330
1F
100
AcDbEntity
  8
con
100
AcDbCircle
 10
925.9106119081506
 20
421.2674065624192
 30
0.0
 40
10.0
100
AcDbArc
 50
90.0
 51
180.0
  0
ARC
  5
177
330
1F
100
AcDbEntity
  8
con
100
AcDbCircle
 10
1405.910611908151
 20
421.2674065624192
 30
0.0
 40
10.0
100
AcDbArc
 50
0.0
 51
90.0
  0
ARC
  5
178
330
1F
100
AcDbEntity
  8
con
100
AcDbCircle
 10
1226.466783028282
 20
391.2674065624191
 30
0.0
 40
20.0
100
AcDbArc
 50
90.0
 51
175.7108466711809
  0
LINE
  5
179
330
1F
100
AcDbEntity
  8
con
100
AcDbLine
 10
915.9106119081506
 20
411.2674065624191
 30
0.0
 11
931.45436101265
 21
411.2674065624191
 31
0.0
  0
ARC
  5
17A
330
1F
100
AcDbEntity
  8
con
100
AcDbCircle
 10
1105.354440788019
 20
391.2674065624192
 30
0.0
 40
20.0
100
AcDbArc
 50
4.289153328818993
 51
90.0
  0
ARC
  5
17B
330
1F
100
AcDbEntity
  8
con
100
AcDbCircle
 10
1400.366862803651
 20
406.2674065624189
 30
0.0
 40
5.0
100
AcDbArc
 50
90.00000000000005
 51
173.4180553448221
  0
ARC
  5
17C
330
1F
100
AcDbEntity
  8
con
100
AcDbCircle
 10
931.45436101265
 20
406.2674065624191
 30
0.0
 40
5.0
100
AcDbArc
 50
6.58194465517803
 51
90.0
  0
LINE
  5
17D
330
1F
100
AcDbEntity
  8
con
100
AcDbLine
 10
931.45436101265
 20
411.2674065624193
 30
0.0
 11
1105.354440788019
 21
411.2674065624191
 31
0.0
  0
LINE
  5
17E
330
1F
100
AcDbEntity
  8
con
100
AcDbLine
 10
1226.466783028282
 20
411.2674065624191
 30
0.0
 11
1400.366862803651
 21
411.2674065624188
 31
0.0
  0
LINE
  5
185
330
1F
100
AcDbEntity
  8
dash
100
AcDbLine
 10
1165.910611908151
 20
291.2674065624192
 30
0.0
 11
1340.519260381299
 21
291.2674065624192
 31
0.0
  0
LINE
  5
190
330
1F
100
AcDbEntity
  8
dash
100
AcDbLine
 10
1383.410611908151
 20
431.2674065624191
 30
0.0
 11
1370.321528457433
 21
317.8286833228654
 31
0.0
  0
ARC
  5
192
330
1F
100
AcDbEntity
  8
dash
100
AcDbCircle
 10
1340.519260381299
 20
321.2674065624192
 30
0.0
 40
30.0
100
AcDbArc
 50
270.0
 51
353.4180553448222
  0
LINE
  5
193
102
{ACAD_REACTORS
330
232
102
}
330
1F
100
AcDbEntity
  8
dash
100
AcDbLine
 10
1165.910611908151
 20
291.2674065624192
 30
0.0
 11
991.3019634350019
 21
291.2674065624192
 31
0.0
  0
ARC
  5
194
330
1F
100
AcDbEntity
  8
dash
100
AcDbCircle
 10
991.3019634350019
 20
321.2674065624192
 30
0.0
 40
30.0
100
AcDbArc
 50
186.5819446551772
 51
270.0
  0
LINE
  5
195
330
1F
100
AcDbEntity
  8
dash
100
AcDbLine
 10
948.4106119081507
 20
431.2674065624191
 30
0.0
 11
961.4996953588679
 21
317.8286833228654
 31
0.0
  0
DIMENSION
  5
196
102
{ACAD_XDICTIONARY
360
1A5
102
}
102
{ACAD_REACTORS
330
1B0
102
}
330
1F
100
AcDbEntity
  8
dim
100
AcDbDimension
  2
*D1
 10
811.5305168610447
 20
588.3588756169997
 30
0.0
 11
811.5305168610447
 21
788.3588756169999
 31
0.0
 70
    32
  1
15-3/4"
 71
     5
 42
399.9999999999998
 73
     0
 74
     0
 75
     0
  3
ISO-25
100
AcDbAlignedDimension
 13
1165.910611908151
 23
988.3588756169997
 33
0.0
 14
1165.910611908151
 24
588.3588756169997
 34
0.0
 50
90.0
100
AcDbRotatedDimension
  0
DIMENSION
  5
1B1
102
{ACAD_XDICTIONARY
360
1BF
102
}
102
{ACAD_REACTORS
330
1CA
102
}
330
1F
100
AcDbEntity
  8
dim
100
AcDbDimension
  2
*D2
 10
872.544058338126
 20
620.8588756169997
 30
0.0
 11
872.544058338126
 21
788.3588756169999
 31
0.0
 70
    32
  1
13-1/4"
 71
     5
 42
335.0000000000001
 73
     0
 74
     0
 75
     0
  3
ISO-25
100
AcDbAlignedDimension
 13
1165.910611908151
 23
955.8588756169998
 33
0.0
 14
1165.910611908151
 24
620.8588756169997
 34
0.0
 50
90.0
100
AcDbRotatedDimension
  0
DIMENSION
  5
1CB
102
{ACAD_XDICTIONARY
360
1D9
102
}
102
{ACAD_REACTORS
330
1E4
102
}
330
1F
100
AcDbEntity
  8
dim
100
AcDbDimension
  2
*D3
 10
1415.910611908151
 20
526.8224559688341
 30
0.0
 11
1165.910611908151
 21
526.8224559688341
 31
0.0
 70
    32
  1
19-3/4"
 71
     5
 42
500.0
 73
     0
 74
     0
 75
     0
  3
ISO-25
100
AcDbAlignedDimension
 13
915.9106119081508
 23
598.3588756169997
 33
0.0
 14
1415.910611908151
 24
598.3588756169997
 34
0.0
100
AcDbRotatedDimension
  0
DIMENSION
  5
1E5
102
{ACAD_XDICTIONARY
360
1F3
102
}
102
{ACAD_REACTORS
330
1FE
102
}
330
1F
100
AcDbEntity
  8
dim
100
AcDbDimension
  2
*D4
 10
1383.410611908151
 20
562.0705841308708
 30
0.0
 11
1165.910611908151
 21
562.0705841308708
 31
0.0
 70
    32
  1
17-1/4"
 71
     5
 42
435.0000000000001
 73
     0
 74
     0
 75
     0
  3
ISO-25
100
AcDbAlignedDimension
 13
948.4106119081507
 23
630.8588756169997
 33
0.0
 14
1383.410611908151
 24
630.8588756169997
 34
0.0
100
AcDbRotatedDimension
  0
DIMENSION
  5
1FF
102
{ACAD_XDICTIONARY
360
20D
102
}
102
{ACAD_REACTORS
330
218
102
}
330
1F
100
AcDbEntity
  8
dim
100
AcDbDimension
  2
*D5
 10
843.1656388750461
 20
251.2674065624193
 30
0.0
 11
843.1656388750461
 21
341.2674065624194
 31
0.0
 70
    32
  1
7-1/8"
 71
     5
 42
179.9999999999999
 73
     0
 74
     0
 75
     0
  3
ISO-25
100
AcDbAlignedDimension
 13
1165.910611908151
 23
431.2674065624191
 33
0.0
 14
1165.910611908151
 24
251.2674065624192
 34
0.0
 50
90.0
100
AcDbRotatedDimension
  0
DIMENSION
  5
219
102
{ACAD_XDICTIONARY
360
227
102
}
102
{ACAD_REACTORS
330
232
102
}
330
1F
100
AcDbEntity
  8
dim
100
AcDbDimension
  2
*D6
 10
889.5620457115647
 20
291.2674065624193
 30
0.0
 11
889.5620457115647
 21
361.2674065624194
 31
0.0
 70
    32
  1
5-1/2"
 71
     5
 42
139.9999999999999
 73
     0
 74
     0
 75
     0
  3
ISO-25
100
AcDbAlignedDimension
 13
1165.910611908151
 23
431.2674065624191
 33
0.0
 14
1165.910611908151
 24
291.2674065624192
 34
0.0
 50
90.0
100
AcDbRotatedDimension
  0
DIMENSION
  5
2DE
102
{ACAD_XDICTIONARY
360
2EA
102
}
102
{ACAD_REACTORS
330
2F3
102
}
330
1F
100
AcDbEntity
  8
dim
100
AcDbDimension
  2
*D7
 10
1184.783861376304
 20
778.0607954797676
 30
0.0
 11
1098.71035759875
 21
825.0263082860971
 31
0.0
 70
   163
  1
{\H1.4x;%%C1\H0.7x;\S11/16;\H1.4286x;"}
 71
     5
 42
42.99999999999932
 73
     0
 74
     0
 75
     0
  3
ISO-25
100
AcDbDiametricDimension
 15
1147.037362439998
 25
798.6569557542316
 35
0.0
 40
0.0
1001
ACAD
1000
DSTYLE
1002
{
1070
   288
1070
     1
1002
}
  0
LINE
  5
332
330
1F
100
AcDbEntity
  8
图层1
100
AcDbLine
 10
1378.410611908151
 20
788.3588756169999
 30
0.0
 11
1378.410611908151
 21
940.8588756169999
 31
0.0
  0
LINE
  5
333
330
1F
100
AcDbEntity
  8
图层1
100
AcDbLine
 10
1368.410611908151
 20
950.8588756169999
 30
0.0
 11
963.4106119081508
 21
950.8588756169999
 31
0.0
  0
LINE
  5
334
330
1F
100
AcDbEntity
  8
图层1
100
AcDbLine
 10
953.4106119081508
 20
940.8588756169999
 30
0.0
 11
953.410611908151
 21
635.8588756169997
 31
0.0
  0
LINE
  5
335
330
1F
100
AcDbEntity
  8
图层1
100
AcDbLine
 10
963.410611908151
 20
625.8588756169999
 30
0.0
 11
1368.41061190815
 21
625.8588756169999
 31
0.0
  0
LINE
  5
336
102
{ACAD_REACTORS
330
354
102
}
330
1F
100
AcDbEntity
  8
图层1
100
AcDbLine
 10
1378.41061190815
 20
635.8588756169997
 30
0.0
 11
1378.410611908151
 21
788.3588756169999
 31
0.0
  0
ARC
  5
337
330
1F
100
AcDbEntity
  8
图层1
100
AcDbCircle
 10
1368.41061190815
 20
635.8588756169997
 30
0.0
 40
10.0
100
AcDbArc
 50
270.0
 51
0.0
  0
ARC
  5
338
330
1F
100
AcDbEntity
  8
图层1
100
AcDbCircle
 10
963.410611908151
 20
635.8588756169997
 30
0.0
 40
10.0
100
AcDbArc
 50
180.0
 51
270.0
  0
ARC
  5
339
330
1F
100
AcDbEntity
  8
图层1
100
AcDbCircle
 10
963.4106119081508
 20
940.8588756169999
 30
0.0
 40
10.0
100
AcDbArc
 50
90.0
 51
180.0
  0
ARC
  5
33A
330
1F
100
AcDbEntity
  8
图层1
100
AcDbCircle
 10
1368.410611908151
 20
940.8588756169999
 30
0.0
 40
10.0
100
AcDbArc
 50
0.0
 51
90.0
  0
DIMENSION
  5
33B
102
{ACAD_XDICTIONARY
360
349
102
}
102
{ACAD_REACTORS
330
354
102
}
330
1F
100
AcDbEntity
  8
0
100
AcDbDimension
  2
*D8
 10
1378.410611908151
 20
788.3588756169999
 30
0.0
 11
1026.844208725767
 21
788.3588756169999
 31
0.0
 70
   160
  1
16-3/4"
 71
     5
 42
425.0
 73
     0
 74
     0
 75
     0
  3
ISO-25
100
AcDbAlignedDimension
 13
953.410611908151
 23
788.3588756169999
 33
0.0
 14
1378.410611908151
 24
788.3588756169999
 34
0.0
100
AcDbRotatedDimension
  0
DIMENSION
  5
36A
330
1F
100
AcDbEntity
  8
0
100
AcDbDimension
  2
*D9
 10
1165.28561190815
 20
625.8588756169999
 30
0.0
 11
1165.28561190815
 21
874.1282378606245
 31
0.0
 70
   160
  1
12-3/4"
 71
     5
 42
325.0000000000001
 73
     0
 74
     0
 75
     0
  3
ISO-25
100
AcDbAlignedDimension
 13
1165.285611908151
 23
950.8588756169999
 33
0.0
 14
1165.285611908151
 24
625.8588756169999
 34
0.0
 50
90.0
100
AcDbRotatedDimension
  0
LEADER
  5
3C0
330
1F
100
AcDbEntity
  8
0
100
AcDbLeader
  3
ISO-25
 73
     0
 40
7.812290127602418
 41
117.2901276024177
 76
     3
 10
1377.981061280612
 20
658.1071266337269
 30
0.0
 10
1350.640307971512
 20
694.8221766645131
 30
0.0
 10
1325.862746312047
 20
694.8221766645131
 30
0.0
340
3C1
213
0.0
223
6.0
233
0.0
1001
ACAD
1000
DSTYLE
1002
{
1070
   147
1040
0.625
1070
    77
1070
     0
1002
}
  0
MTEXT
  5
3C1
102
{ACAD_REACTORS
330
3C0
102
}
330
1F
100
AcDbEntity
  8
0
100
AcDbMText
 10
1325.237746312047
 20
688.8221766645131
 30
0.0
 40
7.5
 41
0.0
 46
0.0
 71
     9
 72
     1
  1
{\fVerdana|b0|i0|c0|p34;CUT\fVerdana|b0|i0|c134|p34; \fVerdana|b0|i0|c0|p34;ALONG\fVerdana|b0|i0|c134|p34; \fVerdana|b0|i0|c0|p34;THIS\fVerdana|b0|i0|c134|p34; \fVerdana|b0|i0|c0|p34;LINE}
 73
     1
 44
1.0
  0
ENDSEC
  0
SECTION
  2
OBJECTS
  0
DICTIONARY
  5
C
330
0
100
AcDbDictionary
281
     1
  3
ACAD_COLOR
350
6B
  3
ACAD_GROUP
350
D
  3
ACAD_LAYOUT
350
1A
  3
ACAD_MATERIAL
350
6A
  3
ACAD_MLINESTYLE
350
17
  3
ACAD_PLOTSETTINGS
350
19
  3
ACAD_PLOTSTYLENAME
350
E
  3
ACAD_TABLESTYLE
350
7E
  3
ACAD_VISUALSTYLE
350
F0
  3
AcDbVariableDictionary
350
5E
  0
DICTIONARY
  5
12C
330
2
100
AcDbDictionary
280
     1
281
     1
  3
ACAD_LAYERFILTERS
360
32A
  3
ACLYDICTIONARY
360
329
  0
DICTIONARY
  5
147
330
1F
100
AcDbDictionary
280
     1
281
     1
  3
ACAD_SORTENTS
360
148
  0
DICTIONARY
  5
1A5
330
196
100
AcDbDictionary
280
     1
281
     1
  3
ACAD_DIMASSOC
360
1B0
  0
DICTIONARY
  5
1BF
330
1B1
100
AcDbDictionary
280
     1
281
     1
  3
ACAD_DIMASSOC
360
1CA
  0
DICTIONARY
  5
1D9
330
1CB
100
AcDbDictionary
280
     1
281
     1
  3
ACAD_DIMASSOC
360
1E4
  0
DICTIONARY
  5
1F3
330
1E5
100
AcDbDictionary
280
     1
281
     1
  3
ACAD_DIMASSOC
360
1FE
  0
DICTIONARY
  5
20D
330
1FF
100
AcDbDictionary
280
     1
281
     1
  3
ACAD_DIMASSOC
360
218
  0
DICTIONARY
  5
227
330
219
100
AcDbDictionary
280
     1
281
     1
  3
ACAD_DIMASSOC
360
232
  0
DICTIONARY
  5
2EA
330
2DE
100
AcDbDictionary
280
     1
281
     1
  3
ACAD_DIMASSOC
360
2F3
  0
DICTIONARY
  5
349
330
33B
100
AcDbDictionary
280
     1
281
     1
  3
ACAD_DIMASSOC
360
354
  0
DICTIONARY
  5
6B
102
{ACAD_REACTORS
330
C
102
}
330
C
100
AcDbDictionary
281
     1
  0
DICTIONARY
  5
D
102
{ACAD_REACTORS
330
C
102
}
330
C
100
AcDbDictionary
281
     1
  0
DICTIONARY
  5
1A
102
{ACAD_REACTORS
330
C
102
}
330
C
100
AcDbDictionary
281
     1
  3
Model
350
22
  3
布局1
350
D3
  3
布局2
350
D7
  0
DICTIONARY
  5
6A
102
{ACAD_REACTORS
330
C
102
}
330
C
100
AcDbDictionary
281
     1
  3
ByBlock
350
EE
  3
ByLayer
350
ED
  3
Global
350
EF
  0
DICTIONARY
  5
17
102
{ACAD_REACTORS
330
C
102
}
330
C
100
AcDbDictionary
281
     1
  3
Standard
350
18
  0
DICTIONARY
  5
19
102
{ACAD_REACTORS
330
C
102
}
330
C
100
AcDbDictionary
281
     1
  0
ACDBDICTIONARYWDFLT
  5
E
102
{ACAD_REACTORS
330
C
102
}
330
C
100
AcDbDictionary
281
     1
  3
Normal
350
F
100
AcDbDictionaryWithDefault
340
F
  0
DICTIONARY
  5
7E
102
{ACAD_REACTORS
330
C
102
}
330
C
100
AcDbDictionary
281
     1
  3
Standard
350
7F
  0
DICTIONARY
  5
F0
102
{ACAD_REACTORS
330
C
102
}
330
C
100
AcDbDictionary
281
     1
  3
2dWireframe
350
F6
  3
3D Hidden
350
F8
  3
3dWireframe
350
F7
  3
Basic
350
F5
  3
Brighten
350
FC
  3
ColorChange
350
100
  3
Conceptual
350
F9
  3
Dim
350
FB
  3
Facepattern
350
FF
  3
Flat
350
F1
  3
FlatWithEdges
350
F2
  3
Gouraud
350
F3
  3
GouraudWithEdges
350
F4
  3
Linepattern
350
FE
  3
Realistic
350
FA
  3
Thicken
350
FD
  0
DICTIONARY
  5
5E
102
{ACAD_REACTORS
330
C
102
}
330
C
100
AcDbDictionary
281
     1
  3
CTABLESTYLE
350
84
  3
DIMASSOC
350
5F
  3
HIDETEXT
350
63
  0
DICTIONARY
  5
32A
102
{ACAD_REACTORS
330
12C
102
}
330
12C
100
AcDbDictionary
281
     1
  0
DICTIONARY
  5
329
102
{ACAD_REACTORS
330
12C
102
}
330
12C
100
AcDbDictionary
281
     1
1001
ACAD
1000
<All
  0
SORTENTSTABLE
  5
148
102
{ACAD_REACTORS
330
147
102
}
330
147
100
AcDbSortentsTable
330
1F
331
158
  5
156
331
177
  5
158
331
176
  5
169
331
190
  5
191
331
14F
  5
13C
331
13E
  5
143
331
175
  5
179
331
185
  5
185
331
14E
  5
146
331
174
  5
170
331
13D
  5
140
331
14D
  5
14C
331
13C
  5
13E
331
1E5
  5
1E5
331
173
  5
177
331
14C
  5
141
331
172
  5
175
331
13B
  5
13B
331
14B
  5
142
331
13A
  5
13A
331
146
  5
13D
331
162
  5
16C
331
14A
  5
14D
331
161
  5
16B
331
145
  5
14F
331
219
  5
219
331
149
  5
149
331
1B1
  5
1B1
331
144
  5
14E
331
337
  5
33A
331
143
  5
14B
331
1FF
  5
1FF
331
17E
  5
17E
331
33A
  5
333
331
142
  5
14A
331
336
  5
339
331
339
  5
335
331
2DE
  5
2DE
331
17D
  5
17D
331
156
  5
16A
331
335
  5
338
331
141
  5
145
331
17C
  5
17B
331
338
  5
337
331
16D
  5
178
331
196
  5
196
331
140
  5
144
331
155
  5
162
331
334
  5
336
331
195
  5
195
331
17B
  5
15A
331
16C
  5
176
331
333
  5
334
331
154
  5
159
331
17A
  5
17C
331
16B
  5
174
331
194
  5
194
331
1CB
  5
1CB
331
153
  5
157
331
332
  5
332
331
193
  5
193
331
179
  5
17A
331
16A
  5
173
331
178
  5
161
331
169
  5
171
331
192
  5
190
  0
DIMASSOC
  5
1B0
102
{ACAD_REACTORS
330
1A5
102
}
330
1A5
100
AcDbDimAssoc
330
196
 90
        1
 70
     0
 71
     0
  1
AcDbOsnapPointRef
 72
     1
331
13E
 73
     2
 91
        0
 40
1.0
 10
0.0
 20
0.0
 30
2.000000000000000E+50
 75
     0
  0
DIMASSOC
  5
1CA
102
{ACAD_REACTORS
330
1BF
102
}
330
1BF
100
AcDbDimAssoc
330
1B1
 90
        1
 70
     0
 71
     0
  1
AcDbOsnapPointRef
 72
     1
331
144
 73
     2
 91
        0
 40
1.0
 10
0.0
 20
0.0
 30
2.000000000000000E+50
 75
     0
  0
DIMASSOC
  5
1E4
102
{ACAD_REACTORS
330
1D9
102
}
330
1D9
100
AcDbDimAssoc
330
1CB
 90
        3
 70
     0
 71
     0
  1
AcDbOsnapPointRef
 72
    13
331
14C
 73
     2
 91
        0
 40
3.141592653589792
 10
0.0
 20
0.0
 30
2.000000000000000E+50
 75
     0
  1
AcDbOsnapPointRef
 72
     1
331
14F
 73
     2
 91
        0
 40
6.283185307179584
 10
0.0
 20
0.0
 30
2.000000000000000E+50
 75
     0
  0
DIMASSOC
  5
1FE
102
{ACAD_REACTORS
330
1F3
102
}
330
1F3
100
AcDbDimAssoc
330
1E5
 90
        3
 70
     0
 71
     0
  1
AcDbOsnapPointRef
 72
    13
331
14D
 73
     2
 91
        0
 40
3.141592653589792
 10
0.0
 20
0.0
 30
2.000000000000000E+50
 75
     0
  1
AcDbOsnapPointRef
 72
     1
331
14E
 73
     2
 91
        0
 40
6.283185307179584
 10
0.0
 20
0.0
 30
2.000000000000000E+50
 75
     0
  0
DIMASSOC
  5
218
102
{ACAD_REACTORS
330
20D
102
}
330
20D
100
AcDbDimAssoc
330
1FF
 90
        1
 70
     0
 71
     0
  1
AcDbOsnapPointRef
 72
     1
331
156
 73
     2
 91
        0
 40
1.0
 10
0.0
 20
0.0
 30
2.000000000000000E+50
 75
     0
  0
DIMASSOC
  5
232
102
{ACAD_REACTORS
330
227
102
}
330
227
100
AcDbDimAssoc
330
219
 90
        3
 70
     0
 71
     0
  1
AcDbOsnapPointRef
 72
     1
331
156
 73
     2
 91
        0
 40
1.0
 10
0.0
 20
0.0
 30
2.000000000000000E+50
 75
     0
  1
AcDbOsnapPointRef
 72
    13
331
193
 73
     2
 91
        0
 40
0.0
 10
0.0
 20
0.0
 30
2.000000000000000E+50
 75
     0
  0
DIMASSOC
  5
2F3
102
{ACAD_REACTORS
330
2EA
102
}
330
2EA
100
AcDbDimAssoc
330
2DE
 90
        2
 70
     0
 71
     0
  1
AcDbOsnapPointRef
 72
     3
331
145
 73
     2
 91
        0
 40
0.0
 10
0.0
 20
0.0
 30
0.0
 75
     0
  0
DIMASSOC
  5
354
102
{ACAD_REACTORS
330
349
102
}
330
349
100
AcDbDimAssoc
330
33B
 90
        2
 70
     0
 71
     0
  1
AcDbOsnapPointRef
 72
     1
331
336
 73
     2
 91
        0
 40
1.0
 10
0.0
 20
0.0
 30
2.000000000000000E+50
 75
     0
  0
LAYOUT
  5
22
102
{ACAD_REACTORS
330
1A
102
}
330
1A
100
AcDbPlotSettings
  1

  2
none_device
  4
ISO_A4_(210.00_x_297.00_MM)
  6

 40
7.5
 41
20.0
 42
7.5
 43
20.0
 44
210.0
 45
297.0
 46
11.54999923706054
 47
-13.65000009536743
 48
0.0
 49
0.0
140
0.0
141
0.0
142
1.0
143
8.704084754739808
 70
 11952
 72
     1
 73
     0
 74
     0
  7

 75
     0
147
0.1148885871608098
 76
     0
 77
     2
 78
   300
148
0.0
149
0.0
100
AcDbLayout
  1
Model
 70
     1
 71
     0
 10
0.0
 20
0.0
 11
12.0
 21
9.0
 12
0.0
 22
0.0
 32
0.0
 14
0.0
 24
0.0
 34
0.0
 15
0.0
 25
0.0
 35
0.0
146
0.0
 13
0.0
 23
0.0
 33
0.0
 16
1.0
 26
0.0
 36
0.0
 17
0.0
 27
1.0
 37
0.0
 76
     0
330
1F
331
EB
1001
ACAD_PSEXT
1000
None
1000
None
1000
Not applicable
1000
The layout will not be plotted unless a new plotter configuration name is selected.
1070
     0
  0
LAYOUT
  5
D3
102
{ACAD_REACTORS
330
1A
102
}
330
1A
100
AcDbPlotSettings
  1

  2
C:\Documents and Settings\basas\Application Data\Autodesk\AutoCAD 2005\R16.1\enu\plotters\Default Windows System Printer.pc3
  4

  6

 40
0.0
 41
0.0
 42
0.0
 43
0.0
 44
0.0
 45
0.0
 46
0.0
 47
0.0
 48
0.0
 49
0.0
140
0.0
141
0.0
142
1.0
143
1.0
 70
   688
 72
     0
 73
     0
 74
     5
  7

 75
    16
147
1.0
 76
     0
 77
     2
 78
   300
148
0.0
149
0.0
100
AcDbLayout
  1
布局1
 70
     1
 71
     1
 10
0.0
 20
0.0
 11
12.0
 21
9.0
 12
0.0
 22
0.0
 32
0.0
 14
0.0
 24
0.0
 34
0.0
 15
0.0
 25
0.0
 35
0.0
146
0.0
 13
0.0
 23
0.0
 33
0.0
 16
1.0
 26
0.0
 36
0.0
 17
0.0
 27
1.0
 37
0.0
 76
     0
330
D2
  0
LAYOUT
  5
D7
102
{ACAD_REACTORS
330
1A
102
}
330
1A
100
AcDbPlotSettings
  1

  2
C:\Documents and Settings\basas\Application Data\Autodesk\AutoCAD 2005\R16.1\enu\plotters\Default Windows System Printer.pc3
  4

  6

 40
0.0
 41
0.0
 42
0.0
 43
0.0
 44
0.0
 45
0.0
 46
0.0
 47
0.0
 48
0.0
 49
0.0
140
0.0
141
0.0
142
1.0
143
1.0
 70
   688
 72
     0
 73
     0
 74
     5
  7

 75
    16
147
1.0
 76
     0
 77
     2
 78
   300
148
0.0
149
0.0
100
AcDbLayout
  1
布局2
 70
     1
 71
     2
 10
0.0
 20
0.0
 11
12.0
 21
9.0
 12
0.0
 22
0.0
 32
0.0
 14
0.0
 24
0.0
 34
0.0
 15
0.0
 25
0.0
 35
0.0
146
0.0
 13
0.0
 23
0.0
 33
0.0
 16
1.0
 26
0.0
 36
0.0
 17
0.0
 27
1.0
 37
0.0
 76
     0
330
D6
  0
MATERIAL
  5
EE
102
{ACAD_REACTORS
330
6A
102
}
330
6A
100
AcDbMaterial
  1
ByBlock
  0
MATERIAL
  5
ED
102
{ACAD_REACTORS
330
6A
102
}
330
6A
100
AcDbMaterial
  1
ByLayer
  0
MATERIAL
  5
EF
102
{ACAD_REACTORS
330
6A
102
}
330
6A
100
AcDbMaterial
  1
Global
  0
MLINESTYLE
  5
18
102
{ACAD_REACTORS
330
17
102
}
330
17
100
AcDbMlineStyle
  2
STANDARD
 70
     0
  3

 62
   256
 51
90.0
 52
90.0
 71
     2
 49
0.5
 62
   256
  6
BYLAYER
 49
-0.5
 62
   256
  6
BYLAYER
  0
ACDBPLACEHOLDER
  5
F
102
{ACAD_REACTORS
330
E
102
}
330
E
  0
TABLESTYLE
  5
7F
102
{ACAD_REACTORS
330
7E
102
}
330
7E
100
AcDbTableStyle
  3
Standard
 70
     0
 71
     0
 40
1.5
 41
1.5
280
     0
281
     0
  7
Standard
140
4.5
170
     2
 62
     0
 63
     7
283
     0
 90
      512
 91
        0
  1

274
    -2
284
     1
 64
     0
275
    -2
285
     1
 65
     0
276
    -2
286
     1
 66
     0
277
    -2
287
     1
 67
     0
278
    -2
288
     1
 68
     0
279
    -2
289
     1
 69
     0
  7
Standard
140
6.0
170
     5
 62
     0
 63
     7
283
     0
 90
      512
 91
        0
  1

274
    -2
284
     1
 64
     0
275
    -2
285
     1
 65
     0
276
    -2
286
     1
 66
     0
277
    -2
287
     1
 67
     0
278
    -2
288
     1
 68
     0
279
    -2
289
     1
 69
     0
  7
Standard
140
4.5
170
     5
 62
     0
 63
     7
283
     0
 90
      512
 91
        0
  1

274
    -2
284
     1
 64
     0
275
    -2
285
     1
 65
     0
276
    -2
286
     1
 66
     0
277
    -2
287
     1
 67
     0
278
    -2
288
     1
 68
     0
279
    -2
289
     1
 69
     0
  0
VISUALSTYLE
  5
F6
102
{ACAD_REACTORS
330
F0
102
}
330
F0
100
AcDbVisualStyle
  2
2dWireframe
 70
     4
 71
     0
 72
     2
 73
     1
 90
        0
 40
-0.6
 41
-30.0
 62
     5
 63
     7
421
 16777215
 74
     1
 91
        4
 64
     7
 65
   257
 75
     1
175
     1
 42
1.0
 92
        0
 66
   257
 43
1.0
 76
     1
 77
     6
 78
     2
 67
     7
 79
     5
170
     0
171
     0
290
     0
174
     0
 93
        1
 44
0.0
173
     0
291
     0
 45
0.0
  0
VISUALSTYLE
  5
F8
102
{ACAD_REACTORS
330
F0
102
}
330
F0
100
AcDbVisualStyle
  2
3D Hidden
 70
     6
 71
     1
 72
     2
 73
     2
 90
        0
 40
-0.6
 41
-30.0
 62
     5
 63
     7
421
 16777215
 74
     2
 91
        2
 64
     7
 65
   257
 75
     2
175
     1
 42
40.0
 92
        0
 66
   257
 43
1.0
 76
     1
 77
     6
 78
     2
 67
     7
 79
     3
170
     0
171
     0
290
     0
174
     0
 93
        1
 44
0.0
173
     0
291
     0
 45
0.0
  0
VISUALSTYLE
  5
F7
102
{ACAD_REACTORS
330
F0
102
}
330
F0
100
AcDbVisualStyle
  2
3dWireframe
 70
     5
 71
     0
 72
     2
 73
     1
 90
        0
 40
-0.6
 41
-30.0
 62
     5
 63
     7
421
 16777215
 74
     1
 91
        4
 64
     7
 65
   257
 75
     1
175
     1
 42
1.0
 92
        0
 66
   257
 43
1.0
 76
     1
 77
     6
 78
     2
 67
     7
 79
     5
170
     0
171
     0
290
     0
174
     0
 93
        1
 44
0.0
173
     0
291
     0
 45
0.0
  0
VISUALSTYLE
  5
F5
102
{ACAD_REACTORS
330
F0
102
}
330
F0
100
AcDbVisualStyle
  2
Basic
 70
     7
 71
     1
 72
     0
 73
     1
 90
        0
 40
-0.6
 41
-30.0
 62
     5
 63
     7
421
 16777215
 74
     0
 91
        4
 64
     7
 65
   257
 75
     1
175
     1
 42
1.0
 92
        8
 66
     7
 43
1.0
 76
     1
 77
     6
 78
     2
 67
     7
 79
     5
170
     0
171
     0
290
     0
174
     0
 93
        1
 44
0.0
173
     0
291
     1
 45
0.0
  0
VISUALSTYLE
  5
FC
102
{ACAD_REACTORS
330
F0
102
}
330
F0
100
AcDbVisualStyle
  2
Brighten
 70
    12
 71
     2
 72
     2
 73
     1
 90
        0
 40
-0.6
 41
-30.0
 62
     5
 63
     7
421
 16777215
 74
     1
 91
        4
 64
     7
 65
   257
 75
     1
175
     1
 42
1.0
 92
        8
 66
     7
 43
1.0
 76
     1
 77
     6
 78
     2
 67
     7
 79
     5
170
     0
171
     0
290
     0
174
     0
 93
        1
 44
50.0
173
     0
291
     1
 45
0.0
  0
VISUALSTYLE
  5
100
102
{ACAD_REACTORS
330
F0
102
}
330
F0
100
AcDbVisualStyle
  2
ColorChange
 70
    16
 71
     2
 72
     2
 73
     3
 90
        0
 40
-0.6
 41
-30.0
 62
     5
 63
     8
421
  8421504
 74
     1
 91
        4
 64
     7
 65
   257
 75
     1
175
     1
 42
1.0
 92
        8
 66
     8
424
  8421504
 43
1.0
 76
     1
 77
     6
 78
     2
 67
     7
 79
     5
170
     0
171
     0
290
     0
174
     0
 93
        1
 44
0.0
173
     0
291
     1
 45
0.0
  0
VISUALSTYLE
  5
F9
102
{ACAD_REACTORS
330
F0
102
}
330
F0
100
AcDbVisualStyle
  2
Conceptual
 70
     9
 71
     3
 72
     2
 73
     1
 90
        0
 40
-0.6
 41
-30.0
 62
     5
 63
     7
421
 16777215
 74
     2
 91
        2
 64
     7
 65
   257
 75
     1
175
     1
 42
40.0
 92
        8
 66
     7
 43
1.0
 76
     1
 77
     6
 78
     2
 67
     7
 79
     3
170
     0
171
     0
290
     0
174
     0
 93
        1
 44
0.0
173
     0
291
     0
 45
0.0
  0
VISUALSTYLE
  5
FB
102
{ACAD_REACTORS
330
F0
102
}
330
F0
100
AcDbVisualStyle
  2
Dim
 70
    11
 71
     2
 72
     2
 73
     1
 90
        0
 40
-0.6
 41
-30.0
 62
     5
 63
     7
421
 16777215
 74
     1
 91
        4
 64
     7
 65
   257
 75
     1
175
     1
 42
1.0
 92
        8
 66
     7
 43
1.0
 76
     1
 77
     6
 78
     2
 67
     7
 79
     5
170
     0
171
     0
290
     0
174
     0
 93
        1
 44
-50.0
173
     0
291
     1
 45
0.0
  0
VISUALSTYLE
  5
FF
102
{ACAD_REACTORS
330
F0
102
}
330
F0
100
AcDbVisualStyle
  2
Facepattern
 70
    15
 71
     2
 72
     2
 73
     1
 90
        0
 40
-0.6
 41
-30.0
 62
     5
 63
     7
421
 16777215
 74
     1
 91
        4
 64
     7
 65
   257
 75
     1
175
     1
 42
1.0
 92
        8
 66
     7
 43
1.0
 76
     1
 77
     6
 78
     2
 67
     7
 79
     5
170
     0
171
     0
290
     0
174
     0
 93
        1
 44
0.0
173
     0
291
     1
 45
0.0
  0
VISUALSTYLE
  5
F1
102
{ACAD_REACTORS
330
F0
102
}
330
F0
100
AcDbVisualStyle
  2
Flat
 70
     0
 71
     2
 72
     1
 73
     1
 90
        2
 40
-0.6
 41
30.0
 62
     5
 63
     7
421
 16777215
 74
     0
 91
        4
 64
     7
 65
   257
 75
     1
175
     1
 42
1.0
 92
        8
 66
     7
 43
1.0
 76
     1
 77
     6
 78
     2
 67
     7
 79
     5
170
     0
171
     0
290
     0
174
     0
 93
        1
 44
0.0
173
     0
291
     1
 45
0.0
  0
VISUALSTYLE
  5
F2
102
{ACAD_REACTORS
330
F0
102
}
330
F0
100
AcDbVisualStyle
  2
FlatWithEdges
 70
     1
 71
     2
 72
     1
 73
     1
 90
        2
 40
-0.6
 41
30.0
 62
     5
 63
     7
421
 16777215
 74
     1
 91
        4
 64
     7
 65
   257
 75
     1
175
     1
 42
1.0
 92
        0
 66
   257
 43
1.0
 76
     1
 77
     6
 78
     2
 67
     7
 79
     5
170
     0
171
     0
290
     0
174
     0
 93
        1
 44
0.0
173
     0
291
     1
 45
0.0
  0
VISUALSTYLE
  5
F3
102
{ACAD_REACTORS
330
F0
102
}
330
F0
100
AcDbVisualStyle
  2
Gouraud
 70
     2
 71
     2
 72
     2
 73
     1
 90
        2
 40
-0.6
 41
30.0
 62
     5
 63
     7
421
 16777215
 74
     0
 91
        4
 64
     7
 65
   257
 75
     1
175
     1
 42
1.0
 92
        0
 66
     7
 43
1.0
 76
     1
 77
     6
 78
     2
 67
     7
 79
     5
170
     0
171
     0
290
     0
174
     0
 93
        1
 44
0.0
173
     0
291
     1
 45
0.0
  0
VISUALSTYLE
  5
F4
102
{ACAD_REACTORS
330
F0
102
}
330
F0
100
AcDbVisualStyle
  2
GouraudWithEdges
 70
     3
 71
     2
 72
     2
 73
     1
 90
        2
 40
-0.6
 41
30.0
 62
     5
 63
     7
421
 16777215
 74
     1
 91
        4
 64
     7
 65
   257
 75
     1
175
     1
 42
1.0
 92
        0
 66
   257
 43
1.0
 76
     1
 77
     6
 78
     2
 67
     7
 79
     5
170
     0
171
     0
290
     0
174
     0
 93
        1
 44
0.0
173
     0
291
     1
 45
0.0
  0
VISUALSTYLE
  5
FE
102
{ACAD_REACTORS
330
F0
102
}
330
F0
100
AcDbVisualStyle
  2
Linepattern
 70
    14
 71
     2
 72
     2
 73
     1
 90
        0
 40
-0.6
 41
-30.0
 62
     5
 63
     7
421
 16777215
 74
     1
 91
        4
 64
     7
 65
   257
 75
     7
175
     7
 42
1.0
 92
        8
 66
     7
 43
1.0
 76
     1
 77
     6
 78
     2
 67
     7
 79
     5
170
     0
171
     0
290
     0
174
     0
 93
        1
 44
0.0
173
     0
291
     1
 45
0.0
  0
VISUALSTYLE
  5
FA
102
{ACAD_REACTORS
330
F0
102
}
330
F0
100
AcDbVisualStyle
  2
Realistic
 70
     8
 71
     2
 72
     2
 73
     1
 90
        0
 40
-0.6
 41
-30.0
 62
     5
 63
     7
421
 16777215
 74
     1
 91
        0
 64
     7
 65
   257
 75
     1
175
     1
 42
1.0
 92
        8
 66
     8
424
  7895160
 43
1.0
 76
     1
 77
     6
 78
     2
 67
     7
 79
     5
170
     0
171
     0
290
     0
174
     0
 93
       13
 44
0.0
173
     0
291
     0
 45
0.0
  0
VISUALSTYLE
  5
FD
102
{ACAD_REACTORS
330
F0
102
}
330
F0
100
AcDbVisualStyle
  2
Thicken
 70
    13
 71
     2
 72
     2
 73
     1
 90
        0
 40
-0.6
 41
-30.0
 62
     5
 63
     7
421
 16777215
 74
     1
 91
        4
 64
     7
 65
   257
 75
     1
175
     1
 42
1.0
 92
       12
 66
     7
 43
1.0
 76
     1
 77
     6
 78
     2
 67
     7
 79
     5
170
     0
171
     0
290
     0
174
     0
 93
        1
 44
0.0
173
     0
291
     1
 45
0.0
  0
DICTIONARYVAR
  5
84
102
{ACAD_REACTORS
330
5E
102
}
330
5E
100
DictionaryVariables
280
     0
  1
STANDARD
  0
DICTIONARYVAR
  5
5F
102
{ACAD_REACTORS
330
5E
102
}
330
5E
100
DictionaryVariables
280
     0
  1
2
  0
DICTIONARYVAR
  5
63
102
{ACAD_REACTORS
330
5E
102
}
330
5E
100
DictionaryVariables
280
     0
  1
1
  0
ENDSEC
  0
EOF
