  0
SECTION
  2
HEADER
  9
$ACADVER
  1
AC1027
  9
$ACADMAINTVER
 70
     8
  9
$DWGCODEPAGE
  3
ANSI_936
  9
$LASTSAVEDBY
  1
Bonnie
  9
$REQUIREDVERSIONS
160
                 0
  9
$INSBASE
 10
0.0
 20
0.0
 30
0.0
  9
$EXTMIN
 10
754.7694947081684
 20
-1458.865985792591
 30
0.0
  9
$EXTMAX
 10
15055.89757042761
 20
3503.269417586326
 30
0.0
  9
$LIMMIN
 10
0.0
 20
0.0
  9
$LIMMAX
 10
420.0
 20
297.0
  9
$ORTHOMODE
 70
     0
  9
$REGENMODE
 70
     1
  9
$FILLMODE
 70
     1
  9
$QTEXTMODE
 70
     0
  9
$MIRRTEXT
 70
     0
  9
$LTSCALE
 40
1.0
  9
$ATTMODE
 70
     1
  9
$TEXTSIZE
 40
2.5
  9
$TRACEWID
 40
1.0
  9
$TEXTSTYLE
  7
Standard
  9
$CLAYER
  8
0
  9
$CELTYPE
  6
ByLayer
  9
$CECOLOR
 62
     6
  9
$CELTSCALE
 40
1.0
  9
$DISPSILH
 70
     0
  9
$DIMSCALE
 40
1.0
  9
$DIMASZ
 40
2.5
  9
$DIMEXO
 40
0.625
  9
$DIMDLI
 40
3.75
  9
$DIMRND
 40
0.0
  9
$DIMDLE
 40
0.0
  9
$DIMEXE
 40
1.25
  9
$DIMTP
 40
0.0
  9
$DIMTM
 40
0.0
  9
$DIMTXT
 40
2.5
  9
$DIMCEN
 40
2.5
  9
$DIMTSZ
 40
0.0
  9
$DIMTOL
 70
     0
  9
$DIMLIM
 70
     0
  9
$DIMTIH
 70
     0
  9
$DIMTOH
 70
     0
  9
$DIMSE1
 70
     0
  9
$DIMSE2
 70
     0
  9
$DIMTAD
 70
     1
  9
$DIMZIN
 70
     8
  9
$DIMBLK
  1

  9
$DIMASO
 70
     1
  9
$DIMSHO
 70
     1
  9
$DIMPOST
  1

  9
$DIMAPOST
  1

  9
$DIMALT
 70
     0
  9
$DIMALTD
 70
     3
  9
$DIMALTF
 40
0.03937007874016
  9
$DIMLFAC
 40
1.0
  9
$DIMTOFL
 70
     1
  9
$DIMTVP
 40
0.0
  9
$DIMTIX
 70
     0
  9
$DIMSOXD
 70
     0
  9
$DIMSAH
 70
     0
  9
$DIMBLK1
  1

  9
$DIMBLK2
  1

  9
$DIMSTYLE
  2
ISO-25
  9
$DIMCLRD
 70
     0
  9
$DIMCLRE
 70
     0
  9
$DIMCLRT
 70
     0
  9
$DIMTFAC
 40
1.0
  9
$DIMGAP
 40
0.625
  9
$DIMJUST
 70
     0
  9
$DIMSD1
 70
     0
  9
$DIMSD2
 70
     0
  9
$DIMTOLJ
 70
     0
  9
$DIMTZIN
 70
     8
  9
$DIMALTZ
 70
     0
  9
$DIMALTTZ
 70
     0
  9
$DIMUPT
 70
     0
  9
$DIMDEC
 70
     2
  9
$DIMTDEC
 70
     2
  9
$DIMALTU
 70
     2
  9
$DIMALTTD
 70
     3
  9
$DIMTXSTY
  7
Standard
  9
$DIMAUNIT
 70
     0
  9
$DIMADEC
 70
     0
  9
$DIMALTRND
 40
0.0
  9
$DIMAZIN
 70
     0
  9
$DIMDSEP
 70
    44
  9
$DIMATFIT
 70
     3
  9
$DIMFRAC
 70
     0
  9
$DIMLDRBLK
  1

  9
$DIMLUNIT
 70
     2
  9
$DIMLWD
 70
    -2
  9
$DIMLWE
 70
    -2
  9
$DIMTMOVE
 70
     0
  9
$DIMFXL
 40
1.0
  9
$DIMFXLON
 70
     0
  9
$DIMJOGANG
 40
0.7853981633974483
  9
$DIMTFILL
 70
     0
  9
$DIMTFILLCLR
 70
     0
  9
$DIMARCSYM
 70
     0
  9
$DIMLTYPE
  6

  9
$DIMLTEX1
  6

  9
$DIMLTEX2
  6

  9
$DIMTXTDIRECTION
 70
     0
  9
$LUNITS
 70
     2
  9
$LUPREC
 70
     4
  9
$SKETCHINC
 40
1.0
  9
$FILLETRAD
 40
0.0
  9
$AUNITS
 70
     0
  9
$AUPREC
 70
     0
  9
$MENU
  1
.
  9
$ELEVATION
 40
0.0
  9
$PELEVATION
 40
0.0
  9
$THICKNESS
 40
0.0
  9
$LIMCHECK
 70
     0
  9
$CHAMFERA
 40
0.0
  9
$CHAMFERB
 40
0.0
  9
$CHAMFERC
 40
0.0
  9
$CHAMFERD
 40
0.0
  9
$SKPOLY
 70
     0
  9
$TDCREATE
 40
2460013.408089537
  9
$TDUCREATE
 40
2460013.074756204
  9
$TDUPDATE
 40
2460048.354620012
  9
$TDUUPDATE
 40
2460048.021286678
  9
$TDINDWG
 40
0.414340671
  9
$TDUSRTIMER
 40
0.414340428
  9
$USRTIMER
 70
     1
  9
$ANGBASE
 50
0.0
  9
$ANGDIR
 70
     0
  9
$PDMODE
 70
     0
  9
$PDSIZE
 40
0.0
  9
$PLINEWID
 40
0.0
  9
$SPLFRAME
 70
     0
  9
$SPLINETYPE
 70
     6
  9
$SPLINESEGS
 70
     8
  9
$HANDSEED
  5
1B8E
  9
$SURFTAB1
 70
     6
  9
$SURFTAB2
 70
     6
  9
$SURFTYPE
 70
     6
  9
$SURFU
 70
     6
  9
$SURFV
 70
     6
  9
$UCSBASE
  2

  9
$UCSNAME
  2

  9
$UCSORG
 10
0.0
 20
0.0
 30
0.0
  9
$UCSXDIR
 10
1.0
 20
0.0
 30
0.0
  9
$UCSYDIR
 10
0.0
 20
1.0
 30
0.0
  9
$UCSORTHOREF
  2

  9
$UCSORTHOVIEW
 70
     0
  9
$UCSORGTOP
 10
0.0
 20
0.0
 30
0.0
  9
$UCSORGBOTTOM
 10
0.0
 20
0.0
 30
0.0
  9
$UCSORGLEFT
 10
0.0
 20
0.0
 30
0.0
  9
$UCSORGRIGHT
 10
0.0
 20
0.0
 30
0.0
  9
$UCSORGFRONT
 10
0.0
 20
0.0
 30
0.0
  9
$UCSORGBACK
 10
0.0
 20
0.0
 30
0.0
  9
$PUCSBASE
  2

  9
$PUCSNAME
  2

  9
$PUCSORG
 10
0.0
 20
0.0
 30
0.0
  9
$PUCSXDIR
 10
1.0
 20
0.0
 30
0.0
  9
$PUCSYDIR
 10
0.0
 20
1.0
 30
0.0
  9
$PUCSORTHOREF
  2

  9
$PUCSORTHOVIEW
 70
     0
  9
$PUCSORGTOP
 10
0.0
 20
0.0
 30
0.0
  9
$PUCSORGBOTTOM
 10
0.0
 20
0.0
 30
0.0
  9
$PUCSORGLEFT
 10
0.0
 20
0.0
 30
0.0
  9
$PUCSORGRIGHT
 10
0.0
 20
0.0
 30
0.0
  9
$PUCSORGFRONT
 10
0.0
 20
0.0
 30
0.0
  9
$PUCSORGBACK
 10
0.0
 20
0.0
 30
0.0
  9
$USERI1
 70
     0
  9
$USERI2
 70
     0
  9
$USERI3
 70
     0
  9
$USERI4
 70
     0
  9
$USERI5
 70
     0
  9
$USERR1
 40
0.0
  9
$USERR2
 40
0.0
  9
$USERR3
 40
0.0
  9
$USERR4
 40
0.0
  9
$USERR5
 40
0.0
  9
$WORLDVIEW
 70
     1
  9
$SHADEDGE
 70
     3
  9
$SHADEDIF
 70
    70
  9
$TILEMODE
 70
     1
  9
$MAXACTVP
 70
    64
  9
$PINSBASE
 10
0.0
 20
0.0
 30
0.0
  9
$PLIMCHECK
 70
     0
  9
$PEXTMIN
 10
0.0
 20
0.0
 30
0.0
  9
$PEXTMAX
 10
0.0
 20
0.0
 30
0.0
  9
$PLIMMIN
 10
0.0
 20
0.0
  9
$PLIMMAX
 10
12.0
 20
9.0
  9
$UNITMODE
 70
     0
  9
$VISRETAIN
 70
     1
  9
$PLINEGEN
 70
     0
  9
$PSLTSCALE
 70
     1
  9
$TREEDEPTH
 70
  3020
  9
$CMLSTYLE
  2
Standard
  9
$CMLJUST
 70
     0
  9
$CMLSCALE
 40
20.0
  9
$PROXYGRAPHICS
 70
     1
  9
$MEASUREMENT
 70
     1
  9
$CELWEIGHT
370
    -1
  9
$ENDCAPS
280
     0
  9
$JOINSTYLE
280
     0
  9
$LWDISPLAY
290
     0
  9
$INSUNITS
 70
     4
  9
$HYPERLINKBASE
  1

  9
$STYLESHEET
  1

  9
$XEDIT
290
     1
  9
$CEPSNTYPE
380
     0
  9
$PSTYLEMODE
290
     1
  9
$FINGERPRINTGUID
  2
{7A9F8AD9-665E-435F-A8D6-3618E7CCD7FC}
  9
$VERSIONGUID
  2
{2E4D9A43-FA3F-4319-8128-CFAB020E0013}
  9
$EXTNAMES
290
     1
  9
$PSVPSCALE
 40
0.0
  9
$OLESTARTUP
290
     0
  9
$SORTENTS
280
   127
  9
$INDEXCTL
280
     0
  9
$HIDETEXT
280
     1
  9
$XCLIPFRAME
280
     2
  9
$HALOGAP
280
     0
  9
$OBSCOLOR
 70
   257
  9
$OBSLTYPE
280
     0
  9
$INTERSECTIONDISPLAY
280
     0
  9
$INTERSECTIONCOLOR
 70
   257
  9
$DIMASSOC
280
     2
  9
$PROJECTNAME
  1

  9
$CAMERADISPLAY
290
     0
  9
$LENSLENGTH
 40
50.0
  9
$CAMERAHEIGHT
 40
0.0
  9
$STEPSPERSEC
 40
2.0
  9
$STEPSIZE
 40
6.0
  9
$3DDWFPREC
 40
2.0
  9
$PSOLWIDTH
 40
0.25
  9
$PSOLHEIGHT
 40
4.0
  9
$LOFTANG1
 40
1.570796326794896
  9
$LOFTANG2
 40
1.570796326794896
  9
$LOFTMAG1
 40
0.0
  9
$LOFTMAG2
 40
0.0
  9
$LOFTPARAM
 70
     7
  9
$LOFTNORMALS
280
     1
  9
$LATITUDE
 40
0.0
  9
$LONGITUDE
 40
0.0
  9
$NORTHDIRECTION
 40
0.0
  9
$TIMEZONE
 70
 -8000
  9
$LIGHTGLYPHDISPLAY
280
     1
  9
$TILEMODELIGHTSYNCH
280
     1
  9
$SOLIDHIST
280
     1
  9
$SHOWHIST
280
     1
  9
$DWFFRAME
280
     2
  9
$DGNFRAME
280
     0
  9
$REALWORLDSCALE
290
     1
  9
$INTERFERECOLOR
 62
     1
  9
$CSHADOW
280
     0
  9
$SHADOWPLANELOCATION
 40
0.0
  0
ENDSEC
  0
SECTION
  2
CLASSES
  0
CLASS
  1
ACDBDICTIONARYWDFLT
  2
AcDbDictionaryWithDefault
  3
ObjectDBX Classes
 90
        0
 91
        1
280
     0
281
     0
  0
CLASS
  1
ACDBPLACEHOLDER
  2
AcDbPlaceHolder
  3
ObjectDBX Classes
 90
        0
 91
        0
280
     0
281
     0
  0
CLASS
  1
LAYOUT
  2
AcDbLayout
  3
ObjectDBX Classes
 90
        0
 91
        0
280
     0
281
     0
  0
CLASS
  1
DICTIONARYVAR
  2
AcDbDictionaryVar
  3
ObjectDBX Classes
 90
        0
 91
        9
280
     0
281
     0
  0
CLASS
  1
TABLESTYLE
  2
AcDbTableStyle
  3
ObjectDBX Classes
 90
     4095
 91
        1
280
     0
281
     0
  0
CLASS
  1
WIPEOUTVARIABLES
  2
AcDbWipeoutVariables
  3
"WipeOut|Product Desc:     WipeOut Dbx Application|Company:          Autodesk, Inc.|WEB Address:      www.autodesk.com"
 90
        0
 91
        0
280
     0
281
     0
  0
CLASS
  1
SCALE
  2
AcDbScale
  3
ObjectDBX Classes
 90
     1153
 91
       17
280
     0
281
     0
  0
CLASS
  1
MLEADERSTYLE
  2
AcDbMLeaderStyle
  3
ACDB_MLEADERSTYLE_CLASS
 90
     4095
 91
        2
280
     0
281
     0
  0
CLASS
  1
MATERIAL
  2
AcDbMaterial
  3
ObjectDBX Classes
 90
     1153
 91
        3
280
     0
281
     0
  0
CLASS
  1
VISUALSTYLE
  2
AcDbVisualStyle
  3
ObjectDBX Classes
 90
     4095
 91
       24
280
     0
281
     0
  0
CLASS
  1
ACDBSECTIONVIEWSTYLE
  2
AcDbSectionViewStyle
  3
ObjectDBX Classes
 90
     1025
 91
        1
280
     0
281
     0
  0
CLASS
  1
ACDBDETAILVIEWSTYLE
  2
AcDbDetailViewStyle
  3
ObjectDBX Classes
 90
     1025
 91
        1
280
     0
281
     0
  0
CLASS
  1
SORTENTSTABLE
  2
AcDbSortentsTable
  3
ObjectDBX Classes
 90
        0
 91
        1
280
     0
281
     0
  0
CLASS
  1
DIMASSOC
  2
AcDbDimAssoc
  3
ZcDbDimAssoc ObjectDBX Classes
 90
        0
 91
       53
280
     0
281
     0
  0
CLASS
  1
CELLSTYLEMAP
  2
AcDbCellStyleMap
  3
ObjectDBX Classes
 90
     1152
 91
        0
280
     0
281
     0
  0
CLASS
  1
RASTERVARIABLES
  2
AcDbRasterVariables
  3
ISM
 90
        0
 91
        1
280
     0
281
     0
  0
ENDSEC
  0
SECTION
  2
TABLES
  0
TABLE
  2
VPORT
  5
8
330
0
100
AcDbSymbolTable
 70
     1
  0
VPORT
  5
1BA
330
8
100
AcDbSymbolTableRecord
100
AcDbViewportTableRecord
  2
*Active
 70
     0
 10
0.0
 20
0.0
 11
1.0
 21
1.0
 12
12234.98707313134
 22
2107.521900091709
 13
0.0
 23
0.0
 14
10.0
 24
10.0
 15
10.0
 25
10.0
 16
0.0
 26
0.0
 36
1.0
 17
0.0
 27
0.0
 37
0.0
 40
2629.319885785736
 41
2.196642685851319
 42
50.0
 43
0.0
 44
0.0
 50
0.0
 51
0.0
 71
    16
 72
  1000
 73
     1
 74
     3
 75
     0
 76
     0
 77
     0
 78
     0
281
     0
 65
     1
110
0.0
120
0.0
130
0.0
111
1.0
121
0.0
131
0.0
112
0.0
122
1.0
132
0.0
 79
     0
146
0.0
348
14B
 60
     3
 61
     5
292
     1
282
     1
141
0.0
142
0.0
 63
   256
1001
ACAD_NAV_VCDISPLAY
1070
     3
  0
ENDTAB
  0
TABLE
  2
LTYPE
  5
5
330
0
100
AcDbSymbolTable
 70
     2
  0
LTYPE
  5
14
330
5
100
AcDbSymbolTableRecord
100
AcDbLinetypeTableRecord
  2
ByBlock
 70
     0
  3

 72
    65
 73
     0
 40
0.0
  0
LTYPE
  5
15
330
5
100
AcDbSymbolTableRecord
100
AcDbLinetypeTableRecord
  2
ByLayer
 70
     0
  3

 72
    65
 73
     0
 40
0.0
  0
LTYPE
  5
16
330
5
100
AcDbSymbolTableRecord
100
AcDbLinetypeTableRecord
  2
Continuous
 70
     0
  3
Solid line
 72
    65
 73
     0
 40
0.0
  0
LTYPE
  5
238
330
5
100
AcDbSymbolTableRecord
100
AcDbLinetypeTableRecord
  2
ACAD_ISO03W100
 70
     0
  3
ISO dash space __    __    __    __    __    __
 72
    65
 73
     2
 40
30.0
 49
12.0
 74
     0
 49
-18.0
 74
     0
  0
ENDTAB
  0
TABLE
  2
LAYER
  5
2
102
{ACAD_XDICTIONARY
360
FA
102
}
330
0
100
AcDbSymbolTable
 70
     8
  0
LAYER
  5
10
330
2
100
AcDbSymbolTableRecord
100
AcDbLayerTableRecord
  2
0
 70
     0
 62
     7
  6
Continuous
370
    -3
390
F
347
13D
348
0
1071
 33554687
  0
LAYER
  5
22D
330
2
100
AcDbSymbolTableRecord
100
AcDbLayerTableRecord
  2
Defpoints
 70
     0
 62
     7
  6
Continuous
290
     0
370
    -3
390
F
347
13D
348
0
1071
 33554687
  0
LAYER
  5
233
330
2
100
AcDbSymbolTableRecord
100
AcDbLayerTableRecord
  2
标注
 70
     0
 62
     7
  6
Continuous
370
     5
390
F
347
13D
348
0
1071
 33554687
1001
AcAecLayerStandard
1000

1000

  0
LAYER
  5
22E
330
2
100
AcDbSymbolTableRecord
100
AcDbLayerTableRecord
  2
外框线1
 70
     0
 62
     7
  6
Continuous
370
    15
390
F
347
13D
348
0
1071
 33554687
1001
AcAecLayerStandard
1000

1000

  0
LAYER
  5
237
330
2
100
AcDbSymbolTableRecord
100
AcDbLayerTableRecord
  2
切角线
 70
     0
 62
     7
  6
Continuous
370
    15
390
F
347
13D
348
0
1071
 33554687
1001
AcAecLayerStandard
1000

1000

1001
AcCmTransparency
1071
        0
  0
LAYER
  5
234
330
2
100
AcDbSymbolTableRecord
100
AcDbLayerTableRecord
  2
旧型号
 70
     0
 62
   255
  6
Continuous
370
    -3
390
F
347
13D
348
0
1071
 33554687
1001
AcAecLayerStandard
1000

1000

1001
AcCmTransparency
1071
        0
  0
LAYER
  5
236
330
2
100
AcDbSymbolTableRecord
100
AcDbLayerTableRecord
  2
开孔尺寸-2线
 70
     0
 62
     4
  6
Continuous
370
    15
390
F
347
13D
348
0
1071
 33554687
1001
AcAecLayerStandard
1000

1000

1001
AcCmTransparency
1071
        0
  0
LAYER
  5
120C
330
2
100
AcDbSymbolTableRecord
100
AcDbLayerTableRecord
  2
图框
 70
     0
 62
     5
  6
Continuous
370
    53
390
F
347
13D
348
0
1071
 33554687
1001
AcAecLayerStandard
1000

1000

  0
ENDTAB
  0
TABLE
  2
STYLE
  5
3
330
0
100
AcDbSymbolTable
 70
     3
  0
STYLE
  5
11
330
3
100
AcDbSymbolTableRecord
100
AcDbTextStyleTableRecord
  2
Standard
 70
     0
 40
0.0
 41
1.0
 50
0.0
 71
     0
 42
2.5
  3

  4

1001
ACAD
1000
SimSun
1071
    34306
  0
STYLE
  5
21D
330
3
100
AcDbSymbolTableRecord
100
AcDbTextStyleTableRecord
  2
Annotative
 70
     0
 40
0.0
 41
1.0
 50
0.0
 71
     0
 42
2.5
  3

  4

1001
AcadAnnotative
1000
AnnotativeData
1002
{
1070
     1
1070
     1
1002
}
1001
ACAD
1000
SimSun
1071
    34306
  0
STYLE
  5
121B
330
3
100
AcDbSymbolTableRecord
100
AcDbTextStyleTableRecord
  2
样式 1
 70
     0
 40
0.0
 41
1.0
 50
0.0
 71
     0
 42
3.0
  3

  4

1001
ACAD
1000
NSimSun
1071
    34353
  0
ENDTAB
  0
TABLE
  2
VIEW
  5
6
330
0
100
AcDbSymbolTable
 70
     0
  0
ENDTAB
  0
TABLE
  2
UCS
  5
7
330
0
100
AcDbSymbolTable
 70
     0
  0
ENDTAB
  0
TABLE
  2
APPID
  5
9
330
0
100
AcDbSymbolTable
 70
    17
  0
APPID
  5
12
330
9
100
AcDbSymbolTableRecord
100
AcDbRegAppTableRecord
  2
ACAD
 70
     0
  0
APPID
  5
F4
330
9
100
AcDbSymbolTableRecord
100
AcDbRegAppTableRecord
  2
ACAD_PSEXT
 70
     0
  0
APPID
  5
16E
330
9
100
AcDbSymbolTableRecord
100
AcDbRegAppTableRecord
  2
ACAD_NAV_VCDISPLAY
 70
     0
  0
APPID
  5
21E
330
9
100
AcDbSymbolTableRecord
100
AcDbRegAppTableRecord
  2
AcadAnnoPO
 70
     0
  0
APPID
  5
21F
330
9
100
AcDbSymbolTableRecord
100
AcDbRegAppTableRecord
  2
AcadAnnotative
 70
     0
  0
APPID
  5
224
330
9
100
AcDbSymbolTableRecord
100
AcDbRegAppTableRecord
  2
ACAD_DSTYLE_DIMJAG
 70
     0
  0
APPID
  5
225
330
9
100
AcDbSymbolTableRecord
100
AcDbRegAppTableRecord
  2
ACAD_DSTYLE_DIMBREAK
 70
     0
  0
APPID
  5
226
330
9
100
AcDbSymbolTableRecord
100
AcDbRegAppTableRecord
  2
ACAD_DSTYLE_DIMTALN
 70
     0
  0
APPID
  5
232
330
9
100
AcDbSymbolTableRecord
100
AcDbRegAppTableRecord
  2
AcAecLayerStandard
 70
     0
  0
APPID
  5
235
330
9
100
AcDbSymbolTableRecord
100
AcDbRegAppTableRecord
  2
AcCmTransparency
 70
     0
  0
APPID
  5
246
330
9
100
AcDbSymbolTableRecord
100
AcDbRegAppTableRecord
  2
ACAD_DSTYLE_DIMJOGGED_JOGANGLE_SYMBOL
 70
     0
  0
APPID
  5
247
330
9
100
AcDbSymbolTableRecord
100
AcDbRegAppTableRecord
  2
ACAD_DSTYLE_DIMEXT_ENABLED
 70
     0
  0
APPID
  5
248
330
9
100
AcDbSymbolTableRecord
100
AcDbRegAppTableRecord
  2
ACAD_DSTYLE_DIMEXT_LENGTH
 70
     0
  0
APPID
  5
521
330
9
100
AcDbSymbolTableRecord
100
AcDbRegAppTableRecord
  2
ACAD_DSTYLE_DIMRADIAL_EXTENSION
 70
     0
  0
APPID
  5
D99
330
9
100
AcDbSymbolTableRecord
100
AcDbRegAppTableRecord
  2
ACAD_MLEADERVER
 70
     0
  0
APPID
  5
121A
330
9
100
AcDbSymbolTableRecord
100
AcDbRegAppTableRecord
  2
AcDbDynamicBlockGUID
 70
     0
  0
APPID
  5
176C
330
9
100
AcDbSymbolTableRecord
100
AcDbRegAppTableRecord
  2
ACAD_DSTYLE_DIMINSPECT
 70
     0
  0
ENDTAB
  0
TABLE
  2
DIMSTYLE
  5
A
330
0
100
AcDbSymbolTable
 70
    10
100
AcDbDimStyleTable
 71
     2
340
9C
340
227
  0
DIMSTYLE
105
27
330
A
100
AcDbSymbolTableRecord
100
AcDbDimStyleTableRecord
  2
Standard
 70
     0
340
11
  0
DIMSTYLE
105
9C
330
A
100
AcDbSymbolTableRecord
100
AcDbDimStyleTableRecord
  2
ISO-25
 70
     0
 41
2.5
 42
0.625
 43
3.75
 44
1.25
 73
     0
 74
     0
 77
     1
 78
     8
140
2.5
141
2.5
143
0.03937007874016
147
0.625
171
     3
172
     1
271
     2
272
     2
274
     3
278
    44
283
     0
284
     8
340
11
  0
DIMSTYLE
105
227
330
A
100
AcDbSymbolTableRecord
100
AcDbDimStyleTableRecord
  2
Annotative
 70
     0
 41
2.5
 42
0.625
 43
3.75
 44
1.25
 73
     0
 74
     0
 77
     1
 78
     8
140
2.5
141
2.5
143
0.03937007874016
147
0.625
171
     3
172
     1
271
     2
272
     2
274
     3
278
    44
283
     0
284
     8
340
11
1001
ACAD_DSTYLE_DIMBREAK
1070
   391
1040
3.75
1001
AcadAnnotative
1000
AnnotativeData
1002
{
1070
     1
1070
     1
1002
}
1001
ACAD_DSTYLE_DIMJAG
1070
   388
1040
1.5
1001
ACAD_DSTYLE_DIMTALN
1070
   392
1070
     0
  0
DIMSTYLE
105
23D
330
A
100
AcDbSymbolTableRecord
100
AcDbDimStyleTableRecord
  2
1-8-L
 70
     0
 40
8.0
 41
1.5
 42
0.625
 43
3.75
 44
1.25
 73
     0
 74
     0
 77
     1
 78
     8
140
2.299999999999998
141
2.5
143
0.03937007874016
147
0.625
171
     8
172
     1
271
     2
272
     2
273
     7
274
     8
283
     0
284
     8
340
11
1001
ACAD_DSTYLE_DIMBREAK
1070
   391
1040
3.75
1001
ACAD_DSTYLE_DIMJAG
1070
   388
1040
1.5
1001
ACAD_DSTYLE_DIMTALN
1070
   392
1070
     0
  0
DIMSTYLE
105
23F
102
{ACAD_REACTORS
330
63B
330
63E
330
641
330
644
330
1635
330
1636
330
1761
330
19BC
330
19BF
102
}
330
A
100
AcDbSymbolTableRecord
100
AcDbDimStyleTableRecord
  2
1-11-L
 70
     0
 40
11.0
 41
1.5
 42
3.0
 43
3.75
 44
1.0
 49
5.0
290
     1
 73
     0
 74
     0
 77
     1
 78
     8
140
2.299999999999998
141
2.5
143
0.03937007874016
147
0.625
171
     8
172
     1
271
     0
272
     0
273
     7
274
     8
283
     0
284
     8
340
11
1001
ACAD_DSTYLE_DIMBREAK
1070
   391
1040
3.75
1001
ACAD_DSTYLE_DIMJAG
1070
   388
1040
1.5
1001
ACAD_DSTYLE_DIMTALN
1070
   392
1070
     0
  0
DIMSTYLE
105
239
102
{ACAD_REACTORS
330
13D0
330
13D3
330
13D6
330
13D9
330
13DC
330
162F
330
1630
330
1631
330
1632
330
1633
330
1634
330
19A5
330
19A8
330
19AB
330
19AE
330
19B1
330
19B4
330
19B7
102
}
330
A
100
AcDbSymbolTableRecord
100
AcDbDimStyleTableRecord
  2
B-英寸
 70
     0
  4
"
 40
11.0
 41
1.5
 42
2.0
 43
0.1
 44
1.0
 49
5.0
 50
89.99999999999998
290
     1
 73
     0
 74
     0
 77
     1
 78
     1
 79
     2
140
2.5
141
0.0
143
0.0394
147
0.4500000000000001
170
     1
171
     3
179
     1
271
     1
272
     1
273
     7
274
     3
340
11
1001
ACAD_DSTYLE_DIMJAG
1070
   388
1040
1.5
1001
ACAD_DSTYLE_DIMTALN
1070
   392
1070
     0
  0
DIMSTYLE
105
243
330
A
100
AcDbSymbolTableRecord
100
AcDbDimStyleTableRecord
  2
1
 70
     0
 41
10.0
 42
1.0
 43
3.75
 44
1.25
 73
     0
 74
     0
 77
     1
 78
     8
140
20.0
141
2.5
143
0.03937007874016
147
5.0
171
     3
172
     1
271
     0
272
     0
274
     3
278
    44
283
     0
284
     8
340
11
1001
ACAD_DSTYLE_DIMJAG
1070
   388
1040
1.5
1001
ACAD_DSTYLE_DIMTALN
1070
   392
1070
     0
  0
DIMSTYLE
105
240
330
A
100
AcDbSymbolTableRecord
100
AcDbDimStyleTableRecord
  2
1-8-m
 70
     0
  4
"
 40
8.0
 41
1.5
 42
0.625
 43
5.0
 44
1.25
 73
     0
 74
     0
 77
     1
 78
     8
140
2.299999999999999
141
2.5
143
0.03937007874016
147
0.625
170
     1
171
     3
172
     1
176
   256
177
   256
271
     2
272
     2
273
     7
274
     3
283
     0
284
     8
340
21D
371
    -1
372
    -1
1001
ACAD_DSTYLE_DIMBREAK
1070
   391
1040
3.75
1001
ACAD_DSTYLE_DIMJAG
1070
   388
1040
1.5
1001
ACAD_DSTYLE_DIMTALN
1070
   392
1070
     0
  0
DIMSTYLE
105
1213
330
A
100
AcDbSymbolTableRecord
100
AcDbDimStyleTableRecord
  2
1-10
 70
     0
  4
"
 40
8.0
 41
1.5
 42
0.625
 43
3.75
 44
1.25
 73
     0
 74
     0
 77
     1
 78
     8
140
2.299999999999999
141
2.5
143
0.03937007874016
147
0.625
170
     1
171
     3
172
     1
271
     1
272
     1
273
     7
274
     3
283
     0
284
     8
340
11
1001
ACAD_DSTYLE_DIMBREAK
1070
   391
1040
3.75
1001
ACAD_DSTYLE_DIMJAG
1070
   388
1040
1.5
1001
ACAD_DSTYLE_DIMTALN
1070
   392
1070
     0
  0
DIMSTYLE
105
120F
330
A
100
AcDbSymbolTableRecord
100
AcDbDimStyleTableRecord
  2
1-10-L
 70
     0
 40
10.0
 41
1.5
 42
0.625
 43
3.75
 44
1.25
 73
     0
 74
     0
 77
     1
 78
     8
140
2.299999999999999
141
2.5
143
0.03937007874016
147
0.625
171
     8
172
     1
271
     2
272
     2
273
     7
274
     8
283
     0
284
     8
340
11
1001
ACAD_DSTYLE_DIMBREAK
1070
   391
1040
3.75
1001
ACAD_DSTYLE_DIMJAG
1070
   388
1040
1.5
1001
ACAD_DSTYLE_DIMTALN
1070
   392
1070
     0
  0
ENDTAB
  0
TABLE
  2
BLOCK_RECORD
  5
1
330
0
100
AcDbSymbolTable
 70
    98
  0
BLOCK_RECORD
  5
1F
330
1
100
AcDbSymbolTableRecord
100
AcDbBlockTableRecord
  2
*Model_Space
340
22
 70
     0
280
     1
281
     0
  0
BLOCK_RECORD
  5
1C7
330
1
100
AcDbSymbolTableRecord
100
AcDbBlockTableRecord
  2
*Paper_Space
340
1C8
 70
     0
280
     1
281
     0
  0
BLOCK_RECORD
  5
1CC
330
1
100
AcDbSymbolTableRecord
100
AcDbBlockTableRecord
  2
*Paper_Space0
340
1CD
 70
     0
280
     1
281
     0
  0
BLOCK_RECORD
  5
3CD
330
1
100
AcDbSymbolTableRecord
100
AcDbBlockTableRecord
  2
*D1
340
0
 70
     0
280
     1
281
     0
  0
BLOCK_RECORD
  5
3D9
330
1
100
AcDbSymbolTableRecord
100
AcDbBlockTableRecord
  2
*D2
340
0
 70
     0
280
     1
281
     0
  0
BLOCK_RECORD
  5
3E5
330
1
100
AcDbSymbolTableRecord
100
AcDbBlockTableRecord
  2
*D3
340
0
 70
     0
280
     1
281
     0
  0
BLOCK_RECORD
  5
3F1
330
1
100
AcDbSymbolTableRecord
100
AcDbBlockTableRecord
  2
*D4
340
0
 70
     0
280
     1
281
     0
  0
BLOCK_RECORD
  5
3FD
330
1
100
AcDbSymbolTableRecord
100
AcDbBlockTableRecord
  2
*D5
340
0
 70
     0
280
     1
281
     0
  0
BLOCK_RECORD
  5
409
330
1
100
AcDbSymbolTableRecord
100
AcDbBlockTableRecord
  2
*D6
340
0
 70
     0
280
     1
281
     0
  0
BLOCK_RECORD
  5
415
330
1
100
AcDbSymbolTableRecord
100
AcDbBlockTableRecord
  2
*D7
340
0
 70
     0
280
     1
281
     0
  0
BLOCK_RECORD
  5
421
330
1
100
AcDbSymbolTableRecord
100
AcDbBlockTableRecord
  2
*D8
340
0
 70
     0
280
     1
281
     0
  0
BLOCK_RECORD
  5
42D
330
1
100
AcDbSymbolTableRecord
100
AcDbBlockTableRecord
  2
*D9
340
0
 70
     0
280
     1
281
     0
  0
BLOCK_RECORD
  5
439
330
1
100
AcDbSymbolTableRecord
100
AcDbBlockTableRecord
  2
*D10
340
0
 70
     0
280
     1
281
     0
  0
BLOCK_RECORD
  5
445
330
1
100
AcDbSymbolTableRecord
100
AcDbBlockTableRecord
  2
*D11
340
0
 70
     0
280
     1
281
     0
  0
BLOCK_RECORD
  5
451
330
1
100
AcDbSymbolTableRecord
100
AcDbBlockTableRecord
  2
*D12
340
0
 70
     0
280
     1
281
     0
  0
BLOCK_RECORD
  5
45D
330
1
100
AcDbSymbolTableRecord
100
AcDbBlockTableRecord
  2
*D13
340
0
 70
     0
280
     1
281
     0
  0
BLOCK_RECORD
  5
469
330
1
100
AcDbSymbolTableRecord
100
AcDbBlockTableRecord
  2
*D14
340
0
 70
     0
280
     1
281
     0
  0
BLOCK_RECORD
  5
475
330
1
100
AcDbSymbolTableRecord
100
AcDbBlockTableRecord
  2
*D15
340
0
 70
     0
280
     1
281
     0
  0
BLOCK_RECORD
  5
64A
330
1
100
AcDbSymbolTableRecord
100
AcDbBlockTableRecord
  2
*D16
340
0
 70
     0
280
     1
281
     0
  0
BLOCK_RECORD
  5
656
330
1
100
AcDbSymbolTableRecord
100
AcDbBlockTableRecord
  2
*D17
340
0
 70
     0
280
     1
281
     0
  0
BLOCK_RECORD
  5
662
330
1
100
AcDbSymbolTableRecord
100
AcDbBlockTableRecord
  2
*D18
340
0
 70
     0
280
     1
281
     0
  0
BLOCK_RECORD
  5
66E
330
1
100
AcDbSymbolTableRecord
100
AcDbBlockTableRecord
  2
*D19
340
0
 70
     0
280
     1
281
     0
  0
BLOCK_RECORD
  5
67A
330
1
100
AcDbSymbolTableRecord
100
AcDbBlockTableRecord
  2
*D20
340
0
 70
     0
280
     1
281
     0
  0
BLOCK_RECORD
  5
686
330
1
100
AcDbSymbolTableRecord
100
AcDbBlockTableRecord
  2
*D21
340
0
 70
     0
280
     1
281
     0
  0
BLOCK_RECORD
  5
692
330
1
100
AcDbSymbolTableRecord
100
AcDbBlockTableRecord
  2
*D22
340
0
 70
     0
280
     1
281
     0
  0
BLOCK_RECORD
  5
69A
330
1
100
AcDbSymbolTableRecord
100
AcDbBlockTableRecord
  2
*D23
340
0
 70
     0
280
     1
281
     0
  0
BLOCK_RECORD
  5
6A2
330
1
100
AcDbSymbolTableRecord
100
AcDbBlockTableRecord
  2
*D24
340
0
 70
     0
280
     1
281
     0
  0
BLOCK_RECORD
  5
6AE
330
1
100
AcDbSymbolTableRecord
100
AcDbBlockTableRecord
  2
*D25
340
0
 70
     0
280
     1
281
     0
  0
BLOCK_RECORD
  5
6BA
330
1
100
AcDbSymbolTableRecord
100
AcDbBlockTableRecord
  2
*D26
340
0
 70
     0
280
     1
281
     0
  0
BLOCK_RECORD
  5
6C6
330
1
100
AcDbSymbolTableRecord
100
AcDbBlockTableRecord
  2
*D27
340
0
 70
     0
280
     1
281
     0
  0
BLOCK_RECORD
  5
8BC
330
1
100
AcDbSymbolTableRecord
100
AcDbBlockTableRecord
  2
*D28
340
0
 70
     0
280
     1
281
     0
  0
BLOCK_RECORD
  5
8C8
330
1
100
AcDbSymbolTableRecord
100
AcDbBlockTableRecord
  2
*D29
340
0
 70
     0
280
     1
281
     0
  0
BLOCK_RECORD
  5
8D4
330
1
100
AcDbSymbolTableRecord
100
AcDbBlockTableRecord
  2
*D30
340
0
 70
     0
280
     1
281
     0
  0
BLOCK_RECORD
  5
8E0
330
1
100
AcDbSymbolTableRecord
100
AcDbBlockTableRecord
  2
*D31
340
0
 70
     0
280
     1
281
     0
  0
BLOCK_RECORD
  5
8EC
330
1
100
AcDbSymbolTableRecord
100
AcDbBlockTableRecord
  2
*D32
340
0
 70
     0
280
     1
281
     0
  0
BLOCK_RECORD
  5
8F8
330
1
100
AcDbSymbolTableRecord
100
AcDbBlockTableRecord
  2
*D33
340
0
 70
     0
280
     1
281
     0
  0
BLOCK_RECORD
  5
904
330
1
100
AcDbSymbolTableRecord
100
AcDbBlockTableRecord
  2
*D34
340
0
 70
     0
280
     1
281
     0
  0
BLOCK_RECORD
  5
911
330
1
100
AcDbSymbolTableRecord
100
AcDbBlockTableRecord
  2
*D35
340
0
 70
     0
280
     1
281
     0
  0
BLOCK_RECORD
  5
919
330
1
100
AcDbSymbolTableRecord
100
AcDbBlockTableRecord
  2
*D36
340
0
 70
     0
280
     1
281
     0
  0
BLOCK_RECORD
  5
921
330
1
100
AcDbSymbolTableRecord
100
AcDbBlockTableRecord
  2
*D37
340
0
 70
     0
280
     1
281
     0
  0
BLOCK_RECORD
  5
92D
330
1
100
AcDbSymbolTableRecord
100
AcDbBlockTableRecord
  2
*D38
340
0
 70
     0
280
     1
281
     0
  0
BLOCK_RECORD
  5
939
330
1
100
AcDbSymbolTableRecord
100
AcDbBlockTableRecord
  2
*D39
340
0
 70
     0
280
     1
281
     0
  0
BLOCK_RECORD
  5
945
330
1
100
AcDbSymbolTableRecord
100
AcDbBlockTableRecord
  2
*D40
340
0
 70
     0
280
     1
281
     0
  0
BLOCK_RECORD
  5
BE7
330
1
100
AcDbSymbolTableRecord
100
AcDbBlockTableRecord
  2
*D41
340
0
 70
     0
280
     1
281
     0
  0
BLOCK_RECORD
  5
BF3
330
1
100
AcDbSymbolTableRecord
100
AcDbBlockTableRecord
  2
*D42
340
0
 70
     0
280
     1
281
     0
  0
BLOCK_RECORD
  5
BFF
330
1
100
AcDbSymbolTableRecord
100
AcDbBlockTableRecord
  2
*D43
340
0
 70
     0
280
     1
281
     0
  0
BLOCK_RECORD
  5
C0B
330
1
100
AcDbSymbolTableRecord
100
AcDbBlockTableRecord
  2
*D44
340
0
 70
     0
280
     1
281
     0
  0
BLOCK_RECORD
  5
C17
330
1
100
AcDbSymbolTableRecord
100
AcDbBlockTableRecord
  2
*D45
340
0
 70
     0
280
     1
281
     0
  0
BLOCK_RECORD
  5
C23
330
1
100
AcDbSymbolTableRecord
100
AcDbBlockTableRecord
  2
*D46
340
0
 70
     0
280
     1
281
     0
  0
BLOCK_RECORD
  5
C2F
330
1
100
AcDbSymbolTableRecord
100
AcDbBlockTableRecord
  2
*D47
340
0
 70
     0
280
     1
281
     0
  0
BLOCK_RECORD
  5
C3C
330
1
100
AcDbSymbolTableRecord
100
AcDbBlockTableRecord
  2
*D48
340
0
 70
     0
280
     1
281
     0
  0
BLOCK_RECORD
  5
C44
330
1
100
AcDbSymbolTableRecord
100
AcDbBlockTableRecord
  2
*D49
340
0
 70
     0
280
     1
281
     0
  0
BLOCK_RECORD
  5
F25
330
1
100
AcDbSymbolTableRecord
100
AcDbBlockTableRecord
  2
*D50
340
0
 70
     0
280
     1
281
     0
  0
BLOCK_RECORD
  5
F3F
330
1
100
AcDbSymbolTableRecord
100
AcDbBlockTableRecord
  2
*D51
340
0
 70
     0
280
     1
281
     0
  0
BLOCK_RECORD
  5
123E
102
{ACAD_XDICTIONARY
360
123F
102
}
330
1
100
AcDbSymbolTableRecord
100
AcDbBlockTableRecord
  2
A$C64DD58FE
340
0
102
{BLKREFS
331
1303
331
156A
331
1889
102
}
 70
     4
280
     1
281
     0
1001
AcDbDynamicBlockGUID
1000
{3FBD0DE1-2D19-4C64-BD80-F16771D549C6}
  0
BLOCK_RECORD
  5
13DF
330
1
100
AcDbSymbolTableRecord
100
AcDbBlockTableRecord
  2
*D58
340
0
 70
     0
280
     1
281
     0
  0
BLOCK_RECORD
  5
13EB
330
1
100
AcDbSymbolTableRecord
100
AcDbBlockTableRecord
  2
*D59
340
0
 70
     0
280
     1
281
     0
  0
BLOCK_RECORD
  5
13F7
330
1
100
AcDbSymbolTableRecord
100
AcDbBlockTableRecord
  2
*D60
340
0
 70
     0
280
     1
281
     0
  0
BLOCK_RECORD
  5
1403
330
1
100
AcDbSymbolTableRecord
100
AcDbBlockTableRecord
  2
*D61
340
0
 70
     0
280
     1
281
     0
  0
BLOCK_RECORD
  5
140F
330
1
100
AcDbSymbolTableRecord
100
AcDbBlockTableRecord
  2
*D62
340
0
 70
     0
280
     1
281
     0
  0
BLOCK_RECORD
  5
165C
330
1
100
AcDbSymbolTableRecord
100
AcDbBlockTableRecord
  2
*D71
340
0
 70
     0
280
     1
281
     0
  0
BLOCK_RECORD
  5
1668
330
1
100
AcDbSymbolTableRecord
100
AcDbBlockTableRecord
  2
*D72
340
0
 70
     0
280
     1
281
     0
  0
BLOCK_RECORD
  5
1674
330
1
100
AcDbSymbolTableRecord
100
AcDbBlockTableRecord
  2
*D73
340
0
 70
     0
280
     1
281
     0
  0
BLOCK_RECORD
  5
1680
330
1
100
AcDbSymbolTableRecord
100
AcDbBlockTableRecord
  2
*D74
340
0
 70
     0
280
     1
281
     0
  0
BLOCK_RECORD
  5
168C
330
1
100
AcDbSymbolTableRecord
100
AcDbBlockTableRecord
  2
*D75
340
0
 70
     0
280
     1
281
     0
  0
BLOCK_RECORD
  5
1698
330
1
100
AcDbSymbolTableRecord
100
AcDbBlockTableRecord
  2
*D76
340
0
 70
     0
280
     1
281
     0
  0
BLOCK_RECORD
  5
16A4
330
1
100
AcDbSymbolTableRecord
100
AcDbBlockTableRecord
  2
*D77
340
0
 70
     0
280
     1
281
     0
  0
BLOCK_RECORD
  5
16AC
330
1
100
AcDbSymbolTableRecord
100
AcDbBlockTableRecord
  2
*D78
340
0
 70
     0
280
     1
281
     0
  0
BLOCK_RECORD
  5
1764
330
1
100
AcDbSymbolTableRecord
100
AcDbBlockTableRecord
  2
*D79
340
0
 70
     0
280
     1
281
     0
  0
BLOCK_RECORD
  5
19C2
330
1
100
AcDbSymbolTableRecord
100
AcDbBlockTableRecord
  2
*D89
340
0
 70
     0
280
     1
281
     0
  0
BLOCK_RECORD
  5
19CE
330
1
100
AcDbSymbolTableRecord
100
AcDbBlockTableRecord
  2
*D90
340
0
 70
     0
280
     1
281
     0
  0
BLOCK_RECORD
  5
19DA
330
1
100
AcDbSymbolTableRecord
100
AcDbBlockTableRecord
  2
*D91
340
0
 70
     0
280
     1
281
     0
  0
BLOCK_RECORD
  5
19E6
330
1
100
AcDbSymbolTableRecord
100
AcDbBlockTableRecord
  2
*D92
340
0
 70
     0
280
     1
281
     0
  0
BLOCK_RECORD
  5
19F2
330
1
100
AcDbSymbolTableRecord
100
AcDbBlockTableRecord
  2
*D93
340
0
 70
     0
280
     1
281
     0
  0
BLOCK_RECORD
  5
19FE
330
1
100
AcDbSymbolTableRecord
100
AcDbBlockTableRecord
  2
*D94
340
0
 70
     0
280
     1
281
     0
  0
BLOCK_RECORD
  5
1A0A
330
1
100
AcDbSymbolTableRecord
100
AcDbBlockTableRecord
  2
*D95
340
0
 70
     0
280
     1
281
     0
  0
BLOCK_RECORD
  5
1A16
330
1
100
AcDbSymbolTableRecord
100
AcDbBlockTableRecord
  2
*D96
340
0
 70
     0
280
     1
281
     0
  0
BLOCK_RECORD
  5
1A1E
330
1
100
AcDbSymbolTableRecord
100
AcDbBlockTableRecord
  2
*D97
340
0
 70
     0
280
     1
281
     0
  0
ENDTAB
  0
ENDSEC
  0
SECTION
  2
BLOCKS
  0
BLOCK
  5
20
330
1F
100
AcDbEntity
  8
0
100
AcDbBlockBegin
  2
*Model_Space
 70
     0
 10
0.0
 20
0.0
 30
0.0
  3
*Model_Space
  1

  0
ENDBLK
  5
21
330
1F
100
AcDbEntity
  8
0
100
AcDbBlockEnd
  0
BLOCK
  5
1C9
330
1C7
100
AcDbEntity
 67
     1
  8
0
100
AcDbBlockBegin
  2
*Paper_Space
 70
     0
 10
0.0
 20
0.0
 30
0.0
  3
*Paper_Space
  1

  0
ENDBLK
  5
1CA
330
1C7
100
AcDbEntity
 67
     1
  8
0
100
AcDbBlockEnd
  0
BLOCK
  5
1CE
330
1CC
100
AcDbEntity
  8
0
100
AcDbBlockBegin
  2
*Paper_Space0
 70
     0
 10
0.0
 20
0.0
 30
0.0
  3
*Paper_Space0
  1

  0
ENDBLK
  5
1CF
330
1CC
100
AcDbEntity
  8
0
100
AcDbBlockEnd
  0
BLOCK
  5
3D7
330
3CD
100
AcDbEntity
  8
0
100
AcDbBlockBegin
  2
*D1
 70
     1
 10
0.0
 20
0.0
 30
0.0
  3
*D1
  1

  0
LINE
  5
9BF
330
3CD
100
AcDbEntity
  8
标注
 62
     0
370
    -2
100
AcDbLine
 10
1951.3197214949
 20
1467.625392282419
 30
0.0
 11
1951.3197214949
 21
1533.625392282419
 31
0.0
  0
LINE
  5
9C0
330
3CD
100
AcDbEntity
  8
标注
 62
     0
370
    -2
100
AcDbLine
 10
2716.319721494908
 20
1467.625392282419
 30
0.0
 11
2716.319721494908
 21
1533.625392282419
 31
0.0
  0
LINE
  5
9C1
330
3CD
100
AcDbEntity
  8
标注
 62
     0
370
    -2
100
AcDbLine
 10
1967.8197214949
 20
1522.625392282419
 30
0.0
 11
2699.819721494908
 21
1522.625392282419
 31
0.0
  0
SOLID
  5
9C2
330
3CD
100
AcDbEntity
  8
标注
 62
     0
100
AcDbTrace
 10
1967.8197214949
 20
1525.375392282419
 30
0.0
 11
1967.8197214949
 21
1519.875392282419
 31
0.0
 12
1951.3197214949
 22
1522.625392282419
 32
0.0
 13
1951.3197214949
 23
1522.625392282419
 33
0.0
  0
SOLID
  5
9C3
330
3CD
100
AcDbEntity
  8
标注
 62
     0
100
AcDbTrace
 10
2699.819721494908
 20
1519.875392282419
 30
0.0
 11
2699.819721494908
 21
1525.375392282419
 31
0.0
 12
2716.319721494908
 22
1522.625392282419
 32
0.0
 13
2716.319721494908
 23
1522.625392282419
 33
0.0
  0
MTEXT
  5
9C4
330
3CD
100
AcDbEntity
  8
标注
 62
     0
100
AcDbMText
 10
2333.819721494904
 20
1544.628464908117
 30
0.0
 40
27.5
 41
0.0
 46
0.0
 71
     5
 72
     1
  1
\A1;765.0 [30 1/8"]
 73
     1
 44
1.0
1001
ACAD
1000
MTEXTBEGIN
1070
    73
1070
     1
1070
    44
1040
1.0
1070
    74
1070
     0
1000
MTEXTEND
  0
POINT
  5
9C5
330
3CD
100
AcDbEntity
  8
Defpoints
 62
     0
100
AcDbPoint
 10
1951.3197214949
 20
1254.625392282419
 30
0.0
  0
POINT
  5
9C6
330
3CD
100
AcDbEntity
  8
Defpoints
 62
     0
100
AcDbPoint
 10
2716.319721494908
 20
1254.625392282419
 30
0.0
  0
POINT
  5
9C7
330
3CD
100
AcDbEntity
  8
Defpoints
 62
     0
100
AcDbPoint
 10
2716.319721494908
 20
1522.625392282419
 30
0.0
  0
ENDBLK
  5
3D8
330
3CD
100
AcDbEntity
  8
0
100
AcDbBlockEnd
  0
BLOCK
  5
3E3
330
3D9
100
AcDbEntity
  8
0
100
AcDbBlockBegin
  2
*D2
 70
     1
 10
0.0
 20
0.0
 30
0.0
  3
*D2
  1

  0
LINE
  5
9C8
330
3D9
100
AcDbEntity
  8
标注
 62
     0
370
    -2
100
AcDbLine
 10
1926.319761890253
 20
1527.625392282419
 30
0.0
 11
1926.319761890253
 21
1593.625392282419
 31
0.0
  0
LINE
  5
9C9
330
3D9
100
AcDbEntity
  8
标注
 62
     0
370
    -2
100
AcDbLine
 10
2741.319681099533
 20
1527.625392282419
 30
0.0
 11
2741.319681099533
 21
1593.625392282419
 31
0.0
  0
LINE
  5
9CA
330
3D9
100
AcDbEntity
  8
标注
 62
     0
370
    -2
100
AcDbLine
 10
1942.819761890253
 20
1582.625392282419
 30
0.0
 11
2724.819681099533
 21
1582.625392282419
 31
0.0
  0
SOLID
  5
9CB
330
3D9
100
AcDbEntity
  8
标注
 62
     0
100
AcDbTrace
 10
1942.819761890253
 20
1585.375392282419
 30
0.0
 11
1942.819761890253
 21
1579.875392282419
 31
0.0
 12
1926.319761890253
 22
1582.625392282419
 32
0.0
 13
1926.319761890253
 23
1582.625392282419
 33
0.0
  0
SOLID
  5
9CC
330
3D9
100
AcDbEntity
  8
标注
 62
     0
100
AcDbTrace
 10
2724.819681099533
 20
1579.875392282419
 30
0.0
 11
2724.819681099533
 21
1585.375392282419
 31
0.0
 12
2741.319681099533
 22
1582.625392282419
 32
0.0
 13
2741.319681099533
 23
1582.625392282419
 33
0.0
  0
MTEXT
  5
9CD
330
3D9
100
AcDbEntity
  8
标注
 62
     0
100
AcDbMText
 10
2333.819721494893
 20
1604.628464908117
 30
0.0
 40
27.5
 41
0.0
 46
0.0
 71
     5
 72
     1
  1
\A1;815.0 [32 1/8"]
 73
     1
 44
1.0
1001
ACAD
1000
MTEXTBEGIN
1070
    73
1070
     1
1070
    44
1040
1.0
1070
    74
1070
     0
1000
MTEXTEND
  0
POINT
  5
9CE
330
3D9
100
AcDbEntity
  8
Defpoints
 62
     0
100
AcDbPoint
 10
1926.319761890253
 20
1400.189809828081
 30
0.0
  0
POINT
  5
9CF
330
3D9
100
AcDbEntity
  8
Defpoints
 62
     0
100
AcDbPoint
 10
2741.319681099533
 20
1400.189809828081
 30
0.0
  0
POINT
  5
9D0
330
3D9
100
AcDbEntity
  8
Defpoints
 62
     0
100
AcDbPoint
 10
2741.319681099533
 20
1582.625392282419
 30
0.0
  0
ENDBLK
  5
3E4
330
3D9
100
AcDbEntity
  8
0
100
AcDbBlockEnd
  0
BLOCK
  5
3EF
330
3E5
100
AcDbEntity
  8
0
100
AcDbBlockBegin
  2
*D3
 70
     1
 10
0.0
 20
0.0
 30
0.0
  3
*D3
  1

  0
LINE
  5
9D1
330
3E5
100
AcDbEntity
  8
标注
 62
     0
370
    -2
100
AcDbLine
 10
1941.319761890282
 20
1457.625392282419
 30
0.0
 11
1875.319761890282
 21
1457.625392282419
 31
0.0
  0
LINE
  5
9D2
330
3E5
100
AcDbEntity
  8
标注
 62
     0
370
    -2
100
AcDbLine
 10
1941.319761890282
 20
1051.625392282419
 30
0.0
 11
1875.319761890282
 21
1051.625392282419
 31
0.0
  0
LINE
  5
9D3
330
3E5
100
AcDbEntity
  8
标注
 62
     0
370
    -2
100
AcDbLine
 10
1886.319761890282
 20
1441.125392282419
 30
0.0
 11
1886.319761890282
 21
1068.125392282419
 31
0.0
  0
SOLID
  5
9D4
330
3E5
100
AcDbEntity
  8
标注
 62
     0
100
AcDbTrace
 10
1889.069761890282
 20
1441.125392282419
 30
0.0
 11
1883.569761890282
 21
1441.125392282419
 31
0.0
 12
1886.319761890282
 22
1457.625392282419
 32
0.0
 13
1886.319761890282
 23
1457.625392282419
 33
0.0
  0
SOLID
  5
9D5
330
3E5
100
AcDbEntity
  8
标注
 62
     0
100
AcDbTrace
 10
1883.569761890282
 20
1068.125392282419
 30
0.0
 11
1889.069761890282
 21
1068.125392282419
 31
0.0
 12
1886.319761890282
 22
1051.625392282419
 32
0.0
 13
1886.319761890282
 23
1051.625392282419
 33
0.0
  0
MTEXT
  5
9D6
330
3E5
100
AcDbEntity
  8
标注
 62
     0
100
AcDbMText
 10
1864.316689264583
 20
1254.625392282419
 30
0.0
 40
27.5
 41
0.0
 46
0.0
 71
     5
 72
     1
  1
\A1;406.0 [16"]
 11
0.0
 21
1.0
 31
0.0
 73
     1
 44
1.0
1001
ACAD
1000
MTEXTBEGIN
1070
    73
1070
     1
1070
    44
1040
1.0
1070
    74
1070
     0
1000
MTEXTEND
  0
POINT
  5
9D7
330
3E5
100
AcDbEntity
  8
Defpoints
 62
     0
100
AcDbPoint
 10
2333.819721494908
 20
1457.625392282419
 30
0.0
  0
POINT
  5
9D8
330
3E5
100
AcDbEntity
  8
Defpoints
 62
     0
100
AcDbPoint
 10
2333.819721494908
 20
1051.625392282419
 30
0.0
  0
POINT
  5
9D9
330
3E5
100
AcDbEntity
  8
Defpoints
 62
     0
100
AcDbPoint
 10
1886.319761890282
 20
1051.625392282419
 30
0.0
  0
ENDBLK
  5
3F0
330
3E5
100
AcDbEntity
  8
0
100
AcDbBlockEnd
  0
BLOCK
  5
3FB
330
3F1
100
AcDbEntity
  8
0
100
AcDbBlockBegin
  2
*D4
 70
     1
 10
0.0
 20
0.0
 30
0.0
  3
*D4
  1

  0
LINE
  5
9DA
330
3F1
100
AcDbEntity
  8
标注
 62
     0
370
    -2
100
AcDbLine
 10
1881.319761890282
 20
1482.625392282419
 30
0.0
 11
1815.319761890282
 21
1482.625392282419
 31
0.0
  0
LINE
  5
9DB
330
3F1
100
AcDbEntity
  8
标注
 62
     0
370
    -2
100
AcDbLine
 10
1881.319761890282
 20
1026.625392282419
 30
0.0
 11
1815.319761890282
 21
1026.625392282419
 31
0.0
  0
LINE
  5
9DC
330
3F1
100
AcDbEntity
  8
标注
 62
     0
370
    -2
100
AcDbLine
 10
1826.319761890282
 20
1466.125392282419
 30
0.0
 11
1826.319761890282
 21
1043.125392282419
 31
0.0
  0
SOLID
  5
9DD
330
3F1
100
AcDbEntity
  8
标注
 62
     0
100
AcDbTrace
 10
1829.069761890282
 20
1466.125392282419
 30
0.0
 11
1823.569761890282
 21
1466.125392282419
 31
0.0
 12
1826.319761890282
 22
1482.625392282419
 32
0.0
 13
1826.319761890282
 23
1482.625392282419
 33
0.0
  0
SOLID
  5
9DE
330
3F1
100
AcDbEntity
  8
标注
 62
     0
100
AcDbTrace
 10
1823.569761890282
 20
1043.125392282419
 30
0.0
 11
1829.069761890282
 21
1043.125392282419
 31
0.0
 12
1826.319761890282
 22
1026.625392282419
 32
0.0
 13
1826.319761890282
 23
1026.625392282419
 33
0.0
  0
MTEXT
  5
9DF
330
3F1
100
AcDbEntity
  8
标注
 62
     0
100
AcDbMText
 10
1804.316689264584
 20
1254.625392282419
 30
0.0
 40
27.5
 41
0.0
 46
0.0
 71
     5
 72
     1
  1
\A1;456.0 [18"]
 11
0.0
 21
1.0
 31
0.0
 73
     1
 44
1.0
1001
ACAD
1000
MTEXTBEGIN
1070
    73
1070
     1
1070
    44
1040
1.0
1070
    74
1070
     0
1000
MTEXTEND
  0
POINT
  5
9E0
330
3F1
100
AcDbEntity
  8
Defpoints
 62
     0
100
AcDbPoint
 10
2008.755344344598
 20
1482.625392282419
 30
0.0
  0
POINT
  5
9E1
330
3F1
100
AcDbEntity
  8
Defpoints
 62
     0
100
AcDbPoint
 10
2008.755344344598
 20
1026.625392282419
 30
0.0
  0
POINT
  5
9E2
330
3F1
100
AcDbEntity
  8
Defpoints
 62
     0
100
AcDbPoint
 10
1826.319761890282
 20
1026.625392282419
 30
0.0
  0
ENDBLK
  5
3FC
330
3F1
100
AcDbEntity
  8
0
100
AcDbBlockEnd
  0
BLOCK
  5
407
330
3FD
100
AcDbEntity
  8
0
100
AcDbBlockBegin
  2
*D5
 70
     1
 10
0.0
 20
0.0
 30
0.0
  3
*D5
  1

  0
LINE
  5
9E3
330
3FD
100
AcDbEntity
  8
标注
 62
     0
370
    -2
100
AcDbLine
 10
1903.319761890289
 20
926.6253922824194
 30
0.0
 11
1837.319761890289
 21
926.6253922824194
 31
0.0
  0
LINE
  5
9E4
330
3FD
100
AcDbEntity
  8
标注
 62
     0
370
    -2
100
AcDbLine
 10
1903.319761890289
 20
698.2253922824252
 30
0.0
 11
1837.319761890289
 21
698.2253922824252
 31
0.0
  0
LINE
  5
9E5
330
3FD
100
AcDbEntity
  8
标注
 62
     0
370
    -2
100
AcDbLine
 10
1848.319761890289
 20
910.1253922824193
 30
0.0
 11
1848.319761890289
 21
714.7253922824252
 31
0.0
  0
SOLID
  5
9E6
330
3FD
100
AcDbEntity
  8
标注
 62
     0
100
AcDbTrace
 10
1851.069761890289
 20
910.1253922824193
 30
0.0
 11
1845.569761890289
 21
910.1253922824193
 31
0.0
 12
1848.319761890289
 22
926.6253922824194
 32
0.0
 13
1848.319761890289
 23
926.6253922824194
 33
0.0
  0
SOLID
  5
9E7
330
3FD
100
AcDbEntity
  8
标注
 62
     0
100
AcDbTrace
 10
1845.569761890289
 20
714.7253922824252
 30
0.0
 11
1851.069761890289
 21
714.7253922824252
 31
0.0
 12
1848.319761890289
 22
698.2253922824252
 32
0.0
 13
1848.319761890289
 23
698.2253922824252
 33
0.0
  0
MTEXT
  5
9E8
330
3FD
100
AcDbEntity
  8
标注
 62
     0
100
AcDbMText
 10
1826.316689264591
 20
812.4253922824223
 30
0.0
 40
27.5
 41
0.0
 46
0.0
 71
     5
 72
     1
  1
\A1;228 [9"]
 11
0.0
 21
1.0
 31
0.0
 73
     1
 44
1.0
1001
ACAD
1000
MTEXTBEGIN
1070
    73
1070
     1
1070
    44
1040
1.0
1070
    74
1070
     0
1000
MTEXTEND
  0
POINT
  5
9E9
330
3FD
100
AcDbEntity
  8
Defpoints
 62
     0
100
AcDbPoint
 10
1926.319761890253
 20
926.6253922824194
 30
0.0
  0
POINT
  5
9EA
330
3FD
100
AcDbEntity
  8
Defpoints
 62
     0
100
AcDbPoint
 10
2335.31972148801
 20
698.2253922824252
 30
0.0
  0
POINT
  5
9EB
330
3FD
100
AcDbEntity
  8
Defpoints
 62
     0
100
AcDbPoint
 10
1848.319761890289
 20
698.2253922824252
 30
0.0
  0
ENDBLK
  5
408
330
3FD
100
AcDbEntity
  8
0
100
AcDbBlockEnd
  0
BLOCK
  5
413
330
409
100
AcDbEntity
  8
0
100
AcDbBlockBegin
  2
*D6
 70
     1
 10
0.0
 20
0.0
 30
0.0
  3
*D6
  1

  0
LINE
  5
9EC
330
409
100
AcDbEntity
  8
开孔尺寸-2线
 62
     0
370
    -2
100
AcDbLine
 10
3109.031139143886
 20
1473.041987152437
 30
0.0
 11
3109.031139143886
 21
1539.041987152437
 31
0.0
  0
LINE
  5
9ED
330
409
100
AcDbEntity
  8
开孔尺寸-2线
 62
     0
370
    -2
100
AcDbLine
 10
3864.0311391439
 20
1473.041987152437
 30
0.0
 11
3864.0311391439
 21
1539.041987152437
 31
0.0
  0
LINE
  5
9EE
330
409
100
AcDbEntity
  8
开孔尺寸-2线
  6
ByBlock
 62
     0
370
    -2
100
AcDbLine
 10
3125.531139143886
 20
1528.041987152437
 30
0.0
 11
3847.5311391439
 21
1528.041987152437
 31
0.0
  0
SOLID
  5
9EF
330
409
100
AcDbEntity
  8
开孔尺寸-2线
 62
     0
100
AcDbTrace
 10
3125.531139143886
 20
1530.791987152437
 30
0.0
 11
3125.531139143886
 21
1525.291987152437
 31
0.0
 12
3109.031139143886
 22
1528.041987152437
 32
0.0
 13
3109.031139143886
 23
1528.041987152437
 33
0.0
  0
SOLID
  5
9F0
330
409
100
AcDbEntity
  8
开孔尺寸-2线
 62
     0
100
AcDbTrace
 10
3847.5311391439
 20
1525.291987152437
 30
0.0
 11
3847.5311391439
 21
1530.791987152437
 31
0.0
 12
3864.0311391439
 22
1528.041987152437
 32
0.0
 13
3864.0311391439
 23
1528.041987152437
 33
0.0
  0
MTEXT
  5
9F1
330
409
100
AcDbEntity
  8
开孔尺寸-2线
 62
     0
100
AcDbMText
 10
3486.531139143914
 20
1547.142964806068
 30
0.0
 40
25.29999999999999
 41
0.0
 46
0.0
 71
     5
 72
     1
  1
755
 73
     1
 44
1.0
1001
ACAD
1000
MTEXTBEGIN
1070
    73
1070
     1
1070
    44
1040
1.0
1070
    74
1070
     0
1000
MTEXTEND
  0
POINT
  5
9F2
330
409
100
AcDbEntity
  8
Defpoints
 62
     0
100
AcDbPoint
 10
3109.031139143886
 20
1274.600389345896
 30
0.0
  0
POINT
  5
9F3
330
409
100
AcDbEntity
  8
Defpoints
 62
     0
100
AcDbPoint
 10
3864.0311391439
 20
1274.60038934547
 30
0.0
  0
POINT
  5
9F4
330
409
100
AcDbEntity
  8
Defpoints
 62
     0
100
AcDbPoint
 10
3864.0311391439
 20
1528.041987152437
 30
0.0
  0
ENDBLK
  5
414
330
409
100
AcDbEntity
  8
0
100
AcDbBlockEnd
  0
BLOCK
  5
41F
330
415
100
AcDbEntity
  8
0
100
AcDbBlockBegin
  2
*D7
 70
     1
 10
0.0
 20
0.0
 30
0.0
  3
*D7
  1

  0
LINE
  5
9F5
330
415
100
AcDbEntity
  8
开孔尺寸-2线
 62
     0
370
    -2
100
AcDbLine
 10
3094.031139143878
 20
1520.763349120823
 30
0.0
 11
3094.031139143878
 21
1586.763349120823
 31
0.0
  0
LINE
  5
9F6
330
415
100
AcDbEntity
  8
开孔尺寸-2线
 62
     0
370
    -2
100
AcDbLine
 10
3879.031139143886
 20
1520.763349120823
 30
0.0
 11
3879.031139143886
 21
1586.763349120823
 31
0.0
  0
LINE
  5
9F7
330
415
100
AcDbEntity
  8
开孔尺寸-2线
  6
ByBlock
 62
     0
370
    -2
100
AcDbLine
 10
3110.531139143879
 20
1575.763349120823
 30
0.0
 11
3862.531139143886
 21
1575.763349120823
 31
0.0
  0
SOLID
  5
9F8
330
415
100
AcDbEntity
  8
开孔尺寸-2线
 62
     0
100
AcDbTrace
 10
3110.531139143879
 20
1578.513349120823
 30
0.0
 11
3110.531139143879
 21
1573.013349120823
 31
0.0
 12
3094.031139143878
 22
1575.763349120823
 32
0.0
 13
3094.031139143878
 23
1575.763349120823
 33
0.0
  0
SOLID
  5
9F9
330
415
100
AcDbEntity
  8
开孔尺寸-2线
 62
     0
100
AcDbTrace
 10
3862.531139143886
 20
1573.013349120823
 30
0.0
 11
3862.531139143886
 21
1578.513349120823
 31
0.0
 12
3879.031139143886
 22
1575.763349120823
 32
0.0
 13
3879.031139143886
 23
1575.763349120823
 33
0.0
  0
MTEXT
  5
9FA
330
415
100
AcDbEntity
  8
开孔尺寸-2线
 62
     0
100
AcDbMText
 10
3486.531139143878
 20
1595.005667556577
 30
0.0
 40
25.29999999999999
 41
0.0
 46
0.0
 71
     5
 72
     1
  1
785
 73
     1
 44
1.0
1001
ACAD
1000
MTEXTBEGIN
1070
    73
1070
     1
1070
    44
1040
1.0
1070
    74
1070
     0
1000
MTEXTEND
  0
POINT
  5
9FB
330
415
100
AcDbEntity
  8
Defpoints
 62
     0
100
AcDbPoint
 10
3094.031139143878
 20
1274.600389345452
 30
0.0
  0
POINT
  5
9FC
330
415
100
AcDbEntity
  8
Defpoints
 62
     0
100
AcDbPoint
 10
3879.031139143886
 20
1274.600389345445
 30
0.0
  0
POINT
  5
9FD
330
415
100
AcDbEntity
  8
Defpoints
 62
     0
100
AcDbPoint
 10
3879.031139143886
 20
1575.763349120823
 30
0.0
  0
ENDBLK
  5
420
330
415
100
AcDbEntity
  8
0
100
AcDbBlockEnd
  0
BLOCK
  5
42B
330
421
100
AcDbEntity
  8
0
100
AcDbBlockBegin
  2
*D8
 70
     1
 10
0.0
 20
0.0
 30
0.0
  3
*D8
  1

  0
LINE
  5
9FE
330
421
100
AcDbEntity
  8
开孔尺寸-2线
 62
     0
370
    -2
100
AcDbLine
 10
3103.509366142473
 20
1472.600389345481
 30
0.0
 11
3037.509366142474
 21
1472.600389345481
 31
0.0
  0
LINE
  5
9FF
330
421
100
AcDbEntity
  8
开孔尺寸-2线
 62
     0
370
    -2
100
AcDbLine
 10
3103.509366142473
 20
1076.600389345463
 30
0.0
 11
3037.509366142474
 21
1076.600389345463
 31
0.0
  0
LINE
  5
A00
330
421
100
AcDbEntity
  8
开孔尺寸-2线
  6
ByBlock
 62
     0
370
    -2
100
AcDbLine
 10
3048.509366142474
 20
1456.100389345481
 30
0.0
 11
3048.509366142474
 21
1093.100389345463
 31
0.0
  0
SOLID
  5
A01
330
421
100
AcDbEntity
  8
开孔尺寸-2线
 62
     0
100
AcDbTrace
 10
3051.259366142474
 20
1456.100389345481
 30
0.0
 11
3045.759366142474
 21
1456.100389345481
 31
0.0
 12
3048.509366142474
 22
1472.600389345481
 32
0.0
 13
3048.509366142474
 23
1472.600389345481
 33
0.0
  0
SOLID
  5
A02
330
421
100
AcDbEntity
  8
开孔尺寸-2线
 62
     0
100
AcDbTrace
 10
3045.759366142474
 20
1093.100389345463
 30
0.0
 11
3051.259366142474
 21
1093.100389345463
 31
0.0
 12
3048.509366142474
 22
1076.600389345463
 32
0.0
 13
3048.509366142474
 23
1076.600389345463
 33
0.0
  0
MTEXT
  5
A03
330
421
100
AcDbEntity
  8
开孔尺寸-2线
 62
     0
100
AcDbMText
 10
3029.267047706719
 20
1274.600389345472
 30
0.0
 40
25.29999999999999
 41
0.0
 46
0.0
 71
     5
 72
     1
  1
396
 11
0.0
 21
1.0
 31
0.0
 73
     1
 44
1.0
1001
ACAD
1000
MTEXTBEGIN
1070
    73
1070
     1
1070
    44
1040
1.0
1070
    74
1070
     0
1000
MTEXTEND
  0
POINT
  5
A04
330
421
100
AcDbEntity
  8
Defpoints
 62
     0
100
AcDbPoint
 10
3486.531139143878
 20
1472.600389345481
 30
0.0
  0
POINT
  5
A05
330
421
100
AcDbEntity
  8
Defpoints
 62
     0
100
AcDbPoint
 10
3486.531142485122
 20
1076.600389345463
 30
0.0
  0
POINT
  5
A06
330
421
100
AcDbEntity
  8
Defpoints
 62
     0
100
AcDbPoint
 10
3048.509366142474
 20
1076.600389345463
 30
0.0
  0
ENDBLK
  5
42C
330
421
100
AcDbEntity
  8
0
100
AcDbBlockEnd
  0
BLOCK
  5
437
330
42D
100
AcDbEntity
  8
0
100
AcDbBlockBegin
  2
*D9
 70
     1
 10
0.0
 20
0.0
 30
0.0
  3
*D9
  1

  0
LINE
  5
A07
330
42D
100
AcDbEntity
  8
开孔尺寸-2线
 62
     0
370
    -2
100
AcDbLine
 10
3051.859456015472
 20
1487.600389345452
 30
0.0
 11
2985.859456015472
 21
1487.600389345452
 31
0.0
  0
LINE
  5
A08
330
42D
100
AcDbEntity
  8
开孔尺寸-2线
 62
     0
370
    -2
100
AcDbLine
 10
3051.859456015472
 20
1061.600389345488
 30
0.0
 11
2985.859456015472
 21
1061.600389345488
 31
0.0
  0
LINE
  5
A09
330
42D
100
AcDbEntity
  8
开孔尺寸-2线
  6
ByBlock
 62
     0
370
    -2
100
AcDbLine
 10
2996.859456015472
 20
1471.100389345452
 30
0.0
 11
2996.859456015472
 21
1078.100389345488
 31
0.0
  0
SOLID
  5
A0A
330
42D
100
AcDbEntity
  8
开孔尺寸-2线
 62
     0
100
AcDbTrace
 10
2999.609456015472
 20
1471.100389345452
 30
0.0
 11
2994.109456015472
 21
1471.100389345452
 31
0.0
 12
2996.859456015472
 22
1487.600389345452
 32
0.0
 13
2996.859456015472
 23
1487.600389345452
 33
0.0
  0
SOLID
  5
A0B
330
42D
100
AcDbEntity
  8
开孔尺寸-2线
 62
     0
100
AcDbTrace
 10
2994.109456015472
 20
1078.100389345488
 30
0.0
 11
2999.609456015472
 21
1078.100389345488
 31
0.0
 12
2996.859456015472
 22
1061.600389345488
 32
0.0
 13
2996.859456015472
 23
1061.600389345488
 33
0.0
  0
MTEXT
  5
A0C
330
42D
100
AcDbEntity
  8
开孔尺寸-2线
 62
     0
100
AcDbMText
 10
2977.617137579718
 20
1274.60038934547
 30
0.0
 40
25.29999999999999
 41
0.0
 46
0.0
 71
     5
 72
     1
  1
426
 11
0.0
 21
1.0
 31
0.0
 73
     1
 44
1.0
1001
ACAD
1000
MTEXTBEGIN
1070
    73
1070
     1
1070
    44
1040
1.0
1070
    74
1070
     0
1000
MTEXTEND
  0
POINT
  5
A0D
330
42D
100
AcDbEntity
  8
Defpoints
 62
     0
100
AcDbPoint
 10
3486.531152670334
 20
1487.600389345452
 30
0.0
  0
POINT
  5
A0E
330
42D
100
AcDbEntity
  8
Defpoints
 62
     0
100
AcDbPoint
 10
3486.531125617437
 20
1061.600389345488
 30
0.0
  0
POINT
  5
A0F
330
42D
100
AcDbEntity
  8
Defpoints
 62
     0
100
AcDbPoint
 10
2996.859456015472
 20
1061.600389345488
 30
0.0
  0
ENDBLK
  5
438
330
42D
100
AcDbEntity
  8
0
100
AcDbBlockEnd
  0
BLOCK
  5
443
330
439
100
AcDbEntity
  8
0
100
AcDbBlockBegin
  2
*D10
 70
     1
 10
0.0
 20
0.0
 30
0.0
  3
*D10
  1

  0
LINE
  5
A10
330
439
100
AcDbEntity
  8
开孔尺寸-2线
100
AcDbLine
 10
3136.869882305259
 20
567.9132049989471
 30
0.0
 11
3136.869882305259
 21
517.9132049989471
 31
0.0
  0
LINE
  5
A11
330
439
100
AcDbEntity
  8
开孔尺寸-2线
100
AcDbLine
 10
3889.869882305259
 20
567.9132049989471
 30
0.0
 11
3889.869882305259
 21
517.9132049989471
 31
0.0
  0
LINE
  5
A12
330
439
100
AcDbEntity
  8
开孔尺寸-2线
  6
ByBlock
100
AcDbLine
 10
3148.869882305259
 20
527.913204998947
 30
0.0
 11
3877.86988230526
 21
527.913204998947
 31
0.0
  0
SOLID
  5
A13
330
439
100
AcDbEntity
  8
开孔尺寸-2线
100
AcDbTrace
 10
3148.869882305259
 20
529.9132049989471
 30
0.0
 11
3148.869882305259
 21
525.9132049989471
 31
0.0
 12
3136.869882305259
 22
527.913204998947
 32
0.0
 13
3136.869882305259
 23
527.913204998947
 33
0.0
  0
SOLID
  5
A14
330
439
100
AcDbEntity
  8
开孔尺寸-2线
100
AcDbTrace
 10
3877.86988230526
 20
525.9132049989471
 30
0.0
 11
3877.86988230526
 21
529.9132049989471
 31
0.0
 12
3889.869882305259
 22
527.913204998947
 32
0.0
 13
3889.869882305259
 23
527.913204998947
 33
0.0
  0
MTEXT
  5
A15
330
439
100
AcDbEntity
  8
开孔尺寸-2线
 62
     0
100
AcDbMText
 10
3513.369882305259
 20
544.3232608648688
 30
0.0
 40
18.4
 41
0.0
 46
0.0
 71
     5
 72
     1
  1
753 [29 5/8"]
  7
Annotative
 73
     1
 44
1.0
1001
ACAD
1000
MTEXTBEGIN
1070
    73
1070
     1
1070
    44
1040
1.0
1070
    74
1070
     0
1000
MTEXTEND
  0
POINT
  5
A16
330
439
100
AcDbEntity
  8
Defpoints
 62
     0
100
AcDbPoint
 10
3136.869882305259
 20
790.5141401311971
 30
0.0
  0
POINT
  5
A17
330
439
100
AcDbEntity
  8
Defpoints
 62
     0
100
AcDbPoint
 10
3889.869882305259
 20
790.5141401294472
 30
0.0
  0
POINT
  5
A18
330
439
100
AcDbEntity
  8
Defpoints
 62
     0
100
AcDbPoint
 10
3889.869882305259
 20
527.913204998947
 30
0.0
  0
ENDBLK
  5
444
330
439
100
AcDbEntity
  8
0
100
AcDbBlockEnd
  0
BLOCK
  5
44F
330
445
100
AcDbEntity
  8
0
100
AcDbBlockBegin
  2
*D11
 70
     1
 10
0.0
 20
0.0
 30
0.0
  3
*D11
  1

  0
LINE
  5
A19
330
445
100
AcDbEntity
  8
开孔尺寸-2线
100
AcDbLine
 10
3130.869882305259
 20
502.4429397669823
 30
0.0
 11
3130.869882305259
 21
452.4429397669823
 31
0.0
  0
LINE
  5
A1A
330
445
100
AcDbEntity
  8
开孔尺寸-2线
100
AcDbLine
 10
3895.869882305259
 20
502.4429397669823
 30
0.0
 11
3895.869882305259
 21
452.4429397669823
 31
0.0
  0
LINE
  5
A1B
330
445
100
AcDbEntity
  8
开孔尺寸-2线
  6
ByBlock
100
AcDbLine
 10
3142.869882305259
 20
462.4429397669823
 30
0.0
 11
3883.869882305259
 21
462.4429397669823
 31
0.0
  0
SOLID
  5
A1C
330
445
100
AcDbEntity
  8
开孔尺寸-2线
100
AcDbTrace
 10
3142.869882305259
 20
464.4429397669823
 30
0.0
 11
3142.869882305259
 21
460.4429397669823
 31
0.0
 12
3130.869882305259
 22
462.4429397669823
 32
0.0
 13
3130.869882305259
 23
462.4429397669823
 33
0.0
  0
SOLID
  5
A1D
330
445
100
AcDbEntity
  8
开孔尺寸-2线
100
AcDbTrace
 10
3883.869882305259
 20
460.4429397669823
 30
0.0
 11
3883.869882305259
 21
464.4429397669823
 31
0.0
 12
3895.869882305259
 22
462.4429397669823
 32
0.0
 13
3895.869882305259
 23
462.4429397669823
 33
0.0
  0
MTEXT
  5
A1E
330
445
100
AcDbEntity
  8
开孔尺寸-2线
 62
     0
100
AcDbMText
 10
3513.369882305259
 20
478.8529956329041
 30
0.0
 40
18.4
 41
0.0
 46
0.0
 71
     5
 72
     1
  1
765 [30 1/8"]
  7
Annotative
 73
     1
 44
1.0
1001
ACAD
1000
MTEXTBEGIN
1070
    73
1070
     1
1070
    44
1040
1.0
1070
    74
1070
     0
1000
MTEXTEND
  0
POINT
  5
A1F
330
445
100
AcDbEntity
  8
Defpoints
 62
     0
100
AcDbPoint
 10
3130.869882305259
 20
790.5141401321174
 30
0.0
  0
POINT
  5
A20
330
445
100
AcDbEntity
  8
Defpoints
 62
     0
100
AcDbPoint
 10
3895.869882305259
 20
790.5141401321174
 30
0.0
  0
POINT
  5
A21
330
445
100
AcDbEntity
  8
Defpoints
 62
     0
100
AcDbPoint
 10
3895.869882305259
 20
462.4429397669823
 30
0.0
  0
ENDBLK
  5
450
330
445
100
AcDbEntity
  8
0
100
AcDbBlockEnd
  0
BLOCK
  5
45B
330
451
100
AcDbEntity
  8
0
100
AcDbBlockBegin
  2
*D12
 70
     1
 10
0.0
 20
0.0
 30
0.0
  3
*D12
  1

  0
LINE
  5
A22
330
451
100
AcDbEntity
  8
开孔尺寸-2线
100
AcDbLine
 10
3901.869882305267
 20
433.7376975134297
 30
0.0
 11
3901.869882305267
 21
383.7376975134298
 31
0.0
  0
LINE
  5
A23
330
451
100
AcDbEntity
  8
开孔尺寸-2线
100
AcDbLine
 10
3124.869882305266
 20
433.7376975134297
 30
0.0
 11
3124.869882305266
 21
383.7376975134298
 31
0.0
  0
LINE
  5
A24
330
451
100
AcDbEntity
  8
开孔尺寸-2线
  6
ByBlock
100
AcDbLine
 10
3889.869882305266
 20
393.7376975134298
 30
0.0
 11
3136.869882305266
 21
393.7376975134298
 31
0.0
  0
SOLID
  5
A25
330
451
100
AcDbEntity
  8
开孔尺寸-2线
100
AcDbTrace
 10
3889.869882305266
 20
391.7376975134298
 30
0.0
 11
3889.869882305266
 21
395.7376975134298
 31
0.0
 12
3901.869882305267
 22
393.7376975134298
 32
0.0
 13
3901.869882305267
 23
393.7376975134298
 33
0.0
  0
SOLID
  5
A26
330
451
100
AcDbEntity
  8
开孔尺寸-2线
100
AcDbTrace
 10
3136.869882305266
 20
395.7376975134298
 30
0.0
 11
3136.869882305266
 21
391.7376975134298
 31
0.0
 12
3124.869882305266
 22
393.7376975134298
 32
0.0
 13
3124.869882305266
 23
393.7376975134298
 33
0.0
  0
MTEXT
  5
A27
330
451
100
AcDbEntity
  8
开孔尺寸-2线
 62
     0
100
AcDbMText
 10
3513.369882305266
 20
410.1477533793516
 30
0.0
 40
18.4
 41
0.0
 46
0.0
 71
     5
 72
     1
  1
777 [30 5/8"]
  7
Annotative
 73
     1
 44
1.0
1001
ACAD
1000
MTEXTBEGIN
1070
    73
1070
     1
1070
    44
1040
1.0
1070
    74
1070
     0
1000
MTEXTEND
  0
POINT
  5
A28
330
451
100
AcDbEntity
  8
Defpoints
 62
     0
100
AcDbPoint
 10
3901.869882305267
 20
790.514140131932
 30
0.0
  0
POINT
  5
A29
330
451
100
AcDbEntity
  8
Defpoints
 62
     0
100
AcDbPoint
 10
3124.869882305266
 20
790.5141401315646
 30
0.0
  0
POINT
  5
A2A
330
451
100
AcDbEntity
  8
Defpoints
 62
     0
100
AcDbPoint
 10
3124.869882305266
 20
393.7376975134298
 30
0.0
  0
ENDBLK
  5
45C
330
451
100
AcDbEntity
  8
0
100
AcDbBlockEnd
  0
BLOCK
  5
467
330
45D
100
AcDbEntity
  8
0
100
AcDbBlockBegin
  2
*D13
 70
     1
 10
0.0
 20
0.0
 30
0.0
  3
*D13
  1

  0
LINE
  5
A2B
330
45D
100
AcDbEntity
  8
开孔尺寸-2线
100
AcDbLine
 10
3115.030440874162
 20
593.5141401321065
 30
0.0
 11
3065.030440874162
 21
593.5141401321065
 31
0.0
  0
LINE
  5
A2C
330
45D
100
AcDbEntity
  8
开孔尺寸-2线
100
AcDbLine
 10
3115.030440874162
 20
987.5141401321284
 30
0.0
 11
3065.030440874162
 21
987.5141401321284
 31
0.0
  0
LINE
  5
A2D
330
45D
100
AcDbEntity
  8
开孔尺寸-2线
  6
ByBlock
100
AcDbLine
 10
3075.030440874162
 20
605.5141401321066
 30
0.0
 11
3075.030440874162
 21
975.5141401321283
 31
0.0
  0
SOLID
  5
A2E
330
45D
100
AcDbEntity
  8
开孔尺寸-2线
100
AcDbTrace
 10
3073.030440874163
 20
605.5141401321066
 30
0.0
 11
3077.030440874163
 21
605.5141401321066
 31
0.0
 12
3075.030440874162
 22
593.5141401321065
 32
0.0
 13
3075.030440874162
 23
593.5141401321065
 33
0.0
  0
SOLID
  5
A2F
330
45D
100
AcDbEntity
  8
开孔尺寸-2线
100
AcDbTrace
 10
3077.030440874163
 20
975.5141401321283
 30
0.0
 11
3073.030440874163
 21
975.5141401321283
 31
0.0
 12
3075.030440874162
 22
987.5141401321284
 32
0.0
 13
3075.030440874162
 23
987.5141401321284
 33
0.0
  0
MTEXT
  5
A30
330
45D
100
AcDbEntity
  8
开孔尺寸-2线
 62
     0
100
AcDbMText
 10
3058.62038500824
 20
790.5141401321174
 30
0.0
 40
18.4
 41
0.0
 46
0.0
 71
     5
 72
     1
  1
394 [15 1/2"]
  7
Annotative
 11
0.0
 21
1.0
 31
0.0
 73
     1
 44
1.0
1001
ACAD
1000
MTEXTBEGIN
1070
    73
1070
     1
1070
    44
1040
1.0
1070
    74
1070
     0
1000
MTEXTEND
  0
POINT
  5
A31
330
45D
100
AcDbEntity
  8
Defpoints
 62
     0
100
AcDbPoint
 10
3513.369886348073
 20
593.5141401321065
 30
0.0
  0
POINT
  5
A32
330
45D
100
AcDbEntity
  8
Defpoints
 62
     0
100
AcDbPoint
 10
3513.369886348073
 20
987.5141401321284
 30
0.0
  0
POINT
  5
A33
330
45D
100
AcDbEntity
  8
Defpoints
 62
     0
100
AcDbPoint
 10
3075.030440874162
 20
987.5141401321284
 30
0.0
  0
ENDBLK
  5
468
330
45D
100
AcDbEntity
  8
0
100
AcDbBlockEnd
  0
BLOCK
  5
473
330
469
100
AcDbEntity
  8
0
100
AcDbBlockBegin
  2
*D14
 70
     1
 10
0.0
 20
0.0
 30
0.0
  3
*D14
  1

  0
LINE
  5
A34
330
469
100
AcDbEntity
  8
开孔尺寸-2线
100
AcDbLine
 10
3066.453626424428
 20
993.5141401321175
 30
0.0
 11
3016.453626424428
 21
993.5141401321175
 31
0.0
  0
LINE
  5
A35
330
469
100
AcDbEntity
  8
开孔尺寸-2线
100
AcDbLine
 10
3066.453626424428
 20
587.5141401321175
 30
0.0
 11
3016.453626424428
 21
587.5141401321175
 31
0.0
  0
LINE
  5
A36
330
469
100
AcDbEntity
  8
开孔尺寸-2线
  6
ByBlock
100
AcDbLine
 10
3026.453626424428
 20
981.5141401321175
 30
0.0
 11
3026.453626424428
 21
599.5141401321175
 31
0.0
  0
SOLID
  5
A37
330
469
100
AcDbEntity
  8
开孔尺寸-2线
100
AcDbTrace
 10
3028.453626424428
 20
981.5141401321175
 30
0.0
 11
3024.453626424428
 21
981.5141401321175
 31
0.0
 12
3026.453626424428
 22
993.5141401321175
 32
0.0
 13
3026.453626424428
 23
993.5141401321175
 33
0.0
  0
SOLID
  5
A38
330
469
100
AcDbEntity
  8
开孔尺寸-2线
100
AcDbTrace
 10
3024.453626424428
 20
599.5141401321175
 30
0.0
 11
3028.453626424428
 21
599.5141401321175
 31
0.0
 12
3026.453626424428
 22
587.5141401321175
 32
0.0
 13
3026.453626424428
 23
587.5141401321175
 33
0.0
  0
MTEXT
  5
A39
330
469
100
AcDbEntity
  8
开孔尺寸-2线
 62
     0
100
AcDbMText
 10
3010.043570558506
 20
790.5141401321174
 30
0.0
 40
18.4
 41
0.0
 46
0.0
 71
     5
 72
     1
  1
406 [16"]
  7
Annotative
 11
0.0
 21
1.0
 31
0.0
 73
     1
 44
1.0
1001
ACAD
1000
MTEXTBEGIN
1070
    73
1070
     1
1070
    44
1040
1.0
1070
    74
1070
     0
1000
MTEXTEND
  0
POINT
  5
A3A
330
469
100
AcDbEntity
  8
Defpoints
 62
     0
100
AcDbPoint
 10
3513.369882305259
 20
993.5141401321175
 30
0.0
  0
POINT
  5
A3B
330
469
100
AcDbEntity
  8
Defpoints
 62
     0
100
AcDbPoint
 10
3513.369882305259
 20
587.5141401321175
 30
0.0
  0
POINT
  5
A3C
330
469
100
AcDbEntity
  8
Defpoints
 62
     0
100
AcDbPoint
 10
3026.453626424428
 20
587.5141401321175
 30
0.0
  0
ENDBLK
  5
474
330
469
100
AcDbEntity
  8
0
100
AcDbBlockEnd
  0
BLOCK
  5
47F
330
475
100
AcDbEntity
  8
0
100
AcDbBlockBegin
  2
*D15
 70
     1
 10
0.0
 20
0.0
 30
0.0
  3
*D15
  1

  0
LINE
  5
A3D
330
475
100
AcDbEntity
  8
开孔尺寸-2线
100
AcDbLine
 10
3009.72735074665
 20
999.5141401321065
 30
0.0
 11
2959.72735074665
 21
999.5141401321065
 31
0.0
  0
LINE
  5
A3E
330
475
100
AcDbEntity
  8
开孔尺寸-2线
100
AcDbLine
 10
3009.72735074665
 20
581.5141401321284
 30
0.0
 11
2959.72735074665
 21
581.5141401321284
 31
0.0
  0
LINE
  5
A3F
330
475
100
AcDbEntity
  8
开孔尺寸-2线
  6
ByBlock
100
AcDbLine
 10
2969.72735074665
 20
987.5141401321066
 30
0.0
 11
2969.72735074665
 21
593.5141401321284
 31
0.0
  0
SOLID
  5
A40
330
475
100
AcDbEntity
  8
开孔尺寸-2线
100
AcDbTrace
 10
2971.72735074665
 20
987.5141401321066
 30
0.0
 11
2967.72735074665
 21
987.5141401321066
 31
0.0
 12
2969.72735074665
 22
999.5141401321065
 32
0.0
 13
2969.72735074665
 23
999.5141401321065
 33
0.0
  0
SOLID
  5
A41
330
475
100
AcDbEntity
  8
开孔尺寸-2线
100
AcDbTrace
 10
2967.72735074665
 20
593.5141401321284
 30
0.0
 11
2971.72735074665
 21
593.5141401321284
 31
0.0
 12
2969.72735074665
 22
581.5141401321284
 32
0.0
 13
2969.72735074665
 23
581.5141401321284
 33
0.0
  0
MTEXT
  5
A42
330
475
100
AcDbEntity
  8
开孔尺寸-2线
 62
     0
100
AcDbMText
 10
2953.317294880728
 20
790.5141401321174
 30
0.0
 40
18.4
 41
0.0
 46
0.0
 71
     5
 72
     1
  1
418 [16 1/2"]
  7
Annotative
 11
0.0
 21
1.0
 31
0.0
 73
     1
 44
1.0
1001
ACAD
1000
MTEXTBEGIN
1070
    73
1070
     1
1070
    44
1040
1.0
1070
    74
1070
     0
1000
MTEXTEND
  0
POINT
  5
A43
330
475
100
AcDbEntity
  8
Defpoints
 62
     0
100
AcDbPoint
 10
3513.369890421131
 20
999.5141401321065
 30
0.0
  0
POINT
  5
A44
330
475
100
AcDbEntity
  8
Defpoints
 62
     0
100
AcDbPoint
 10
3513.36989042111
 20
581.5141401321284
 30
0.0
  0
POINT
  5
A45
330
475
100
AcDbEntity
  8
Defpoints
 62
     0
100
AcDbPoint
 10
2969.72735074665
 20
581.5141401321284
 30
0.0
  0
ENDBLK
  5
480
330
475
100
AcDbEntity
  8
0
100
AcDbBlockEnd
  0
BLOCK
  5
654
330
64A
100
AcDbEntity
  8
0
100
AcDbBlockBegin
  2
*D16
 70
     1
 10
0.0
 20
0.0
 30
0.0
  3
*D16
  1

  0
LINE
  5
A46
330
64A
100
AcDbEntity
  8
标注
 62
     0
370
    -2
100
AcDbLine
 10
4611.704629566807
 20
1430.829092656766
 30
0.0
 11
4545.704629566807
 21
1430.829092656766
 31
0.0
  0
LINE
  5
A47
330
64A
100
AcDbEntity
  8
标注
 62
     0
370
    -2
100
AcDbLine
 10
4611.704629566807
 20
1024.829092656768
 30
0.0
 11
4545.704629566807
 21
1024.829092656768
 31
0.0
  0
LINE
  5
A48
330
64A
100
AcDbEntity
  8
标注
 62
     0
370
    -2
100
AcDbLine
 10
4556.704629566807
 20
1414.329092656766
 30
0.0
 11
4556.704629566807
 21
1041.329092656768
 31
0.0
  0
SOLID
  5
A49
330
64A
100
AcDbEntity
  8
标注
 62
     0
100
AcDbTrace
 10
4559.454629566807
 20
1414.329092656766
 30
0.0
 11
4553.954629566806
 21
1414.329092656766
 31
0.0
 12
4556.704629566807
 22
1430.829092656766
 32
0.0
 13
4556.704629566807
 23
1430.829092656766
 33
0.0
  0
SOLID
  5
A4A
330
64A
100
AcDbEntity
  8
标注
 62
     0
100
AcDbTrace
 10
4553.954629566806
 20
1041.329092656768
 30
0.0
 11
4559.454629566807
 21
1041.329092656768
 31
0.0
 12
4556.704629566807
 22
1024.829092656768
 32
0.0
 13
4556.704629566807
 23
1024.829092656768
 33
0.0
  0
MTEXT
  5
A4B
330
64A
100
AcDbEntity
  8
标注
 62
     0
100
AcDbMText
 10
4534.701556941109
 20
1227.829092656767
 30
0.0
 40
27.5
 41
0.0
 46
0.0
 71
     5
 72
     1
  1
\A1;406.0 [16"]
 11
0.0
 21
1.0
 31
0.0
 73
     1
 44
1.0
1001
ACAD
1000
MTEXTBEGIN
1070
    73
1070
     1
1070
    44
1040
1.0
1070
    74
1070
     0
1000
MTEXTEND
  0
POINT
  5
A4C
330
64A
100
AcDbEntity
  8
Defpoints
 62
     0
100
AcDbPoint
 10
4806.704589171428
 20
1430.829092656766
 30
0.0
  0
POINT
  5
A4D
330
64A
100
AcDbEntity
  8
Defpoints
 62
     0
100
AcDbPoint
 10
4806.704589171428
 20
1024.829092656768
 30
0.0
  0
POINT
  5
A4E
330
64A
100
AcDbEntity
  8
Defpoints
 62
     0
100
AcDbPoint
 10
4556.704629566807
 20
1024.829092656768
 30
0.0
  0
ENDBLK
  5
655
330
64A
100
AcDbEntity
  8
0
100
AcDbBlockEnd
  0
BLOCK
  5
660
330
656
100
AcDbEntity
  8
0
100
AcDbBlockBegin
  2
*D17
 70
     1
 10
0.0
 20
0.0
 30
0.0
  3
*D17
  1

  0
LINE
  5
A4F
330
656
100
AcDbEntity
  8
标注
 62
     0
370
    -2
100
AcDbLine
 10
4551.704629566807
 20
1455.829092656786
 30
0.0
 11
4485.704629566806
 21
1455.829092656786
 31
0.0
  0
LINE
  5
A50
330
656
100
AcDbEntity
  8
标注
 62
     0
370
    -2
100
AcDbLine
 10
4551.704629566807
 20
999.8294126695478
 30
0.0
 11
4485.704629566806
 21
999.8294126695478
 31
0.0
  0
LINE
  5
A51
330
656
100
AcDbEntity
  8
标注
 62
     0
370
    -2
100
AcDbLine
 10
4496.704629566806
 20
1439.329092656786
 30
0.0
 11
4496.704629566806
 21
1016.329412669548
 31
0.0
  0
SOLID
  5
A52
330
656
100
AcDbEntity
  8
标注
 62
     0
100
AcDbTrace
 10
4499.454629566807
 20
1439.329092656786
 30
0.0
 11
4493.954629566807
 21
1439.329092656786
 31
0.0
 12
4496.704629566806
 22
1455.829092656786
 32
0.0
 13
4496.704629566806
 23
1455.829092656786
 33
0.0
  0
SOLID
  5
A53
330
656
100
AcDbEntity
  8
标注
 62
     0
100
AcDbTrace
 10
4493.954629566807
 20
1016.329412669548
 30
0.0
 11
4499.454629566807
 21
1016.329412669548
 31
0.0
 12
4496.704629566806
 22
999.8294126695478
 32
0.0
 13
4496.704629566806
 23
999.8294126695478
 33
0.0
  0
MTEXT
  5
A54
330
656
100
AcDbEntity
  8
标注
 62
     0
100
AcDbMText
 10
4474.701556941108
 20
1227.829252663167
 30
0.0
 40
27.5
 41
0.0
 46
0.0
 71
     5
 72
     1
  1
\A1;456.0 [18"]
 11
0.0
 21
1.0
 31
0.0
 73
     1
 44
1.0
1001
ACAD
1000
MTEXTBEGIN
1070
    73
1070
     1
1070
    44
1040
1.0
1070
    74
1070
     0
1000
MTEXTEND
  0
POINT
  5
A55
330
656
100
AcDbEntity
  8
Defpoints
 62
     0
100
AcDbPoint
 10
4679.204765182897
 20
1455.829092656786
 30
0.0
  0
POINT
  5
A56
330
656
100
AcDbEntity
  8
Defpoints
 62
     0
100
AcDbPoint
 10
4679.204765182897
 20
999.8294126695478
 30
0.0
  0
POINT
  5
A57
330
656
100
AcDbEntity
  8
Defpoints
 62
     0
100
AcDbPoint
 10
4496.704629566806
 20
999.8294126695478
 30
0.0
  0
ENDBLK
  5
661
330
656
100
AcDbEntity
  8
0
100
AcDbBlockEnd
  0
BLOCK
  5
66C
330
662
100
AcDbEntity
  8
0
100
AcDbBlockBegin
  2
*D18
 70
     1
 10
0.0
 20
0.0
 30
0.0
  3
*D18
  1

  0
LINE
  5
A58
330
662
100
AcDbEntity
  8
标注
 62
     0
370
    -2
100
AcDbLine
 10
4621.704628748593
 20
1440.829092656785
 30
0.0
 11
4621.704628748593
 21
1506.829092656785
 31
0.0
  0
LINE
  5
A59
330
662
100
AcDbEntity
  8
标注
 62
     0
370
    -2
100
AcDbLine
 10
4989.704504045636
 20
1440.829092656785
 30
0.0
 11
4989.704504045636
 21
1506.829092656785
 31
0.0
  0
LINE
  5
A5A
330
662
100
AcDbEntity
  8
标注
 62
     0
370
    -2
100
AcDbLine
 10
4638.204628748592
 20
1495.829092656785
 30
0.0
 11
4973.204504045635
 21
1495.829092656785
 31
0.0
  0
SOLID
  5
A5B
330
662
100
AcDbEntity
  8
标注
 62
     0
100
AcDbTrace
 10
4638.204628748592
 20
1498.579092656784
 30
0.0
 11
4638.204628748592
 21
1493.079092656785
 31
0.0
 12
4621.704628748593
 22
1495.829092656785
 32
0.0
 13
4621.704628748593
 23
1495.829092656785
 33
0.0
  0
SOLID
  5
A5C
330
662
100
AcDbEntity
  8
标注
 62
     0
100
AcDbTrace
 10
4973.204504045635
 20
1493.079092656785
 30
0.0
 11
4973.204504045635
 21
1498.579092656784
 31
0.0
 12
4989.704504045636
 22
1495.829092656785
 32
0.0
 13
4989.704504045636
 23
1495.829092656785
 33
0.0
  0
MTEXT
  5
A5D
330
662
100
AcDbEntity
  8
标注
 62
     0
100
AcDbMText
 10
4805.704566397114
 20
1517.832165282483
 30
0.0
 40
27.5
 41
0.0
 46
0.0
 71
     5
 72
     1
  1
\A1;368.0 [14 1/2"]
 73
     1
 44
1.0
1001
ACAD
1000
MTEXTBEGIN
1070
    73
1070
     1
1070
    44
1040
1.0
1070
    74
1070
     0
1000
MTEXTEND
  0
POINT
  5
A5E
330
662
100
AcDbEntity
  8
Defpoints
 62
     0
100
AcDbPoint
 10
4621.704628748593
 20
1227.799228745418
 30
0.0
  0
POINT
  5
A5F
330
662
100
AcDbEntity
  8
Defpoints
 62
     0
100
AcDbPoint
 10
4989.704504045636
 20
1227.658045187682
 30
0.0
  0
POINT
  5
A60
330
662
100
AcDbEntity
  8
Defpoints
 62
     0
100
AcDbPoint
 10
4989.704504045636
 20
1495.829092656785
 30
0.0
  0
ENDBLK
  5
66D
330
662
100
AcDbEntity
  8
0
100
AcDbBlockEnd
  0
BLOCK
  5
678
330
66E
100
AcDbEntity
  8
0
100
AcDbBlockBegin
  2
*D19
 70
     1
 10
0.0
 20
0.0
 30
0.0
  3
*D19
  1

  0
LINE
  5
A61
330
66E
100
AcDbEntity
  8
标注
 62
     0
370
    -2
100
AcDbLine
 10
5018.704628748593
 20
1440.829092656781
 30
0.0
 11
5018.704628748593
 21
1506.829092656781
 31
0.0
  0
LINE
  5
A62
330
66E
100
AcDbEntity
  8
标注
 62
     0
370
    -2
100
AcDbLine
 10
5386.704504045635
 20
1440.829092656781
 30
0.0
 11
5386.704504045635
 21
1506.829092656781
 31
0.0
  0
LINE
  5
A63
330
66E
100
AcDbEntity
  8
标注
 62
     0
370
    -2
100
AcDbLine
 10
5035.204628748592
 20
1495.829092656781
 30
0.0
 11
5370.204504045635
 21
1495.829092656781
 31
0.0
  0
SOLID
  5
A64
330
66E
100
AcDbEntity
  8
标注
 62
     0
100
AcDbTrace
 10
5035.204628748592
 20
1498.579092656781
 30
0.0
 11
5035.204628748592
 21
1493.079092656781
 31
0.0
 12
5018.704628748593
 22
1495.829092656781
 32
0.0
 13
5018.704628748593
 23
1495.829092656781
 33
0.0
  0
SOLID
  5
A65
330
66E
100
AcDbEntity
  8
标注
 62
     0
100
AcDbTrace
 10
5370.204504045635
 20
1493.079092656781
 30
0.0
 11
5370.204504045635
 21
1498.579092656781
 31
0.0
 12
5386.704504045635
 22
1495.829092656781
 32
0.0
 13
5386.704504045635
 23
1495.829092656781
 33
0.0
  0
MTEXT
  5
A66
330
66E
100
AcDbEntity
  8
标注
 62
     0
100
AcDbMText
 10
5202.704566397113
 20
1517.832165282479
 30
0.0
 40
27.5
 41
0.0
 46
0.0
 71
     5
 72
     1
  1
\A1;368.0 [14 1/2"]
 73
     1
 44
1.0
1001
ACAD
1000
MTEXTBEGIN
1070
    73
1070
     1
1070
    44
1040
1.0
1070
    74
1070
     0
1000
MTEXTEND
  0
POINT
  5
A67
330
66E
100
AcDbEntity
  8
Defpoints
 62
     0
100
AcDbPoint
 10
5018.704628748593
 20
1227.799228745418
 30
0.0
  0
POINT
  5
A68
330
66E
100
AcDbEntity
  8
Defpoints
 62
     0
100
AcDbPoint
 10
5386.704504045635
 20
1227.658045187682
 30
0.0
  0
POINT
  5
A69
330
66E
100
AcDbEntity
  8
Defpoints
 62
     0
100
AcDbPoint
 10
5386.704504045635
 20
1495.829092656781
 30
0.0
  0
ENDBLK
  5
679
330
66E
100
AcDbEntity
  8
0
100
AcDbBlockEnd
  0
BLOCK
  5
684
330
67A
100
AcDbEntity
  8
0
100
AcDbBlockBegin
  2
*D20
 70
     1
 10
0.0
 20
0.0
 30
0.0
  3
*D20
  1

  0
LINE
  5
A6A
330
67A
100
AcDbEntity
  8
标注
 62
     0
370
    -2
100
AcDbLine
 10
4596.704629566789
 20
1500.829092656783
 30
0.0
 11
4596.704629566789
 21
1566.829092656783
 31
0.0
  0
LINE
  5
A6B
330
67A
100
AcDbEntity
  8
标注
 62
     0
370
    -2
100
AcDbLine
 10
5411.704548776069
 20
1500.829092656783
 30
0.0
 11
5411.704548776069
 21
1566.829092656783
 31
0.0
  0
LINE
  5
A6C
330
67A
100
AcDbEntity
  8
标注
 62
     0
370
    -2
100
AcDbLine
 10
4613.204629566789
 20
1555.829092656783
 30
0.0
 11
5395.204548776069
 21
1555.829092656783
 31
0.0
  0
SOLID
  5
A6D
330
67A
100
AcDbEntity
  8
标注
 62
     0
100
AcDbTrace
 10
4613.204629566789
 20
1558.579092656783
 30
0.0
 11
4613.204629566789
 21
1553.079092656783
 31
0.0
 12
4596.704629566789
 22
1555.829092656783
 32
0.0
 13
4596.704629566789
 23
1555.829092656783
 33
0.0
  0
SOLID
  5
A6E
330
67A
100
AcDbEntity
  8
标注
 62
     0
100
AcDbTrace
 10
5395.204548776069
 20
1553.079092656783
 30
0.0
 11
5395.204548776069
 21
1558.579092656783
 31
0.0
 12
5411.704548776069
 22
1555.829092656783
 32
0.0
 13
5411.704548776069
 23
1555.829092656783
 33
0.0
  0
MTEXT
  5
A6F
330
67A
100
AcDbEntity
  8
标注
 62
     0
100
AcDbMText
 10
5004.204589171429
 20
1577.832165282481
 30
0.0
 40
27.5
 41
0.0
 46
0.0
 71
     5
 72
     1
  1
\A1;815.0 [32 1/8"]
 73
     1
 44
1.0
1001
ACAD
1000
MTEXTBEGIN
1070
    73
1070
     1
1070
    44
1040
1.0
1070
    74
1070
     0
1000
MTEXTEND
  0
POINT
  5
A70
330
67A
100
AcDbEntity
  8
Defpoints
 62
     0
100
AcDbPoint
 10
4596.704629566789
 20
1373.328957040722
 30
0.0
  0
POINT
  5
A71
330
67A
100
AcDbEntity
  8
Defpoints
 62
     0
100
AcDbPoint
 10
5411.704548776069
 20
1373.328957040722
 30
0.0
  0
POINT
  5
A72
330
67A
100
AcDbEntity
  8
Defpoints
 62
     0
100
AcDbPoint
 10
5411.704548776069
 20
1555.829092656783
 30
0.0
  0
ENDBLK
  5
685
330
67A
100
AcDbEntity
  8
0
100
AcDbBlockEnd
  0
BLOCK
  5
690
330
686
100
AcDbEntity
  8
0
100
AcDbBlockBegin
  2
*D21
 70
     1
 10
0.0
 20
0.0
 30
0.0
  3
*D21
  1

  0
LINE
  5
A73
330
686
100
AcDbEntity
  8
标注
 62
     0
370
    -2
100
AcDbLine
 10
4573.704629566807
 20
877.8745640551575
 30
0.0
 11
4507.704629566807
 21
877.8745640551575
 31
0.0
  0
LINE
  5
A74
330
686
100
AcDbEntity
  8
标注
 62
     0
370
    -2
100
AcDbLine
 10
4573.704629566807
 20
648.8749323624965
 30
0.0
 11
4507.704629566807
 21
648.8749323624965
 31
0.0
  0
LINE
  5
A75
330
686
100
AcDbEntity
  8
标注
 62
     0
370
    -2
100
AcDbLine
 10
4518.704629566807
 20
861.3745640551574
 30
0.0
 11
4518.704629566807
 21
665.3749323624965
 31
0.0
  0
SOLID
  5
A76
330
686
100
AcDbEntity
  8
标注
 62
     0
100
AcDbTrace
 10
4521.454629566806
 20
861.3745640551574
 30
0.0
 11
4515.954629566807
 21
861.3745640551574
 31
0.0
 12
4518.704629566807
 22
877.8745640551575
 32
0.0
 13
4518.704629566807
 23
877.8745640551575
 33
0.0
  0
SOLID
  5
A77
330
686
100
AcDbEntity
  8
标注
 62
     0
100
AcDbTrace
 10
4515.954629566807
 20
665.3749323624965
 30
0.0
 11
4521.454629566806
 21
665.3749323624965
 31
0.0
 12
4518.704629566807
 22
648.8749323624965
 32
0.0
 13
4518.704629566807
 23
648.8749323624965
 33
0.0
  0
MTEXT
  5
A78
330
686
100
AcDbEntity
  8
标注
 62
     0
100
AcDbMText
 10
4496.701556941109
 20
763.374748208827
 30
0.0
 40
27.5
 41
0.0
 46
0.0
 71
     5
 72
     1
  1
\A1;229.0 [9"]
 11
0.0
 21
1.0
 31
0.0
 73
     1
 44
1.0
1001
ACAD
1000
MTEXTBEGIN
1070
    73
1070
     1
1070
    44
1040
1.0
1070
    74
1070
     0
1000
MTEXTEND
  0
POINT
  5
A79
330
686
100
AcDbEntity
  8
Defpoints
 62
     0
100
AcDbPoint
 10
4596.704629566789
 20
877.8745640551575
 30
0.0
  0
POINT
  5
A7A
330
686
100
AcDbEntity
  8
Defpoints
 62
     0
100
AcDbPoint
 10
4805.659711712007
 20
648.8749323624965
 30
0.0
  0
POINT
  5
A7B
330
686
100
AcDbEntity
  8
Defpoints
 62
     0
100
AcDbPoint
 10
4518.704629566807
 20
648.8749323624965
 30
0.0
  0
ENDBLK
  5
691
330
686
100
AcDbEntity
  8
0
100
AcDbBlockEnd
  0
BLOCK
  5
698
330
692
100
AcDbEntity
  8
0
100
AcDbBlockBegin
  2
*D22
 70
     1
 10
0.0
 20
0.0
 30
0.0
  3
*D22
  1

  0
LINE
  5
A7C
330
692
100
AcDbEntity
  8
标注
 62
     0
370
    -2
100
AcDbLine
 10
5283.054664305662
 20
736.4364057391822
 30
0.0
 11
5350.773558586307
 21
683.2839988652245
 31
0.0
  0
MTEXT
  5
A7D
330
692
100
AcDbEntity
  8
标注
 62
     0
100
AcDbMText
 10
5320.523126480224
 20
731.4892002669171
 30
0.0
 40
25.29999999999999
 41
0.0
 46
0.0
 71
     5
 72
     1
  1
R50
 11
0.7866302813616694
 21
-0.6174243277073402
 31
0.0
 73
     1
 44
1.0
1001
ACAD
1000
MTEXTBEGIN
1070
    73
1070
     1
1070
    44
1040
1.0
1070
    74
1070
     0
1000
MTEXTEND
  0
SOLID
  5
A7E
330
692
100
AcDbEntity
  8
标注
 62
     0
100
AcDbTrace
 10
5349.075641685111
 20
681.1207655914799
 30
0.0
 11
5352.471475487502
 21
685.4472321389691
 31
0.0
 12
5363.752958228775
 22
673.0964974580533
 32
0.0
 13
5363.752958228775
 23
673.0964974580533
 33
0.0
  0
POINT
  5
A7F
330
692
100
AcDbEntity
  8
Defpoints
 62
     0
100
AcDbPoint
 10
5363.752958228775
 20
673.0964974580533
 30
0.0
  0
POINT
  5
A80
330
692
100
AcDbEntity
  8
Defpoints
 62
     0
100
AcDbPoint
 10
5324.421444160695
 20
703.9677138434167
 30
0.0
  0
ENDBLK
  5
699
330
692
100
AcDbEntity
  8
0
100
AcDbBlockEnd
  0
BLOCK
  5
6A0
330
69A
100
AcDbEntity
  8
0
100
AcDbBlockBegin
  2
*D23
 70
     1
 10
0.0
 20
0.0
 30
0.0
  3
*D23
  1

  0
LINE
  5
A81
330
69A
100
AcDbEntity
  8
标注
 62
     0
370
    -2
100
AcDbLine
 10
4887.472800002234
 20
738.0936537714084
 30
0.0
 11
4952.984839227275
 21
682.2438577497133
 31
0.0
  0
MTEXT
  5
A82
330
69A
100
AcDbEntity
  8
标注
 62
     0
100
AcDbMText
 10
4924.71031833293
 20
731.6339534469079
 30
0.0
 40
25.29999999999999
 41
0.0
 46
0.0
 71
     5
 72
     1
  1
R50
 11
0.7609952051874958
 21
-0.6487575029867795
 31
0.0
 73
     1
 44
1.0
1001
ACAD
1000
MTEXTBEGIN
1070
    73
1070
     1
1070
    44
1040
1.0
1070
    74
1070
     0
1000
MTEXTEND
  0
SOLID
  5
A83
330
69A
100
AcDbEntity
  8
标注
 62
     0
100
AcDbTrace
 10
4951.200756094062
 20
680.1511209354477
 30
0.0
 11
4954.768922360488
 21
684.3365945639789
 31
0.0
 12
4965.541260112869
 22
671.5393589504315
 32
0.0
 13
4965.541260112869
 23
671.5393589504315
 33
0.0
  0
POINT
  5
A84
330
69A
100
AcDbEntity
  8
Defpoints
 62
     0
100
AcDbPoint
 10
4965.541260112869
 20
671.5393589504315
 30
0.0
  0
POINT
  5
A85
330
69A
100
AcDbEntity
  8
Defpoints
 62
     0
100
AcDbPoint
 10
4927.49149985349
 20
703.9772340997737
 30
0.0
  0
ENDBLK
  5
6A1
330
69A
100
AcDbEntity
  8
0
100
AcDbBlockEnd
  0
BLOCK
  5
6AC
330
6A2
100
AcDbEntity
  8
0
100
AcDbBlockBegin
  2
*D24
 70
     1
 10
0.0
 20
0.0
 30
0.0
  3
*D24
  1

  0
LINE
  5
1B6A
330
6A2
100
AcDbEntity
  8
开孔尺寸-2线
 62
     0
370
    -2
100
AcDbLine
 10
10882.28018020061
 20
1371.473121564222
 30
0.0
 11
10882.28018020061
 21
1437.473121564222
 31
0.0
  0
LINE
  5
1B6B
330
6A2
100
AcDbEntity
  8
开孔尺寸-2线
 62
     0
370
    -2
100
AcDbLine
 10
11637.28018020061
 20
1371.473121564222
 30
0.0
 11
11637.28018020061
 21
1437.473121564222
 31
0.0
  0
LINE
  5
1B6C
330
6A2
100
AcDbEntity
  8
开孔尺寸-2线
  6
ByBlock
 62
     0
370
    -2
100
AcDbLine
 10
10898.78018020061
 20
1426.473121564222
 30
0.0
 11
11620.78018020062
 21
1426.473121564222
 31
0.0
  0
SOLID
  5
1B6D
330
6A2
100
AcDbEntity
  8
开孔尺寸-2线
 62
     0
100
AcDbTrace
 10
10898.78018020061
 20
1429.223121564222
 30
0.0
 11
10898.78018020061
 21
1423.723121564222
 31
0.0
 12
10882.28018020061
 22
1426.473121564222
 32
0.0
 13
10882.28018020061
 23
1426.473121564222
 33
0.0
  0
SOLID
  5
1B6E
330
6A2
100
AcDbEntity
  8
开孔尺寸-2线
 62
     0
100
AcDbTrace
 10
11620.78018020062
 20
1423.723121564222
 30
0.0
 11
11620.78018020062
 21
1429.223121564222
 31
0.0
 12
11637.28018020061
 22
1426.473121564222
 32
0.0
 13
11637.28018020061
 23
1426.473121564222
 33
0.0
  0
MTEXT
  5
1B6F
330
6A2
100
AcDbEntity
  8
开孔尺寸-2线
 62
     0
100
AcDbMText
 10
11259.78018020064
 20
1445.574099217853
 30
0.0
 40
25.29999999999999
 41
0.0
 46
0.0
 71
     5
 72
     1
  1
755
 73
     1
 44
1.0
1001
ACAD
1000
MTEXTBEGIN
1070
    73
1070
     1
1070
    44
1040
1.0
1070
    74
1070
     0
1000
MTEXTEND
  0
POINT
  5
1B70
330
6A2
100
AcDbEntity
  8
Defpoints
 62
     0
100
AcDbPoint
 10
10882.28018020061
 20
1173.031523757681
 30
0.0
  0
POINT
  5
1B71
330
6A2
100
AcDbEntity
  8
Defpoints
 62
     0
100
AcDbPoint
 10
11637.28018020061
 20
1173.031523757255
 30
0.0
  0
POINT
  5
1B72
330
6A2
100
AcDbEntity
  8
Defpoints
 62
     0
100
AcDbPoint
 10
11637.28018020061
 20
1426.473121564222
 30
0.0
  0
ENDBLK
  5
6AD
330
6A2
100
AcDbEntity
  8
0
100
AcDbBlockEnd
  0
BLOCK
  5
6B8
330
6AE
100
AcDbEntity
  8
0
100
AcDbBlockBegin
  2
*D25
 70
     1
 10
0.0
 20
0.0
 30
0.0
  3
*D25
  1

  0
LINE
  5
1B73
330
6AE
100
AcDbEntity
  8
开孔尺寸-2线
 62
     0
370
    -2
100
AcDbLine
 10
10867.28018020061
 20
1419.194483532626
 30
0.0
 11
10867.28018020061
 21
1485.194483532626
 31
0.0
  0
LINE
  5
1B74
330
6AE
100
AcDbEntity
  8
开孔尺寸-2线
 62
     0
370
    -2
100
AcDbLine
 10
11652.28018020062
 20
1419.194483532626
 30
0.0
 11
11652.28018020062
 21
1485.194483532626
 31
0.0
  0
LINE
  5
1B75
330
6AE
100
AcDbEntity
  8
开孔尺寸-2线
  6
ByBlock
 62
     0
370
    -2
100
AcDbLine
 10
10883.78018020061
 20
1474.194483532626
 30
0.0
 11
11635.78018020062
 21
1474.194483532626
 31
0.0
  0
SOLID
  5
1B76
330
6AE
100
AcDbEntity
  8
开孔尺寸-2线
 62
     0
100
AcDbTrace
 10
10883.78018020061
 20
1476.944483532626
 30
0.0
 11
10883.78018020061
 21
1471.444483532626
 31
0.0
 12
10867.28018020061
 22
1474.194483532626
 32
0.0
 13
10867.28018020061
 23
1474.194483532626
 33
0.0
  0
SOLID
  5
1B77
330
6AE
100
AcDbEntity
  8
开孔尺寸-2线
 62
     0
100
AcDbTrace
 10
11635.78018020062
 20
1471.444483532626
 30
0.0
 11
11635.78018020062
 21
1476.944483532626
 31
0.0
 12
11652.28018020062
 22
1474.194483532626
 32
0.0
 13
11652.28018020062
 23
1474.194483532626
 33
0.0
  0
MTEXT
  5
1B78
330
6AE
100
AcDbEntity
  8
开孔尺寸-2线
 62
     0
100
AcDbMText
 10
11259.78018020061
 20
1493.43680196838
 30
0.0
 40
25.29999999999999
 41
0.0
 46
0.0
 71
     5
 72
     1
  1
785
 73
     1
 44
1.0
1001
ACAD
1000
MTEXTBEGIN
1070
    73
1070
     1
1070
    44
1040
1.0
1070
    74
1070
     0
1000
MTEXTEND
  0
POINT
  5
1B79
330
6AE
100
AcDbEntity
  8
Defpoints
 62
     0
100
AcDbPoint
 10
10867.28018020061
 20
1173.031523757255
 30
0.0
  0
POINT
  5
1B7A
330
6AE
100
AcDbEntity
  8
Defpoints
 62
     0
100
AcDbPoint
 10
11652.28018020062
 20
1173.031523757248
 30
0.0
  0
POINT
  5
1B7B
330
6AE
100
AcDbEntity
  8
Defpoints
 62
     0
100
AcDbPoint
 10
11652.28018020062
 20
1474.194483532626
 30
0.0
  0
ENDBLK
  5
6B9
330
6AE
100
AcDbEntity
  8
0
100
AcDbBlockEnd
  0
BLOCK
  5
6C4
330
6BA
100
AcDbEntity
  8
0
100
AcDbBlockBegin
  2
*D26
 70
     1
 10
0.0
 20
0.0
 30
0.0
  3
*D26
  1

  0
LINE
  5
1B7C
330
6BA
100
AcDbEntity
  8
开孔尺寸-2线
 62
     0
370
    -2
100
AcDbLine
 10
10876.7584071992
 20
1371.031523757264
 30
0.0
 11
10810.7584071992
 21
1371.031523757264
 31
0.0
  0
LINE
  5
1B7D
330
6BA
100
AcDbEntity
  8
开孔尺寸-2线
 62
     0
370
    -2
100
AcDbLine
 10
10876.7584071992
 20
975.0315237572463
 30
0.0
 11
10810.7584071992
 21
975.0315237572463
 31
0.0
  0
LINE
  5
1B7E
330
6BA
100
AcDbEntity
  8
开孔尺寸-2线
  6
ByBlock
 62
     0
370
    -2
100
AcDbLine
 10
10821.7584071992
 20
1354.531523757264
 30
0.0
 11
10821.7584071992
 21
991.5315237572462
 31
0.0
  0
SOLID
  5
1B7F
330
6BA
100
AcDbEntity
  8
开孔尺寸-2线
 62
     0
100
AcDbTrace
 10
10824.5084071992
 20
1354.531523757264
 30
0.0
 11
10819.0084071992
 21
1354.531523757264
 31
0.0
 12
10821.7584071992
 22
1371.031523757264
 32
0.0
 13
10821.7584071992
 23
1371.031523757264
 33
0.0
  0
SOLID
  5
1B80
330
6BA
100
AcDbEntity
  8
开孔尺寸-2线
 62
     0
100
AcDbTrace
 10
10819.0084071992
 20
991.5315237572462
 30
0.0
 11
10824.5084071992
 21
991.5315237572462
 31
0.0
 12
10821.7584071992
 22
975.0315237572463
 32
0.0
 13
10821.7584071992
 23
975.0315237572463
 33
0.0
  0
MTEXT
  5
1B81
330
6BA
100
AcDbEntity
  8
开孔尺寸-2线
 62
     0
100
AcDbMText
 10
10802.51608876345
 20
1173.031523757255
 30
0.0
 40
25.29999999999999
 41
0.0
 46
0.0
 71
     5
 72
     1
  1
396
 11
0.0
 21
1.0
 31
0.0
 73
     1
 44
1.0
1001
ACAD
1000
MTEXTBEGIN
1070
    73
1070
     1
1070
    44
1040
1.0
1070
    74
1070
     0
1000
MTEXTEND
  0
POINT
  5
1B82
330
6BA
100
AcDbEntity
  8
Defpoints
 62
     0
100
AcDbPoint
 10
11259.78018020061
 20
1371.031523757264
 30
0.0
  0
POINT
  5
1B83
330
6BA
100
AcDbEntity
  8
Defpoints
 62
     0
100
AcDbPoint
 10
11259.78018354185
 20
975.0315237572463
 30
0.0
  0
POINT
  5
1B84
330
6BA
100
AcDbEntity
  8
Defpoints
 62
     0
100
AcDbPoint
 10
10821.7584071992
 20
975.0315237572463
 30
0.0
  0
ENDBLK
  5
6C5
330
6BA
100
AcDbEntity
  8
0
100
AcDbBlockEnd
  0
BLOCK
  5
6D0
330
6C6
100
AcDbEntity
  8
0
100
AcDbBlockBegin
  2
*D27
 70
     1
 10
0.0
 20
0.0
 30
0.0
  3
*D27
  1

  0
LINE
  5
1B85
330
6C6
100
AcDbEntity
  8
开孔尺寸-2线
 62
     0
370
    -2
100
AcDbLine
 10
10825.1084970722
 20
1386.031523757237
 30
0.0
 11
10759.1084970722
 21
1386.031523757237
 31
0.0
  0
LINE
  5
1B86
330
6C6
100
AcDbEntity
  8
开孔尺寸-2线
 62
     0
370
    -2
100
AcDbLine
 10
10825.1084970722
 20
960.0315237572736
 30
0.0
 11
10759.1084970722
 21
960.0315237572736
 31
0.0
  0
LINE
  5
1B87
330
6C6
100
AcDbEntity
  8
开孔尺寸-2线
  6
ByBlock
 62
     0
370
    -2
100
AcDbLine
 10
10770.1084970722
 20
1369.531523757237
 30
0.0
 11
10770.1084970722
 21
976.5315237572735
 31
0.0
  0
SOLID
  5
1B88
330
6C6
100
AcDbEntity
  8
开孔尺寸-2线
 62
     0
100
AcDbTrace
 10
10772.8584970722
 20
1369.531523757237
 30
0.0
 11
10767.3584970722
 21
1369.531523757237
 31
0.0
 12
10770.1084970722
 22
1386.031523757237
 32
0.0
 13
10770.1084970722
 23
1386.031523757237
 33
0.0
  0
SOLID
  5
1B89
330
6C6
100
AcDbEntity
  8
开孔尺寸-2线
 62
     0
100
AcDbTrace
 10
10767.3584970722
 20
976.5315237572735
 30
0.0
 11
10772.8584970722
 21
976.5315237572735
 31
0.0
 12
10770.1084970722
 22
960.0315237572736
 32
0.0
 13
10770.1084970722
 23
960.0315237572736
 33
0.0
  0
MTEXT
  5
1B8A
330
6C6
100
AcDbEntity
  8
开孔尺寸-2线
 62
     0
100
AcDbMText
 10
10750.86617863644
 20
1173.031523757255
 30
0.0
 40
25.29999999999999
 41
0.0
 46
0.0
 71
     5
 72
     1
  1
426
 11
0.0
 21
1.0
 31
0.0
 73
     1
 44
1.0
1001
ACAD
1000
MTEXTBEGIN
1070
    73
1070
     1
1070
    44
1040
1.0
1070
    74
1070
     0
1000
MTEXTEND
  0
POINT
  5
1B8B
330
6C6
100
AcDbEntity
  8
Defpoints
 62
     0
100
AcDbPoint
 10
11259.78019372706
 20
1386.031523757237
 30
0.0
  0
POINT
  5
1B8C
330
6C6
100
AcDbEntity
  8
Defpoints
 62
     0
100
AcDbPoint
 10
11259.78016667416
 20
960.0315237572736
 30
0.0
  0
POINT
  5
1B8D
330
6C6
100
AcDbEntity
  8
Defpoints
 62
     0
100
AcDbPoint
 10
10770.1084970722
 20
960.0315237572736
 30
0.0
  0
ENDBLK
  5
6D1
330
6C6
100
AcDbEntity
  8
0
100
AcDbBlockEnd
  0
BLOCK
  5
8C6
330
8BC
100
AcDbEntity
  8
0
100
AcDbBlockBegin
  2
*D28
 70
     1
 10
0.0
 20
0.0
 30
0.0
  3
*D28
  1

  0
LINE
  5
AAA
330
8BC
100
AcDbEntity
  8
标注
 62
     0
370
    -2
100
AcDbLine
 10
2117.654182503732
 20
-684.1244977268413
 30
0.0
 11
2117.654182503732
 21
-618.1244977268413
 31
0.0
  0
LINE
  5
AAB
330
8BC
100
AcDbEntity
  8
标注
 62
     0
370
    -2
100
AcDbLine
 10
2523.654182503739
 20
-684.1244977268413
 30
0.0
 11
2523.654182503739
 21
-618.1244977268413
 31
0.0
  0
LINE
  5
AAC
330
8BC
100
AcDbEntity
  8
标注
 62
     0
370
    -2
100
AcDbLine
 10
2134.154182503732
 20
-629.1244977268413
 30
0.0
 11
2507.15418250374
 21
-629.1244977268413
 31
0.0
  0
SOLID
  5
AAD
330
8BC
100
AcDbEntity
  8
标注
 62
     0
100
AcDbTrace
 10
2134.154182503732
 20
-626.3744977268413
 30
0.0
 11
2134.154182503732
 21
-631.8744977268413
 31
0.0
 12
2117.654182503732
 22
-629.1244977268413
 32
0.0
 13
2117.654182503732
 23
-629.1244977268413
 33
0.0
  0
SOLID
  5
AAE
330
8BC
100
AcDbEntity
  8
标注
 62
     0
100
AcDbTrace
 10
2507.15418250374
 20
-631.8744977268413
 30
0.0
 11
2507.15418250374
 21
-626.3744977268413
 31
0.0
 12
2523.654182503739
 22
-629.1244977268413
 32
0.0
 13
2523.654182503739
 23
-629.1244977268413
 33
0.0
  0
MTEXT
  5
AAF
330
8BC
100
AcDbEntity
  8
标注
 62
     0
100
AcDbMText
 10
2320.654182503736
 20
-607.121425101143
 30
0.0
 40
27.5
 41
0.0
 46
0.0
 71
     5
 72
     1
  1
\A1;406.0 [16"]
 73
     1
 44
1.0
1001
ACAD
1000
MTEXTBEGIN
1070
    73
1070
     1
1070
    44
1040
1.0
1070
    74
1070
     0
1000
MTEXTEND
  0
POINT
  5
AB0
330
8BC
100
AcDbEntity
  8
Defpoints
 62
     0
100
AcDbPoint
 10
2117.654182503732
 20
-897.1244977268604
 30
0.0
  0
POINT
  5
AB1
330
8BC
100
AcDbEntity
  8
Defpoints
 62
     0
100
AcDbPoint
 10
2523.654182503739
 20
-897.1244977268705
 30
0.0
  0
POINT
  5
AB2
330
8BC
100
AcDbEntity
  8
Defpoints
 62
     0
100
AcDbPoint
 10
2523.654182503739
 20
-629.1244977268413
 30
0.0
  0
ENDBLK
  5
8C7
330
8BC
100
AcDbEntity
  8
0
100
AcDbBlockEnd
  0
BLOCK
  5
8D2
330
8C8
100
AcDbEntity
  8
0
100
AcDbBlockBegin
  2
*D29
 70
     1
 10
0.0
 20
0.0
 30
0.0
  3
*D29
  1

  0
LINE
  5
AB3
330
8C8
100
AcDbEntity
  8
标注
 62
     0
370
    -2
100
AcDbLine
 10
2552.698943927903
 20
-684.1244977268795
 30
0.0
 11
2552.698943927903
 21
-618.1244977268796
 31
0.0
  0
LINE
  5
AB4
330
8C8
100
AcDbEntity
  8
标注
 62
     0
370
    -2
100
AcDbLine
 10
2882.698943927911
 20
-684.1244977268795
 30
0.0
 11
2882.698943927911
 21
-618.1244977268796
 31
0.0
  0
LINE
  5
AB5
330
8C8
100
AcDbEntity
  8
标注
 62
     0
370
    -2
100
AcDbLine
 10
2569.198943927903
 20
-629.1244977268795
 30
0.0
 11
2866.198943927911
 21
-629.1244977268795
 31
0.0
  0
SOLID
  5
AB6
330
8C8
100
AcDbEntity
  8
标注
 62
     0
100
AcDbTrace
 10
2569.198943927903
 20
-626.3744977268795
 30
0.0
 11
2569.198943927903
 21
-631.8744977268795
 31
0.0
 12
2552.698943927903
 22
-629.1244977268795
 32
0.0
 13
2552.698943927903
 23
-629.1244977268795
 33
0.0
  0
SOLID
  5
AB7
330
8C8
100
AcDbEntity
  8
标注
 62
     0
100
AcDbTrace
 10
2866.198943927911
 20
-631.8744977268795
 30
0.0
 11
2866.198943927911
 21
-626.3744977268795
 31
0.0
 12
2882.698943927911
 22
-629.1244977268795
 32
0.0
 13
2882.698943927911
 23
-629.1244977268795
 33
0.0
  0
MTEXT
  5
AB8
330
8C8
100
AcDbEntity
  8
标注
 62
     0
100
AcDbMText
 10
2717.698943927907
 20
-607.1214251011812
 30
0.0
 40
27.5
 41
0.0
 46
0.0
 71
     5
 72
     1
  1
\A1;330.0 [13"]
 73
     1
 44
1.0
1001
ACAD
1000
MTEXTBEGIN
1070
    73
1070
     1
1070
    44
1040
1.0
1070
    74
1070
     0
1000
MTEXTEND
  0
POINT
  5
AB9
330
8C8
100
AcDbEntity
  8
Defpoints
 62
     0
100
AcDbPoint
 10
2552.698943927903
 20
-897.1244977269023
 30
0.0
  0
POINT
  5
ABA
330
8C8
100
AcDbEntity
  8
Defpoints
 62
     0
100
AcDbPoint
 10
2882.698943927911
 20
-897.1244977269213
 30
0.0
  0
POINT
  5
ABB
330
8C8
100
AcDbEntity
  8
Defpoints
 62
     0
100
AcDbPoint
 10
2882.698943927911
 20
-629.1244977268795
 30
0.0
  0
ENDBLK
  5
8D3
330
8C8
100
AcDbEntity
  8
0
100
AcDbBlockEnd
  0
BLOCK
  5
8DE
330
8D4
100
AcDbEntity
  8
0
100
AcDbBlockBegin
  2
*D30
 70
     1
 10
0.0
 20
0.0
 30
0.0
  3
*D30
  1

  0
LINE
  5
ABC
330
8D4
100
AcDbEntity
  8
标注
 62
     0
370
    -2
100
AcDbLine
 10
2907.654182503732
 20
-624.1244977268604
 30
0.0
 11
2907.654182503732
 21
-558.1244977268604
 31
0.0
  0
LINE
  5
ABD
330
8D4
100
AcDbEntity
  8
标注
 62
     0
370
    -2
100
AcDbLine
 10
2092.654182503732
 20
-624.1244977268604
 30
0.0
 11
2092.654182503732
 21
-558.1244977268604
 31
0.0
  0
LINE
  5
ABE
330
8D4
100
AcDbEntity
  8
标注
 62
     0
370
    -2
100
AcDbLine
 10
2891.154182503732
 20
-569.1244977268604
 30
0.0
 11
2109.154182503732
 21
-569.1244977268604
 31
0.0
  0
SOLID
  5
ABF
330
8D4
100
AcDbEntity
  8
标注
 62
     0
100
AcDbTrace
 10
2891.154182503732
 20
-571.8744977268604
 30
0.0
 11
2891.154182503732
 21
-566.3744977268605
 31
0.0
 12
2907.654182503732
 22
-569.1244977268604
 32
0.0
 13
2907.654182503732
 23
-569.1244977268604
 33
0.0
  0
SOLID
  5
AC0
330
8D4
100
AcDbEntity
  8
标注
 62
     0
100
AcDbTrace
 10
2109.154182503732
 20
-566.3744977268605
 30
0.0
 11
2109.154182503732
 21
-571.8744977268604
 31
0.0
 12
2092.654182503732
 22
-569.1244977268604
 32
0.0
 13
2092.654182503732
 23
-569.1244977268604
 33
0.0
  0
MTEXT
  5
AC1
330
8D4
100
AcDbEntity
  8
标注
 62
     0
100
AcDbMText
 10
2500.154182503732
 20
-547.1214251011621
 30
0.0
 40
27.5
 41
0.0
 46
0.0
 71
     5
 72
     1
  1
\A1;815.0 [32 1/8"]
 73
     1
 44
1.0
1001
ACAD
1000
MTEXTBEGIN
1070
    73
1070
     1
1070
    44
1040
1.0
1070
    74
1070
     0
1000
MTEXTEND
  0
POINT
  5
AC2
330
8D4
100
AcDbEntity
  8
Defpoints
 62
     0
100
AcDbPoint
 10
2907.654182503732
 20
-750.7505755888148
 30
0.0
  0
POINT
  5
AC3
330
8D4
100
AcDbEntity
  8
Defpoints
 62
     0
100
AcDbPoint
 10
2092.654182503732
 20
-751.570129407223
 30
0.0
  0
POINT
  5
AC4
330
8D4
100
AcDbEntity
  8
Defpoints
 62
     0
100
AcDbPoint
 10
2092.654182503732
 20
-569.1244977268604
 30
0.0
  0
ENDBLK
  5
8DF
330
8D4
100
AcDbEntity
  8
0
100
AcDbBlockEnd
  0
BLOCK
  5
8EA
330
8E0
100
AcDbEntity
  8
0
100
AcDbBlockBegin
  2
*D31
 70
     1
 10
0.0
 20
0.0
 30
0.0
  3
*D31
  1

  0
LINE
  5
AC5
330
8E0
100
AcDbEntity
  8
标注
 62
     0
370
    -2
100
AcDbLine
 10
2107.654182503768
 20
-694.1244977268613
 30
0.0
 11
2041.654182503768
 21
-694.1244977268613
 31
0.0
  0
LINE
  5
AC6
330
8E0
100
AcDbEntity
  8
标注
 62
     0
370
    -2
100
AcDbLine
 10
2107.654182503768
 20
-1100.124497726859
 30
0.0
 11
2041.654182503768
 21
-1100.124497726859
 31
0.0
  0
LINE
  5
AC7
330
8E0
100
AcDbEntity
  8
标注
 62
     0
370
    -2
100
AcDbLine
 10
2052.654182503768
 20
-710.6244977268613
 30
0.0
 11
2052.654182503768
 21
-1083.624497726859
 31
0.0
  0
SOLID
  5
AC8
330
8E0
100
AcDbEntity
  8
标注
 62
     0
100
AcDbTrace
 10
2055.404182503769
 20
-710.6244977268613
 30
0.0
 11
2049.904182503769
 21
-710.6244977268613
 31
0.0
 12
2052.654182503768
 22
-694.1244977268613
 32
0.0
 13
2052.654182503768
 23
-694.1244977268613
 33
0.0
  0
SOLID
  5
AC9
330
8E0
100
AcDbEntity
  8
标注
 62
     0
100
AcDbTrace
 10
2049.904182503769
 20
-1083.624497726859
 30
0.0
 11
2055.404182503769
 21
-1083.624497726859
 31
0.0
 12
2052.654182503768
 22
-1100.124497726859
 32
0.0
 13
2052.654182503768
 23
-1100.124497726859
 33
0.0
  0
MTEXT
  5
ACA
330
8E0
100
AcDbEntity
  8
标注
 62
     0
100
AcDbMText
 10
2030.65110987807
 20
-897.1244977268604
 30
0.0
 40
27.5
 41
0.0
 46
0.0
 71
     5
 72
     1
  1
\A1;406.0 [16"]
 11
0.0
 21
1.0
 31
0.0
 73
     1
 44
1.0
1001
ACAD
1000
MTEXTBEGIN
1070
    73
1070
     1
1070
    44
1040
1.0
1070
    74
1070
     0
1000
MTEXTEND
  0
POINT
  5
ACB
330
8E0
100
AcDbEntity
  8
Defpoints
 62
     0
100
AcDbPoint
 10
2320.654182503732
 20
-694.1244977268613
 30
0.0
  0
POINT
  5
ACC
330
8E0
100
AcDbEntity
  8
Defpoints
 62
     0
100
AcDbPoint
 10
2320.654182503732
 20
-1100.124497726859
 30
0.0
  0
POINT
  5
ACD
330
8E0
100
AcDbEntity
  8
Defpoints
 62
     0
100
AcDbPoint
 10
2052.654182503768
 20
-1100.124497726859
 30
0.0
  0
ENDBLK
  5
8EB
330
8E0
100
AcDbEntity
  8
0
100
AcDbBlockEnd
  0
BLOCK
  5
8F6
330
8EC
100
AcDbEntity
  8
0
100
AcDbBlockBegin
  2
*D32
 70
     1
 10
0.0
 20
0.0
 30
0.0
  3
*D32
  1

  0
LINE
  5
ACE
330
8EC
100
AcDbEntity
  8
标注
 62
     0
370
    -2
100
AcDbLine
 10
2047.654182503769
 20
-669.1244977268604
 30
0.0
 11
1981.654182503768
 21
-669.1244977268604
 31
0.0
  0
LINE
  5
ACF
330
8EC
100
AcDbEntity
  8
标注
 62
     0
370
    -2
100
AcDbLine
 10
2047.654182503769
 20
-1125.12449772686
 30
0.0
 11
1981.654182503768
 21
-1125.12449772686
 31
0.0
  0
LINE
  5
AD0
330
8EC
100
AcDbEntity
  8
标注
 62
     0
370
    -2
100
AcDbLine
 10
1992.654182503768
 20
-685.6244977268604
 30
0.0
 11
1992.654182503768
 21
-1108.62449772686
 31
0.0
  0
SOLID
  5
AD1
330
8EC
100
AcDbEntity
  8
标注
 62
     0
100
AcDbTrace
 10
1995.404182503768
 20
-685.6244977268604
 30
0.0
 11
1989.904182503768
 21
-685.6244977268604
 31
0.0
 12
1992.654182503768
 22
-669.1244977268604
 32
0.0
 13
1992.654182503768
 23
-669.1244977268604
 33
0.0
  0
SOLID
  5
AD2
330
8EC
100
AcDbEntity
  8
标注
 62
     0
100
AcDbTrace
 10
1989.904182503768
 20
-1108.62449772686
 30
0.0
 11
1995.404182503768
 21
-1108.62449772686
 31
0.0
 12
1992.654182503768
 22
-1125.12449772686
 32
0.0
 13
1992.654182503768
 23
-1125.12449772686
 33
0.0
  0
MTEXT
  5
AD3
330
8EC
100
AcDbEntity
  8
标注
 62
     0
100
AcDbMText
 10
1970.65110987807
 20
-897.1244977268604
 30
0.0
 40
27.5
 41
0.0
 46
0.0
 71
     5
 72
     1
  1
\A1;456.0 [18"]
 11
0.0
 21
1.0
 31
0.0
 73
     1
 44
1.0
1001
ACAD
1000
MTEXTBEGIN
1070
    73
1070
     1
1070
    44
1040
1.0
1070
    74
1070
     0
1000
MTEXTEND
  0
POINT
  5
AD4
330
8EC
100
AcDbEntity
  8
Defpoints
 62
     0
100
AcDbPoint
 10
2175.099814184095
 20
-669.1244977268604
 30
0.0
  0
POINT
  5
AD5
330
8EC
100
AcDbEntity
  8
Defpoints
 62
     0
100
AcDbPoint
 10
2175.099814184095
 20
-1125.12449772686
 30
0.0
  0
POINT
  5
AD6
330
8EC
100
AcDbEntity
  8
Defpoints
 62
     0
100
AcDbPoint
 10
1992.654182503768
 20
-1125.12449772686
 30
0.0
  0
ENDBLK
  5
8F7
330
8EC
100
AcDbEntity
  8
0
100
AcDbBlockEnd
  0
BLOCK
  5
902
330
8F8
100
AcDbEntity
  8
0
100
AcDbBlockBegin
  2
*D33
 70
     1
 10
0.0
 20
0.0
 30
0.0
  3
*D33
  1

  0
LINE
  5
AD7
330
8F8
100
AcDbEntity
  8
标注
 62
     0
370
    -2
100
AcDbLine
 10
2069.654182503768
 20
-1225.12449772686
 30
0.0
 11
2003.654182503769
 21
-1225.12449772686
 31
0.0
  0
LINE
  5
AD8
330
8F8
100
AcDbEntity
  8
标注
 62
     0
370
    -2
100
AcDbLine
 10
2069.654182503768
 20
-1454.121980796431
 30
0.0
 11
2003.654182503769
 21
-1454.121980796431
 31
0.0
  0
LINE
  5
AD9
330
8F8
100
AcDbEntity
  8
标注
 62
     0
370
    -2
100
AcDbLine
 10
2014.654182503768
 20
-1241.62449772686
 30
0.0
 11
2014.654182503768
 21
-1437.621980796431
 31
0.0
  0
SOLID
  5
ADA
330
8F8
100
AcDbEntity
  8
标注
 62
     0
100
AcDbTrace
 10
2017.404182503768
 20
-1241.62449772686
 30
0.0
 11
2011.904182503768
 21
-1241.62449772686
 31
0.0
 12
2014.654182503768
 22
-1225.12449772686
 32
0.0
 13
2014.654182503768
 23
-1225.12449772686
 33
0.0
  0
SOLID
  5
ADB
330
8F8
100
AcDbEntity
  8
标注
 62
     0
100
AcDbTrace
 10
2011.904182503768
 20
-1437.621980796431
 30
0.0
 11
2017.404182503768
 21
-1437.621980796431
 31
0.0
 12
2014.654182503768
 22
-1454.121980796431
 32
0.0
 13
2014.654182503768
 23
-1454.121980796431
 33
0.0
  0
MTEXT
  5
ADC
330
8F8
100
AcDbEntity
  8
标注
 62
     0
100
AcDbMText
 10
1992.65110987807
 20
-1339.623239261646
 30
0.0
 40
27.5
 41
0.0
 46
0.0
 71
     5
 72
     1
  1
\A1;229.0 [9"]
 11
0.0
 21
1.0
 31
0.0
 73
     1
 44
1.0
1001
ACAD
1000
MTEXTBEGIN
1070
    73
1070
     1
1070
    44
1040
1.0
1070
    74
1070
     0
1000
MTEXTEND
  0
POINT
  5
ADD
330
8F8
100
AcDbEntity
  8
Defpoints
 62
     0
100
AcDbPoint
 10
2092.654182503732
 20
-1225.12449772686
 30
0.0
  0
POINT
  5
ADE
330
8F8
100
AcDbEntity
  8
Defpoints
 62
     0
100
AcDbPoint
 10
2323.901068173557
 20
-1454.121980796431
 30
0.0
  0
POINT
  5
ADF
330
8F8
100
AcDbEntity
  8
Defpoints
 62
     0
100
AcDbPoint
 10
2014.654182503768
 20
-1454.121980796431
 30
0.0
  0
ENDBLK
  5
903
330
8F8
100
AcDbEntity
  8
0
100
AcDbBlockEnd
  0
BLOCK
  5
90F
330
904
100
AcDbEntity
  8
0
100
AcDbBlockBegin
  2
*D34
 70
     1
 10
0.0
 20
0.0
 30
0.0
  3
*D34
  1

  0
LINE
  5
D47
330
904
100
AcDbEntity
  8
标注
 62
     0
370
    -2
100
AcDbLine
 10
2945.71231562433
 20
-1225.12449772686
 30
0.0
 11
3011.71231562433
 21
-1225.12449772686
 31
0.0
  0
LINE
  5
D48
330
904
100
AcDbEntity
  8
标注
 62
     0
370
    -2
100
AcDbLine
 10
2945.71231562433
 20
-1403.124497726858
 30
0.0
 11
3011.71231562433
 21
-1403.124497726858
 31
0.0
  0
LINE
  5
D49
330
904
100
AcDbEntity
  8
标注
 62
     0
370
    -2
100
AcDbLine
 10
3000.71231562433
 20
-1241.62449772686
 30
0.0
 11
3000.71231562433
 21
-1386.624497726858
 31
0.0
  0
SOLID
  5
D4A
330
904
100
AcDbEntity
  8
标注
 62
     0
100
AcDbTrace
 10
3003.46231562433
 20
-1241.62449772686
 30
0.0
 11
2997.962315624329
 21
-1241.62449772686
 31
0.0
 12
3000.71231562433
 22
-1225.12449772686
 32
0.0
 13
3000.71231562433
 23
-1225.12449772686
 33
0.0
  0
SOLID
  5
D4B
330
904
100
AcDbEntity
  8
标注
 62
     0
100
AcDbTrace
 10
2997.962315624329
 20
-1386.624497726858
 30
0.0
 11
3003.46231562433
 21
-1386.624497726858
 31
0.0
 12
3000.71231562433
 22
-1403.124497726858
 32
0.0
 13
3000.71231562433
 23
-1403.124497726858
 33
0.0
  0
MTEXT
  5
D4C
330
904
100
AcDbEntity
  8
标注
 62
     0
100
AcDbMText
 10
2978.709242998632
 20
-1314.124497726859
 30
0.0
 40
27.5
 41
0.0
 46
0.0
 71
     5
 72
     1
  1
\A1;178.0 [7"]
 11
0.0
 21
1.0
 31
0.0
 73
     1
 44
1.0
1001
ACAD
1000
MTEXTBEGIN
1070
    73
1070
     1
1070
    44
1040
1.0
1070
    74
1070
     0
1000
MTEXTEND
  0
POINT
  5
D4D
330
904
100
AcDbEntity
  8
Defpoints
 62
     0
100
AcDbPoint
 10
2907.654182503732
 20
-1225.12449772686
 30
0.0
  0
POINT
  5
D4E
330
904
100
AcDbEntity
  8
Defpoints
 62
     0
100
AcDbPoint
 10
2717.698943927896
 20
-1403.124497726858
 30
0.0
  0
POINT
  5
D4F
330
904
100
AcDbEntity
  8
Defpoints
 62
     0
100
AcDbPoint
 10
3000.71231562433
 20
-1403.124497726858
 30
0.0
  0
ENDBLK
  5
910
330
904
100
AcDbEntity
  8
0
100
AcDbBlockEnd
  0
BLOCK
  5
917
330
911
100
AcDbEntity
  8
0
100
AcDbBlockBegin
  2
*D35
 70
     1
 10
0.0
 20
0.0
 30
0.0
  3
*D35
  1

  0
LINE
  5
B27
330
911
100
AcDbEntity
  8
标注
 62
     0
370
    -2
100
AcDbLine
 10
2781.079033506973
 20
-1319.040933342727
 30
0.0
 11
2851.13318024179
 21
-1369.075356736476
 31
0.0
  0
MTEXT
  5
B28
330
911
100
AcDbEntity
  8
标注
 62
     0
100
AcDbMText
 10
2818.732943229094
 20
-1322.28802163066
 30
0.0
 40
25.29999999999999
 41
0.0
 46
0.0
 71
     5
 72
     1
  1
R50
 11
0.8137568361376864
 21
-0.5812054814256168
 31
0.0
 73
     1
 44
1.0
1001
ACAD
1000
MTEXTBEGIN
1070
    73
1070
     1
1070
    44
1040
1.0
1070
    74
1070
     0
1000
MTEXTEND
  0
SOLID
  5
B29
330
911
100
AcDbEntity
  8
标注
 62
     0
100
AcDbTrace
 10
2849.53486516787
 20
-1371.313188035854
 30
0.0
 11
2852.73149531571
 21
-1366.837525437097
 31
0.0
 12
2864.560168038062
 22
-1378.665247179999
 32
0.0
 13
2864.560168038062
 23
-1378.665247179999
 33
0.0
  0
POINT
  5
B2A
330
911
100
AcDbEntity
  8
Defpoints
 62
     0
100
AcDbPoint
 10
2864.560168038062
 20
-1378.665247179999
 30
0.0
  0
POINT
  5
B2B
330
911
100
AcDbEntity
  8
Defpoints
 62
     0
100
AcDbPoint
 10
2823.87232623118
 20
-1349.60497310872
 30
0.0
  0
ENDBLK
  5
918
330
911
100
AcDbEntity
  8
0
100
AcDbBlockEnd
  0
BLOCK
  5
91F
330
919
100
AcDbEntity
  8
0
100
AcDbBlockBegin
  2
*D36
 70
     1
 10
0.0
 20
0.0
 30
0.0
  3
*D36
  1

  0
LINE
  5
B1D
330
919
100
AcDbEntity
  8
标注
 62
     0
370
    -2
100
AcDbLine
 10
2418.013983906892
 20
-1369.493347886698
 30
0.0
 11
2488.963417352075
 21
-1418.249936086622
 31
0.0
  0
MTEXT
  5
B1E
330
919
100
AcDbEntity
  8
标注
 62
     0
100
AcDbMText
 10
2455.720557475503
 20
-1372.057487006604
 30
0.0
 40
25.29999999999999
 41
0.0
 46
0.0
 71
     5
 72
     1
  1
R50
 11
0.8241565871134003
 21
-0.5663620043025415
 31
0.0
 73
     1
 44
1.0
1001
ACAD
1000
MTEXTBEGIN
1070
    73
1070
     1
1070
    44
1040
1.0
1070
    74
1070
     0
1000
MTEXTEND
  0
SOLID
  5
B1F
330
919
100
AcDbEntity
  8
标注
 62
     0
100
AcDbTrace
 10
2487.405921840244
 20
-1420.516366701184
 30
0.0
 11
2490.520912863907
 21
-1415.983505472061
 31
0.0
 12
2502.562001039446
 22
-1427.594909157614
 32
0.0
 13
2502.562001039446
 23
-1427.594909157614
 33
0.0
  0
POINT
  5
B20
330
919
100
AcDbEntity
  8
Defpoints
 62
     0
100
AcDbPoint
 10
2502.562001039446
 20
-1427.594909157614
 30
0.0
  0
POINT
  5
B21
330
919
100
AcDbEntity
  8
Defpoints
 62
     0
100
AcDbPoint
 10
2461.354171683777
 20
-1399.276808942488
 30
0.0
  0
ENDBLK
  5
920
330
919
100
AcDbEntity
  8
0
100
AcDbBlockEnd
  0
BLOCK
  5
92B
330
921
100
AcDbEntity
  8
0
100
AcDbBlockBegin
  2
*D37
 70
     1
 10
0.0
 20
0.0
 30
0.0
  3
*D37
  1

  0
LINE
  5
AF4
330
921
100
AcDbEntity
  8
开孔尺寸-2线
 62
     0
370
    -2
100
AcDbLine
 10
3313.715801769123
 20
-709.1784049160658
 30
0.0
 11
3313.715801769123
 21
-643.1784049160658
 31
0.0
  0
LINE
  5
AF5
330
921
100
AcDbEntity
  8
开孔尺寸-2线
 62
     0
370
    -2
100
AcDbLine
 10
4068.71580176913
 20
-709.1784049160658
 30
0.0
 11
4068.71580176913
 21
-643.1784049160658
 31
0.0
  0
LINE
  5
AF6
330
921
100
AcDbEntity
  8
开孔尺寸-2线
  6
ByBlock
 62
     0
370
    -2
100
AcDbLine
 10
3330.215801769123
 20
-654.1784049160658
 30
0.0
 11
4052.21580176913
 21
-654.1784049160658
 31
0.0
  0
SOLID
  5
AF7
330
921
100
AcDbEntity
  8
开孔尺寸-2线
 62
     0
100
AcDbTrace
 10
3330.215801769123
 20
-651.4284049160657
 30
0.0
 11
3330.215801769123
 21
-656.9284049160658
 31
0.0
 12
3313.715801769123
 22
-654.1784049160658
 32
0.0
 13
3313.715801769123
 23
-654.1784049160658
 33
0.0
  0
SOLID
  5
AF8
330
921
100
AcDbEntity
  8
开孔尺寸-2线
 62
     0
100
AcDbTrace
 10
4052.21580176913
 20
-656.9284049160658
 30
0.0
 11
4052.21580176913
 21
-651.4284049160657
 31
0.0
 12
4068.71580176913
 22
-654.1784049160658
 32
0.0
 13
4068.71580176913
 23
-654.1784049160658
 33
0.0
  0
MTEXT
  5
AF9
330
921
100
AcDbEntity
  8
开孔尺寸-2线
 62
     0
100
AcDbMText
 10
3691.215801769152
 20
-635.0774272624345
 30
0.0
 40
25.29999999999999
 41
0.0
 46
0.0
 71
     5
 72
     1
  1
755
 73
     1
 44
1.0
1001
ACAD
1000
MTEXTBEGIN
1070
    73
1070
     1
1070
    44
1040
1.0
1070
    74
1070
     0
1000
MTEXTEND
  0
POINT
  5
AFA
330
921
100
AcDbEntity
  8
Defpoints
 62
     0
100
AcDbPoint
 10
3313.715801769123
 20
-907.6200027226066
 30
0.0
  0
POINT
  5
AFB
330
921
100
AcDbEntity
  8
Defpoints
 62
     0
100
AcDbPoint
 10
4068.71580176913
 20
-907.6200027230322
 30
0.0
  0
POINT
  5
AFC
330
921
100
AcDbEntity
  8
Defpoints
 62
     0
100
AcDbPoint
 10
4068.71580176913
 20
-654.1784049160658
 30
0.0
  0
ENDBLK
  5
92C
330
921
100
AcDbEntity
  8
0
100
AcDbBlockEnd
  0
BLOCK
  5
937
330
92D
100
AcDbEntity
  8
0
100
AcDbBlockBegin
  2
*D38
 70
     1
 10
0.0
 20
0.0
 30
0.0
  3
*D38
  1

  0
LINE
  5
AFD
330
92D
100
AcDbEntity
  8
开孔尺寸-2线
 62
     0
370
    -2
100
AcDbLine
 10
3298.715801769123
 20
-661.4570429476805
 30
0.0
 11
3298.715801769123
 21
-595.4570429476805
 31
0.0
  0
LINE
  5
AFE
330
92D
100
AcDbEntity
  8
开孔尺寸-2线
 62
     0
370
    -2
100
AcDbLine
 10
4083.715801769122
 20
-661.4570429476805
 30
0.0
 11
4083.715801769122
 21
-595.4570429476805
 31
0.0
  0
LINE
  5
AFF
330
92D
100
AcDbEntity
  8
开孔尺寸-2线
  6
ByBlock
 62
     0
370
    -2
100
AcDbLine
 10
3315.215801769123
 20
-606.4570429476805
 30
0.0
 11
4067.215801769122
 21
-606.4570429476805
 31
0.0
  0
SOLID
  5
B00
330
92D
100
AcDbEntity
  8
开孔尺寸-2线
 62
     0
100
AcDbTrace
 10
3315.215801769123
 20
-603.7070429476805
 30
0.0
 11
3315.215801769123
 21
-609.2070429476805
 31
0.0
 12
3298.715801769123
 22
-606.4570429476805
 32
0.0
 13
3298.715801769123
 23
-606.4570429476805
 33
0.0
  0
SOLID
  5
B01
330
92D
100
AcDbEntity
  8
开孔尺寸-2线
 62
     0
100
AcDbTrace
 10
4067.215801769122
 20
-609.2070429476805
 30
0.0
 11
4067.215801769122
 21
-603.7070429476805
 31
0.0
 12
4083.715801769122
 22
-606.4570429476805
 32
0.0
 13
4083.715801769122
 23
-606.4570429476805
 33
0.0
  0
MTEXT
  5
B02
330
92D
100
AcDbEntity
  8
开孔尺寸-2线
 62
     0
100
AcDbMText
 10
3691.215801769123
 20
-587.2147245119263
 30
0.0
 40
25.29999999999999
 41
0.0
 46
0.0
 71
     5
 72
     1
  1
785
 73
     1
 44
1.0
1001
ACAD
1000
MTEXTBEGIN
1070
    73
1070
     1
1070
    44
1040
1.0
1070
    74
1070
     0
1000
MTEXTEND
  0
POINT
  5
B03
330
92D
100
AcDbEntity
  8
Defpoints
 62
     0
100
AcDbPoint
 10
3298.715801769123
 20
-907.6200027230513
 30
0.0
  0
POINT
  5
B04
330
92D
100
AcDbEntity
  8
Defpoints
 62
     0
100
AcDbPoint
 10
4083.715801769122
 20
-907.6200027230585
 30
0.0
  0
POINT
  5
B05
330
92D
100
AcDbEntity
  8
Defpoints
 62
     0
100
AcDbPoint
 10
4083.715801769122
 20
-606.4570429476805
 30
0.0
  0
ENDBLK
  5
938
330
92D
100
AcDbEntity
  8
0
100
AcDbBlockEnd
  0
BLOCK
  5
943
330
939
100
AcDbEntity
  8
0
100
AcDbBlockBegin
  2
*D39
 70
     1
 10
0.0
 20
0.0
 30
0.0
  3
*D39
  1

  0
LINE
  5
B06
330
939
100
AcDbEntity
  8
开孔尺寸-2线
 62
     0
370
    -2
100
AcDbLine
 10
3308.194028767726
 20
-709.620002723024
 30
0.0
 11
3242.194028767725
 21
-709.620002723024
 31
0.0
  0
LINE
  5
B07
330
939
100
AcDbEntity
  8
开孔尺寸-2线
 62
     0
370
    -2
100
AcDbLine
 10
3308.194028767726
 20
-1105.620002723042
 30
0.0
 11
3242.194028767725
 21
-1105.620002723042
 31
0.0
  0
LINE
  5
B08
330
939
100
AcDbEntity
  8
开孔尺寸-2线
  6
ByBlock
 62
     0
370
    -2
100
AcDbLine
 10
3253.194028767725
 20
-726.120002723024
 30
0.0
 11
3253.194028767725
 21
-1089.120002723042
 31
0.0
  0
SOLID
  5
B09
330
939
100
AcDbEntity
  8
开孔尺寸-2线
 62
     0
100
AcDbTrace
 10
3255.944028767725
 20
-726.120002723024
 30
0.0
 11
3250.444028767726
 21
-726.120002723024
 31
0.0
 12
3253.194028767725
 22
-709.620002723024
 32
0.0
 13
3253.194028767725
 23
-709.620002723024
 33
0.0
  0
SOLID
  5
B0A
330
939
100
AcDbEntity
  8
开孔尺寸-2线
 62
     0
100
AcDbTrace
 10
3250.444028767726
 20
-1089.120002723042
 30
0.0
 11
3255.944028767725
 21
-1089.120002723042
 31
0.0
 12
3253.194028767725
 22
-1105.620002723042
 32
0.0
 13
3253.194028767725
 23
-1105.620002723042
 33
0.0
  0
MTEXT
  5
B0B
330
939
100
AcDbEntity
  8
开孔尺寸-2线
 62
     0
100
AcDbMText
 10
3233.951710331972
 20
-907.6200027230331
 30
0.0
 40
25.29999999999999
 41
0.0
 46
0.0
 71
     5
 72
     1
  1
396
 11
0.0
 21
1.0
 31
0.0
 73
     1
 44
1.0
1001
ACAD
1000
MTEXTBEGIN
1070
    73
1070
     1
1070
    44
1040
1.0
1070
    74
1070
     0
1000
MTEXTEND
  0
POINT
  5
B0C
330
939
100
AcDbEntity
  8
Defpoints
 62
     0
100
AcDbPoint
 10
3691.215801769123
 20
-709.620002723024
 30
0.0
  0
POINT
  5
B0D
330
939
100
AcDbEntity
  8
Defpoints
 62
     0
100
AcDbPoint
 10
3691.215805110359
 20
-1105.620002723042
 30
0.0
  0
POINT
  5
B0E
330
939
100
AcDbEntity
  8
Defpoints
 62
     0
100
AcDbPoint
 10
3253.194028767725
 20
-1105.620002723042
 30
0.0
  0
ENDBLK
  5
944
330
939
100
AcDbEntity
  8
0
100
AcDbBlockEnd
  0
BLOCK
  5
94F
330
945
100
AcDbEntity
  8
0
100
AcDbBlockBegin
  2
*D40
 70
     1
 10
0.0
 20
0.0
 30
0.0
  3
*D40
  1

  0
LINE
  5
B0F
330
945
100
AcDbEntity
  8
开孔尺寸-2线
 62
     0
370
    -2
100
AcDbLine
 10
3256.544118640731
 20
-694.6200027230513
 30
0.0
 11
3190.544118640731
 21
-694.6200027230513
 31
0.0
  0
LINE
  5
B10
330
945
100
AcDbEntity
  8
开孔尺寸-2线
 62
     0
370
    -2
100
AcDbLine
 10
3256.544118640731
 20
-1120.620002723015
 30
0.0
 11
3190.544118640731
 21
-1120.620002723015
 31
0.0
  0
LINE
  5
B11
330
945
100
AcDbEntity
  8
开孔尺寸-2线
  6
ByBlock
 62
     0
370
    -2
100
AcDbLine
 10
3201.544118640731
 20
-711.1200027230514
 30
0.0
 11
3201.544118640731
 21
-1104.120002723015
 31
0.0
  0
SOLID
  5
B12
330
945
100
AcDbEntity
  8
开孔尺寸-2线
 62
     0
100
AcDbTrace
 10
3204.29411864073
 20
-711.1200027230514
 30
0.0
 11
3198.794118640731
 21
-711.1200027230514
 31
0.0
 12
3201.544118640731
 22
-694.6200027230513
 32
0.0
 13
3201.544118640731
 23
-694.6200027230513
 33
0.0
  0
SOLID
  5
B13
330
945
100
AcDbEntity
  8
开孔尺寸-2线
 62
     0
100
AcDbTrace
 10
3198.794118640731
 20
-1104.120002723015
 30
0.0
 11
3204.29411864073
 21
-1104.120002723015
 31
0.0
 12
3201.544118640731
 22
-1120.620002723015
 32
0.0
 13
3201.544118640731
 23
-1120.620002723015
 33
0.0
  0
MTEXT
  5
B14
330
945
100
AcDbEntity
  8
开孔尺寸-2线
 62
     0
100
AcDbMText
 10
3182.301800204977
 20
-907.6200027230331
 30
0.0
 40
25.29999999999999
 41
0.0
 46
0.0
 71
     5
 72
     1
  1
426
 11
0.0
 21
1.0
 31
0.0
 73
     1
 44
1.0
1001
ACAD
1000
MTEXTBEGIN
1070
    73
1070
     1
1070
    44
1040
1.0
1070
    74
1070
     0
1000
MTEXTEND
  0
POINT
  5
B15
330
945
100
AcDbEntity
  8
Defpoints
 62
     0
100
AcDbPoint
 10
3691.215815295579
 20
-694.6200027230513
 30
0.0
  0
POINT
  5
B16
330
945
100
AcDbEntity
  8
Defpoints
 62
     0
100
AcDbPoint
 10
3691.215788242674
 20
-1120.620002723015
 30
0.0
  0
POINT
  5
B17
330
945
100
AcDbEntity
  8
Defpoints
 62
     0
100
AcDbPoint
 10
3201.544118640731
 20
-1120.620002723015
 30
0.0
  0
ENDBLK
  5
950
330
945
100
AcDbEntity
  8
0
100
AcDbBlockEnd
  0
BLOCK
  5
BF1
330
BE7
100
AcDbEntity
  8
0
100
AcDbBlockBegin
  2
*D41
 70
     1
 10
0.0
 20
0.0
 30
0.0
  3
*D41
  1

  0
LINE
  5
CE0
330
BE7
100
AcDbEntity
  8
标注
 62
     0
370
    -2
100
AcDbLine
 10
1686.796031734804
 20
-684.1244977268411
 30
0.0
 11
1686.796031734804
 21
-618.1244977268411
 31
0.0
  0
LINE
  5
CE1
330
BE7
100
AcDbEntity
  8
标注
 62
     0
370
    -2
100
AcDbLine
 10
1280.796031734797
 20
-684.1244977268408
 30
0.0
 11
1280.796031734797
 21
-618.1244977268408
 31
0.0
  0
LINE
  5
CE2
330
BE7
100
AcDbEntity
  8
标注
 62
     0
370
    -2
100
AcDbLine
 10
1670.296031734804
 20
-629.1244977268411
 30
0.0
 11
1297.296031734797
 21
-629.1244977268411
 31
0.0
  0
SOLID
  5
CE3
330
BE7
100
AcDbEntity
  8
标注
 62
     0
100
AcDbTrace
 10
1670.296031734804
 20
-631.8744977268411
 30
0.0
 11
1670.296031734804
 21
-626.3744977268411
 31
0.0
 12
1686.796031734804
 22
-629.1244977268411
 32
0.0
 13
1686.796031734804
 23
-629.1244977268411
 33
0.0
  0
SOLID
  5
CE4
330
BE7
100
AcDbEntity
  8
标注
 62
     0
100
AcDbTrace
 10
1297.296031734797
 20
-626.3744977268409
 30
0.0
 11
1297.296031734797
 21
-631.8744977268409
 31
0.0
 12
1280.796031734797
 22
-629.1244977268409
 32
0.0
 13
1280.796031734797
 23
-629.1244977268409
 33
0.0
  0
MTEXT
  5
CE5
330
BE7
100
AcDbEntity
  8
标注
 62
     0
100
AcDbMText
 10
1483.7960317348
 20
-607.1214251011427
 30
0.0
 40
27.5
 41
0.0
 46
0.0
 71
     5
 72
     1
  1
\A1;406.0 [16"]
 73
     1
 44
1.0
1001
ACAD
1000
MTEXTBEGIN
1070
    73
1070
     1
1070
    44
1040
1.0
1070
    74
1070
     0
1000
MTEXTEND
  0
POINT
  5
CE6
330
BE7
100
AcDbEntity
  8
Defpoints
 62
     0
100
AcDbPoint
 10
1686.796031734804
 20
-897.1244977268602
 30
0.0
  0
POINT
  5
CE7
330
BE7
100
AcDbEntity
  8
Defpoints
 62
     0
100
AcDbPoint
 10
1280.796031734796
 20
-897.12449772687
 30
0.0
  0
POINT
  5
CE8
330
BE7
100
AcDbEntity
  8
Defpoints
 62
     0
100
AcDbPoint
 10
1280.796031734797
 20
-629.1244977268409
 30
0.0
  0
ENDBLK
  5
BF2
330
BE7
100
AcDbEntity
  8
0
100
AcDbBlockEnd
  0
BLOCK
  5
BFD
330
BF3
100
AcDbEntity
  8
0
100
AcDbBlockBegin
  2
*D42
 70
     1
 10
0.0
 20
0.0
 30
0.0
  3
*D42
  1

  0
LINE
  5
CE9
330
BF3
100
AcDbEntity
  8
标注
 62
     0
370
    -2
100
AcDbLine
 10
1251.751270310633
 20
-684.124497726879
 30
0.0
 11
1251.751270310633
 21
-618.124497726879
 31
0.0
  0
LINE
  5
CEA
330
BF3
100
AcDbEntity
  8
标注
 62
     0
370
    -2
100
AcDbLine
 10
921.7512703106255
 20
-684.1244977268789
 30
0.0
 11
921.7512703106255
 21
-618.1244977268788
 31
0.0
  0
LINE
  5
CEB
330
BF3
100
AcDbEntity
  8
标注
 62
     0
370
    -2
100
AcDbLine
 10
1235.251270310633
 20
-629.1244977268791
 30
0.0
 11
938.2512703106256
 21
-629.1244977268791
 31
0.0
  0
SOLID
  5
CEC
330
BF3
100
AcDbEntity
  8
标注
 62
     0
100
AcDbTrace
 10
1235.251270310633
 20
-631.874497726879
 30
0.0
 11
1235.251270310633
 21
-626.3744977268791
 31
0.0
 12
1251.751270310633
 22
-629.1244977268791
 32
0.0
 13
1251.751270310633
 23
-629.1244977268791
 33
0.0
  0
SOLID
  5
CED
330
BF3
100
AcDbEntity
  8
标注
 62
     0
100
AcDbTrace
 10
938.2512703106256
 20
-626.3744977268788
 30
0.0
 11
938.2512703106256
 21
-631.8744977268789
 31
0.0
 12
921.7512703106255
 22
-629.1244977268789
 32
0.0
 13
921.7512703106255
 23
-629.1244977268789
 33
0.0
  0
MTEXT
  5
CEE
330
BF3
100
AcDbEntity
  8
标注
 62
     0
100
AcDbMText
 10
1086.751270310629
 20
-607.1214251011806
 30
0.0
 40
27.5
 41
0.0
 46
0.0
 71
     5
 72
     1
  1
\A1;330.0 [13"]
 73
     1
 44
1.0
1001
ACAD
1000
MTEXTBEGIN
1070
    73
1070
     1
1070
    44
1040
1.0
1070
    74
1070
     0
1000
MTEXTEND
  0
POINT
  5
CEF
330
BF3
100
AcDbEntity
  8
Defpoints
 62
     0
100
AcDbPoint
 10
1251.751270310633
 20
-897.1244977269018
 30
0.0
  0
POINT
  5
CF0
330
BF3
100
AcDbEntity
  8
Defpoints
 62
     0
100
AcDbPoint
 10
921.7512703106253
 20
-897.1244977269206
 30
0.0
  0
POINT
  5
CF1
330
BF3
100
AcDbEntity
  8
Defpoints
 62
     0
100
AcDbPoint
 10
921.7512703106255
 20
-629.1244977268789
 30
0.0
  0
ENDBLK
  5
BFE
330
BF3
100
AcDbEntity
  8
0
100
AcDbBlockEnd
  0
BLOCK
  5
C09
330
BFF
100
AcDbEntity
  8
0
100
AcDbBlockBegin
  2
*D43
 70
     1
 10
0.0
 20
0.0
 30
0.0
  3
*D43
  1

  0
LINE
  5
CF2
330
BFF
100
AcDbEntity
  8
标注
 62
     0
370
    -2
100
AcDbLine
 10
896.7960317348039
 20
-624.1244977268597
 30
0.0
 11
896.7960317348039
 21
-558.1244977268597
 31
0.0
  0
LINE
  5
CF3
330
BFF
100
AcDbEntity
  8
标注
 62
     0
370
    -2
100
AcDbLine
 10
1711.796031734804
 20
-624.1244977268602
 30
0.0
 11
1711.796031734804
 21
-558.1244977268602
 31
0.0
  0
LINE
  5
CF4
330
BFF
100
AcDbEntity
  8
标注
 62
     0
370
    -2
100
AcDbLine
 10
913.296031734804
 20
-569.1244977268597
 30
0.0
 11
1695.296031734804
 21
-569.1244977268597
 31
0.0
  0
SOLID
  5
CF5
330
BFF
100
AcDbEntity
  8
标注
 62
     0
100
AcDbTrace
 10
913.296031734804
 20
-566.3744977268597
 30
0.0
 11
913.296031734804
 21
-571.8744977268597
 31
0.0
 12
896.7960317348039
 22
-569.1244977268597
 32
0.0
 13
896.7960317348039
 23
-569.1244977268597
 33
0.0
  0
SOLID
  5
CF6
330
BFF
100
AcDbEntity
  8
标注
 62
     0
100
AcDbTrace
 10
1695.296031734804
 20
-571.8744977268602
 30
0.0
 11
1695.296031734804
 21
-566.3744977268602
 31
0.0
 12
1711.796031734804
 22
-569.1244977268602
 32
0.0
 13
1711.796031734804
 23
-569.1244977268602
 33
0.0
  0
MTEXT
  5
CF7
330
BFF
100
AcDbEntity
  8
标注
 62
     0
100
AcDbMText
 10
1304.296031734804
 20
-547.1214251011616
 30
0.0
 40
27.5
 41
0.0
 46
0.0
 71
     5
 72
     1
  1
\A1;815.0 [32 1/8"]
 73
     1
 44
1.0
1001
ACAD
1000
MTEXTBEGIN
1070
    73
1070
     1
1070
    44
1040
1.0
1070
    74
1070
     0
1000
MTEXTEND
  0
POINT
  5
CF8
330
BFF
100
AcDbEntity
  8
Defpoints
 62
     0
100
AcDbPoint
 10
896.7960317348039
 20
-750.7505755888141
 30
0.0
  0
POINT
  5
CF9
330
BFF
100
AcDbEntity
  8
Defpoints
 62
     0
100
AcDbPoint
 10
1711.796031734804
 20
-751.5701294072227
 30
0.0
  0
POINT
  5
CFA
330
BFF
100
AcDbEntity
  8
Defpoints
 62
     0
100
AcDbPoint
 10
1711.796031734804
 20
-569.1244977268602
 30
0.0
  0
ENDBLK
  5
C0A
330
BFF
100
AcDbEntity
  8
0
100
AcDbBlockEnd
  0
BLOCK
  5
C15
330
C0B
100
AcDbEntity
  8
0
100
AcDbBlockBegin
  2
*D44
 70
     1
 10
0.0
 20
0.0
 30
0.0
  3
*D44
  1

  0
LINE
  5
CFB
330
C0B
100
AcDbEntity
  8
标注
 62
     0
370
    -2
100
AcDbLine
 10
910.9764779164247
 20
-694.1244977268609
 30
0.0
 11
844.9764779164247
 21
-694.1244977268609
 31
0.0
  0
LINE
  5
CFC
330
C0B
100
AcDbEntity
  8
标注
 62
     0
370
    -2
100
AcDbLine
 10
910.9764779164247
 20
-1100.124497726859
 30
0.0
 11
844.9764779164247
 21
-1100.124497726859
 31
0.0
  0
LINE
  5
CFD
330
C0B
100
AcDbEntity
  8
标注
 62
     0
370
    -2
100
AcDbLine
 10
855.9764779164247
 20
-710.6244977268609
 30
0.0
 11
855.9764779164247
 21
-1083.624497726859
 31
0.0
  0
SOLID
  5
CFE
330
C0B
100
AcDbEntity
  8
标注
 62
     0
100
AcDbTrace
 10
858.7264779164247
 20
-710.6244977268609
 30
0.0
 11
853.2264779164247
 21
-710.6244977268609
 31
0.0
 12
855.9764779164247
 22
-694.1244977268609
 32
0.0
 13
855.9764779164247
 23
-694.1244977268609
 33
0.0
  0
SOLID
  5
CFF
330
C0B
100
AcDbEntity
  8
标注
 62
     0
100
AcDbTrace
 10
853.2264779164247
 20
-1083.624497726859
 30
0.0
 11
858.7264779164247
 21
-1083.624497726859
 31
0.0
 12
855.9764779164247
 22
-1100.124497726859
 32
0.0
 13
855.9764779164247
 23
-1100.124497726859
 33
0.0
  0
MTEXT
  5
D00
330
C0B
100
AcDbEntity
  8
标注
 62
     0
100
AcDbMText
 10
833.9734052907264
 20
-897.12449772686
 30
0.0
 40
27.5
 41
0.0
 46
0.0
 71
     5
 72
     1
  1
\A1;406.0 [16"]
 11
0.0
 21
1.0
 31
0.0
 73
     1
 44
1.0
1001
ACAD
1000
MTEXTBEGIN
1070
    73
1070
     1
1070
    44
1040
1.0
1070
    74
1070
     0
1000
MTEXTEND
  0
POINT
  5
D01
330
C0B
100
AcDbEntity
  8
Defpoints
 62
     0
100
AcDbPoint
 10
1123.976477916388
 20
-694.1244977268609
 30
0.0
  0
POINT
  5
D02
330
C0B
100
AcDbEntity
  8
Defpoints
 62
     0
100
AcDbPoint
 10
1123.976477916388
 20
-1100.124497726859
 30
0.0
  0
POINT
  5
D03
330
C0B
100
AcDbEntity
  8
Defpoints
 62
     0
100
AcDbPoint
 10
855.9764779164247
 20
-1100.124497726859
 30
0.0
  0
ENDBLK
  5
C16
330
C0B
100
AcDbEntity
  8
0
100
AcDbBlockEnd
  0
BLOCK
  5
C21
330
C17
100
AcDbEntity
  8
0
100
AcDbBlockBegin
  2
*D45
 70
     1
 10
0.0
 20
0.0
 30
0.0
  3
*D45
  1

  0
LINE
  5
D04
330
C17
100
AcDbEntity
  8
标注
 62
     0
370
    -2
100
AcDbLine
 10
850.9764779164251
 20
-669.1244977268598
 30
0.0
 11
784.9764779164252
 21
-669.1244977268598
 31
0.0
  0
LINE
  5
D05
330
C17
100
AcDbEntity
  8
标注
 62
     0
370
    -2
100
AcDbLine
 10
850.9764779164251
 20
-1125.12449772686
 30
0.0
 11
784.9764779164252
 21
-1125.12449772686
 31
0.0
  0
LINE
  5
D06
330
C17
100
AcDbEntity
  8
标注
 62
     0
370
    -2
100
AcDbLine
 10
795.9764779164252
 20
-685.6244977268598
 30
0.0
 11
795.9764779164252
 21
-1108.62449772686
 31
0.0
  0
SOLID
  5
D07
330
C17
100
AcDbEntity
  8
标注
 62
     0
100
AcDbTrace
 10
798.7264779164251
 20
-685.6244977268598
 30
0.0
 11
793.2264779164252
 21
-685.6244977268598
 31
0.0
 12
795.9764779164252
 22
-669.1244977268598
 32
0.0
 13
795.9764779164252
 23
-669.1244977268598
 33
0.0
  0
SOLID
  5
D08
330
C17
100
AcDbEntity
  8
标注
 62
     0
100
AcDbTrace
 10
793.2264779164252
 20
-1108.62449772686
 30
0.0
 11
798.7264779164251
 21
-1108.62449772686
 31
0.0
 12
795.9764779164252
 22
-1125.12449772686
 32
0.0
 13
795.9764779164252
 23
-1125.12449772686
 33
0.0
  0
MTEXT
  5
D09
330
C17
100
AcDbEntity
  8
标注
 62
     0
100
AcDbMText
 10
773.9734052907269
 20
-897.12449772686
 30
0.0
 40
27.5
 41
0.0
 46
0.0
 71
     5
 72
     1
  1
\A1;456.0 [18"]
 11
0.0
 21
1.0
 31
0.0
 73
     1
 44
1.0
1001
ACAD
1000
MTEXTBEGIN
1070
    73
1070
     1
1070
    44
1040
1.0
1070
    74
1070
     0
1000
MTEXTEND
  0
POINT
  5
D0A
330
C17
100
AcDbEntity
  8
Defpoints
 62
     0
100
AcDbPoint
 10
978.4221095967511
 20
-669.1244977268598
 30
0.0
  0
POINT
  5
D0B
330
C17
100
AcDbEntity
  8
Defpoints
 62
     0
100
AcDbPoint
 10
978.4221095967509
 20
-1125.12449772686
 30
0.0
  0
POINT
  5
D0C
330
C17
100
AcDbEntity
  8
Defpoints
 62
     0
100
AcDbPoint
 10
795.9764779164252
 20
-1125.12449772686
 30
0.0
  0
ENDBLK
  5
C22
330
C17
100
AcDbEntity
  8
0
100
AcDbBlockEnd
  0
BLOCK
  5
C2D
330
C23
100
AcDbEntity
  8
0
100
AcDbBlockBegin
  2
*D46
 70
     1
 10
0.0
 20
0.0
 30
0.0
  3
*D46
  1

  0
LINE
  5
D0D
330
C23
100
AcDbEntity
  8
标注
 62
     0
370
    -2
100
AcDbLine
 10
1734.796031734767
 20
-1225.12449772686
 30
0.0
 11
1800.796031734767
 21
-1225.12449772686
 31
0.0
  0
LINE
  5
D0E
330
C23
100
AcDbEntity
  8
标注
 62
     0
370
    -2
100
AcDbLine
 10
1734.796031734767
 20
-1454.121980796431
 30
0.0
 11
1800.796031734767
 21
-1454.121980796431
 31
0.0
  0
LINE
  5
D0F
330
C23
100
AcDbEntity
  8
标注
 62
     0
370
    -2
100
AcDbLine
 10
1789.796031734767
 20
-1241.62449772686
 30
0.0
 11
1789.796031734767
 21
-1437.621980796431
 31
0.0
  0
SOLID
  5
D10
330
C23
100
AcDbEntity
  8
标注
 62
     0
100
AcDbTrace
 10
1792.546031734767
 20
-1241.62449772686
 30
0.0
 11
1787.046031734767
 21
-1241.62449772686
 31
0.0
 12
1789.796031734767
 22
-1225.12449772686
 32
0.0
 13
1789.796031734767
 23
-1225.12449772686
 33
0.0
  0
SOLID
  5
D11
330
C23
100
AcDbEntity
  8
标注
 62
     0
100
AcDbTrace
 10
1787.046031734767
 20
-1437.621980796431
 30
0.0
 11
1792.546031734767
 21
-1437.621980796431
 31
0.0
 12
1789.796031734767
 22
-1454.121980796431
 32
0.0
 13
1789.796031734767
 23
-1454.121980796431
 33
0.0
  0
MTEXT
  5
D12
330
C23
100
AcDbEntity
  8
标注
 62
     0
100
AcDbMText
 10
1767.792959109069
 20
-1339.623239261645
 30
0.0
 40
27.5
 41
0.0
 46
0.0
 71
     5
 72
     1
  1
\A1;229.0 [9"]
 11
0.0
 21
1.0
 31
0.0
 73
     1
 44
1.0
1001
ACAD
1000
MTEXTBEGIN
1070
    73
1070
     1
1070
    44
1040
1.0
1070
    74
1070
     0
1000
MTEXTEND
  0
POINT
  5
D13
330
C23
100
AcDbEntity
  8
Defpoints
 62
     0
100
AcDbPoint
 10
1711.796031734803
 20
-1225.12449772686
 30
0.0
  0
POINT
  5
D14
330
C23
100
AcDbEntity
  8
Defpoints
 62
     0
100
AcDbPoint
 10
1480.549146064978
 20
-1454.121980796431
 30
0.0
  0
POINT
  5
D15
330
C23
100
AcDbEntity
  8
Defpoints
 62
     0
100
AcDbPoint
 10
1789.796031734767
 20
-1454.121980796431
 30
0.0
  0
ENDBLK
  5
C2E
330
C23
100
AcDbEntity
  8
0
100
AcDbBlockEnd
  0
BLOCK
  5
C3A
330
C2F
100
AcDbEntity
  8
0
100
AcDbBlockBegin
  2
*D47
 70
     1
 10
0.0
 20
0.0
 30
0.0
  3
*D47
  1

  0
LINE
  5
D3E
330
C2F
100
AcDbEntity
  8
标注
 62
     0
370
    -2
100
AcDbLine
 10
858.7378986142057
 20
-1225.12449772686
 30
0.0
 11
792.7378986142057
 21
-1225.12449772686
 31
0.0
  0
LINE
  5
D3F
330
C2F
100
AcDbEntity
  8
标注
 62
     0
370
    -2
100
AcDbLine
 10
858.7378986142057
 20
-1403.124497726857
 30
0.0
 11
792.7378986142057
 21
-1403.124497726857
 31
0.0
  0
LINE
  5
D40
330
C2F
100
AcDbEntity
  8
标注
 62
     0
370
    -2
100
AcDbLine
 10
803.7378986142057
 20
-1241.624497726859
 30
0.0
 11
803.7378986142057
 21
-1386.624497726857
 31
0.0
  0
SOLID
  5
D41
330
C2F
100
AcDbEntity
  8
标注
 62
     0
100
AcDbTrace
 10
806.4878986142057
 20
-1241.624497726859
 30
0.0
 11
800.9878986142057
 21
-1241.624497726859
 31
0.0
 12
803.7378986142057
 22
-1225.12449772686
 32
0.0
 13
803.7378986142057
 23
-1225.12449772686
 33
0.0
  0
SOLID
  5
D42
330
C2F
100
AcDbEntity
  8
标注
 62
     0
100
AcDbTrace
 10
800.9878986142057
 20
-1386.624497726857
 30
0.0
 11
806.4878986142057
 21
-1386.624497726857
 31
0.0
 12
803.7378986142057
 22
-1403.124497726857
 32
0.0
 13
803.7378986142057
 23
-1403.124497726857
 33
0.0
  0
MTEXT
  5
D43
330
C2F
100
AcDbEntity
  8
标注
 62
     0
100
AcDbMText
 10
781.7348259885074
 20
-1314.124497726858
 30
0.0
 40
27.5
 41
0.0
 46
0.0
 71
     5
 72
     1
  1
\A1;178.0 [7"]
 11
0.0
 21
1.0
 31
0.0
 73
     1
 44
1.0
1001
ACAD
1000
MTEXTBEGIN
1070
    73
1070
     1
1070
    44
1040
1.0
1070
    74
1070
     0
1000
MTEXTEND
  0
POINT
  5
D44
330
C2F
100
AcDbEntity
  8
Defpoints
 62
     0
100
AcDbPoint
 10
896.7960317348033
 20
-1225.12449772686
 30
0.0
  0
POINT
  5
D45
330
C2F
100
AcDbEntity
  8
Defpoints
 62
     0
100
AcDbPoint
 10
1086.751270310639
 20
-1403.124497726857
 30
0.0
  0
POINT
  5
D46
330
C2F
100
AcDbEntity
  8
Defpoints
 62
     0
100
AcDbPoint
 10
803.7378986142057
 20
-1403.124497726857
 30
0.0
  0
ENDBLK
  5
C3B
330
C2F
100
AcDbEntity
  8
0
100
AcDbBlockEnd
  0
BLOCK
  5
C42
330
C3C
100
AcDbEntity
  8
0
100
AcDbBlockBegin
  2
*D48
 70
     1
 10
0.0
 20
0.0
 30
0.0
  3
*D48
  1

  0
LINE
  5
D2F
330
C3C
100
AcDbEntity
  8
标注
 62
     0
370
    -2
100
AcDbLine
 10
1023.371180731563
 20
-1319.040933342727
 30
0.0
 11
953.3170339967458
 21
-1369.075356736475
 31
0.0
  0
MTEXT
  5
D30
330
C3C
100
AcDbEntity
  8
标注
 62
     0
100
AcDbMText
 10
985.7172710094419
 20
-1322.288021630659
 30
0.0
 40
25.29999999999999
 41
0.0
 46
0.0
 71
     5
 72
     1
  1
R50
 11
0.8137568361376883
 21
0.5812054814256138
 31
0.0
 73
     1
 44
1.0
1001
ACAD
1000
MTEXTBEGIN
1070
    73
1070
     1
1070
    44
1040
1.0
1070
    74
1070
     0
1000
MTEXTEND
  0
SOLID
  5
D31
330
C3C
100
AcDbEntity
  8
标注
 62
     0
100
AcDbTrace
 10
951.7187189228254
 20
-1366.837525437096
 30
0.0
 11
954.9153490706663
 21
-1371.313188035854
 31
0.0
 12
939.8900462004739
 22
-1378.665247179998
 32
0.0
 13
939.8900462004739
 23
-1378.665247179998
 33
0.0
  0
POINT
  5
D32
330
C3C
100
AcDbEntity
  8
Defpoints
 62
     0
100
AcDbPoint
 10
939.8900462004739
 20
-1378.665247179998
 30
0.0
  0
POINT
  5
D33
330
C3C
100
AcDbEntity
  8
Defpoints
 62
     0
100
AcDbPoint
 10
980.5778880073548
 20
-1349.60497310872
 30
0.0
  0
ENDBLK
  5
C43
330
C3C
100
AcDbEntity
  8
0
100
AcDbBlockEnd
  0
BLOCK
  5
C4A
330
C44
100
AcDbEntity
  8
0
100
AcDbBlockBegin
  2
*D49
 70
     1
 10
0.0
 20
0.0
 30
0.0
  3
*D49
  1

  0
LINE
  5
D39
330
C44
100
AcDbEntity
  8
标注
 62
     0
370
    -2
100
AcDbLine
 10
1386.436230331643
 20
-1369.493347886697
 30
0.0
 11
1315.48679688646
 21
-1418.249936086622
 31
0.0
  0
MTEXT
  5
D3A
330
C44
100
AcDbEntity
  8
标注
 62
     0
100
AcDbMText
 10
1348.729656763032
 20
-1372.057487006603
 30
0.0
 40
25.29999999999999
 41
0.0
 46
0.0
 71
     5
 72
     1
  1
R50
 11
0.8241565871134003
 21
0.5663620043025415
 31
0.0
 73
     1
 44
1.0
1001
ACAD
1000
MTEXTBEGIN
1070
    73
1070
     1
1070
    44
1040
1.0
1070
    74
1070
     0
1000
MTEXTEND
  0
SOLID
  5
D3B
330
C44
100
AcDbEntity
  8
标注
 62
     0
100
AcDbTrace
 10
1313.929301374628
 20
-1415.98350547206
 30
0.0
 11
1317.044292398292
 21
-1420.516366701184
 31
0.0
 12
1301.888213199089
 22
-1427.594909157614
 32
0.0
 13
1301.888213199089
 23
-1427.594909157614
 33
0.0
  0
POINT
  5
D3C
330
C44
100
AcDbEntity
  8
Defpoints
 62
     0
100
AcDbPoint
 10
1301.888213199089
 20
-1427.594909157614
 30
0.0
  0
POINT
  5
D3D
330
C44
100
AcDbEntity
  8
Defpoints
 62
     0
100
AcDbPoint
 10
1343.096042554759
 20
-1399.276808942487
 30
0.0
  0
ENDBLK
  5
C4B
330
C44
100
AcDbEntity
  8
0
100
AcDbBlockEnd
  0
BLOCK
  5
F30
330
F25
100
AcDbEntity
  8
0
 62
     3
100
AcDbBlockBegin
  2
*D50
 70
     1
 10
0.0
 20
0.0
 30
0.0
  3
*D50
  1

  0
LINE
  5
F32
330
F25
100
AcDbEntity
  8
0
 62
     0
370
    -2
390
F27
100
AcDbLine
 10
5477.250313822048
 20
224.4216515593509
 30
0.0
 11
5477.250313822048
 21
241.0178129539947
 31
0.0
  0
LINE
  5
F33
330
F25
100
AcDbEntity
  8
0
 62
     0
370
    -2
390
F27
100
AcDbLine
 10
5623.250313822047
 20
224.4216515593509
 30
0.0
 11
5623.250313822047
 21
241.0178129539947
 31
0.0
  0
LINE
  5
F34
330
F25
100
AcDbEntity
  8
0
 62
     0
370
    -2
390
F27
100
AcDbLine
 10
5479.750313822048
 20
239.7678129539947
 30
0.0
 11
5620.750313822048
 21
239.7678129539947
 31
0.0
  0
SOLID
  5
F35
330
F25
100
AcDbEntity
  8
0
 62
     0
390
F27
100
AcDbTrace
 10
5479.750313822048
 20
240.1844796206614
 30
0.0
 11
5479.750313822048
 21
239.351146287328
 31
0.0
 12
5477.250313822048
 22
239.7678129539947
 32
0.0
 13
5477.250313822048
 23
239.7678129539947
 33
0.0
  0
SOLID
  5
F36
330
F25
100
AcDbEntity
  8
0
 62
     0
390
F27
100
AcDbTrace
 10
5620.750313822048
 20
239.351146287328
 30
0.0
 11
5620.750313822048
 21
240.1844796206614
 31
0.0
 12
5623.250313822047
 22
239.7678129539947
 32
0.0
 13
5623.250313822047
 23
239.7678129539947
 33
0.0
  0
MTEXT
  5
F37
330
F25
100
AcDbEntity
  8
0
 62
     0
390
F27
100
AcDbMText
 10
5550.250313822048
 20
241.6148799931008
 30
0.0
 40
2.5
 41
0.0
 46
0.0
 71
     5
 72
     1
  1
146
 73
     1
 44
1.0
1001
ACAD
1000
MTEXTBEGIN
1070
    73
1070
     1
1070
    44
1040
1.0
1070
    74
1070
     0
1000
MTEXTEND
  0
POINT
  5
F38
330
F25
100
AcDbEntity
  8
Defpoints
 62
     0
390
F27
100
AcDbPoint
 10
5477.250313822048
 20
223.7966515593509
 30
0.0
  0
POINT
  5
F39
330
F25
100
AcDbEntity
  8
Defpoints
 62
     0
390
F27
100
AcDbPoint
 10
5623.250313822047
 20
223.7966515593509
 30
0.0
  0
POINT
  5
F3A
330
F25
100
AcDbEntity
  8
Defpoints
 62
     0
390
F27
100
AcDbPoint
 10
5623.250313822047
 20
239.7678129539947
 30
0.0
  0
ENDBLK
  5
F31
330
F25
100
AcDbEntity
  8
0
 62
     3
100
AcDbBlockEnd
  0
BLOCK
  5
F4A
330
F3F
100
AcDbEntity
  8
0
 62
     6
100
AcDbBlockBegin
  2
*D51
 70
     1
 10
0.0
 20
0.0
 30
0.0
  3
*D51
  1

  0
LINE
  5
F55
330
F3F
100
AcDbEntity
  8
0
 62
     0
370
    -2
390
F56
100
AcDbLine
 10
5344.892050446254
 20
237.8423400118568
 30
0.0
 11
5344.892050446254
 21
245.3121537545872
 31
0.0
  0
LINE
  5
F57
330
F3F
100
AcDbEntity
  8
0
 62
     0
370
    -2
390
F56
100
AcDbLine
 10
5392.892050446255
 20
237.8423400118568
 30
0.0
 11
5392.892050446255
 21
245.3121537545872
 31
0.0
  0
LINE
  5
F58
330
F3F
100
AcDbEntity
  8
0
 62
     0
370
    -2
390
F56
100
AcDbLine
 10
5347.392050446255
 20
244.0621537545872
 30
0.0
 11
5390.392050446255
 21
244.0621537545872
 31
0.0
  0
SOLID
  5
F59
330
F3F
100
AcDbEntity
  8
0
 62
     0
390
F56
100
AcDbTrace
 10
5347.392050446255
 20
244.4788204212539
 30
0.0
 11
5347.392050446255
 21
243.6454870879205
 31
0.0
 12
5344.892050446254
 22
244.0621537545872
 32
0.0
 13
5344.892050446254
 23
244.0621537545872
 33
0.0
  0
SOLID
  5
F5A
330
F3F
100
AcDbEntity
  8
0
 62
     0
390
F56
100
AcDbTrace
 10
5390.392050446255
 20
243.6454870879205
 30
0.0
 11
5390.392050446255
 21
244.4788204212539
 31
0.0
 12
5392.892050446255
 22
244.0621537545872
 32
0.0
 13
5392.892050446255
 23
244.0621537545872
 33
0.0
  0
MTEXT
  5
F5B
330
F3F
100
AcDbEntity
  8
0
 62
     0
390
F56
100
AcDbMText
 10
5368.892050446255
 20
245.9092207936933
 30
0.0
 40
2.5
 41
0.0
 46
0.0
 71
     5
 72
     1
  1
48
 73
     1
 44
1.0
1001
ACAD
1000
MTEXTBEGIN
1070
    73
1070
     1
1070
    44
1040
1.0
1070
    74
1070
     0
1000
MTEXTEND
  0
POINT
  5
F5C
330
F3F
100
AcDbEntity
  8
Defpoints
 62
     0
390
F56
100
AcDbPoint
 10
5344.892050446254
 20
237.2173400118568
 30
0.0
  0
POINT
  5
F5D
330
F3F
100
AcDbEntity
  8
Defpoints
 62
     0
390
F56
100
AcDbPoint
 10
5392.892050446255
 20
237.2173400118568
 30
0.0
  0
POINT
  5
F5E
330
F3F
100
AcDbEntity
  8
Defpoints
 62
     0
390
F56
100
AcDbPoint
 10
5392.892050446255
 20
244.0621537545872
 30
0.0
  0
ENDBLK
  5
F4B
330
F3F
100
AcDbEntity
  8
0
 62
     6
100
AcDbBlockEnd
  0
BLOCK
  5
1241
330
123E
100
AcDbEntity
  8
0
100
AcDbBlockBegin
  2
A$C64DD58FE
 70
     0
 10
0.0
 20
0.0
 30
0.0
  3
A$C64DD58FE
  1

  0
LWPOLYLINE
  5
1242
330
123E
100
AcDbEntity
  8
图框
 62
     7
370
    25
100
AcDbPolyline
 90
        6
 70
     0
 43
0.0
 10
291.4842734710851
 20
204.7018565322879
 10
291.4842734710851
 20
7.200707451001193
 10
291.4842734710851
 20
204.7018565322879
 10
7.20070656115581
 20
204.7018565322879
 10
7.20070656115581
 20
7.200707451001193
 10
291.4842734710851
 20
7.200707451001193
  0
LINE
  5
1243
330
123E
100
AcDbEntity
  8
图框
 62
     7
370
    25
100
AcDbLine
 10
-0.0000005063930093
 20
211.9025635998367
 30
0.0
 11
-0.0000005063930093
 21
204.7018565322879
 31
0.0
  0
LINE
  5
1244
330
123E
100
AcDbEntity
  8
图框
 62
     7
370
    25
100
AcDbLine
 10
7.20070656115581
 20
211.9025635998367
 30
0.0
 11
-0.0000005063930093
 21
211.9025635998367
 31
0.0
  0
LINE
  5
1245
330
123E
100
AcDbEntity
  8
图框
 62
     7
370
    25
100
AcDbLine
 10
-0.0000005063930075
 20
0.0000003834524591
 30
0.0
 11
-0.0000005063930075
 21
7.200707451001193
 31
0.0
  0
LINE
  5
1246
330
123E
100
AcDbEntity
  8
图框
 62
     7
370
    25
100
AcDbLine
 10
7.200706561155811
 20
0.0000003834524591
 30
0.0
 11
-0.0000005063930075
 21
0.0000003834524591
 31
0.0
  0
LINE
  5
1247
330
123E
100
AcDbEntity
  8
图框
 62
     7
370
    25
100
AcDbLine
 10
298.6849805386339
 20
211.9025635998367
 30
0.0
 11
298.6849805386339
 21
204.7018565322879
 31
0.0
  0
LINE
  5
1248
330
123E
100
AcDbEntity
  8
图框
 62
     7
370
    25
100
AcDbLine
 10
291.4842734710851
 20
211.9025635998367
 30
0.0
 11
298.6849805386339
 21
211.9025635998367
 31
0.0
  0
LINE
  5
1249
330
123E
100
AcDbEntity
  8
图框
 62
     7
370
    25
100
AcDbLine
 10
298.6849805386339
 20
0.0000003834524591
 30
0.0
 11
298.6849805386339
 21
7.200707451001193
 31
0.0
  0
LINE
  5
124A
330
123E
100
AcDbEntity
  8
图框
 62
     7
370
    25
100
AcDbLine
 10
291.4842734710851
 20
0.0000003834524591
 30
0.0
 11
298.6849805386339
 21
0.0000003834524591
 31
0.0
  0
HATCH
  5
124B
330
123E
100
AcDbEntity
  8
图框
 62
     7
 48
2.0
370
    25
100
AcDbHatch
 10
0.0
 20
0.0
 30
0.0
210
0.0
220
0.0
230
1.0
  2
SOLID
 70
     1
 71
     0
 91
        6
 92
        7
 72
     1
 73
     1
 93
       11
 10
211.688823324102
 20
16.670512726655
 42
0.0
 10
211.0739181393059
 20
12.7702253374314
 42
0.0
 10
212.0902654764095
 20
12.7702253374314
 42
0.0
 10
212.2906470373278
 20
14.0412272649067
 42
0.0
 10
213.3009864206368
 20
14.0412272649067
 42
0.0526059682789531
 10
213.9574087547024
 20
14.12188147175992
 42
0.0931133797122515
 10
214.4892796409496
 20
14.39295880213958
 42
0.1870927308452952
 10
214.970041646957
 20
15.27830023920113
 42
0.1464954341921326
 10
214.9208605166476
 20
16.04001357396426
 42
0.201853768354043
 10
214.4474221491254
 20
16.53823197789447
 42
0.0897088380521066
 10
213.6929778968114
 20
16.670512726655
 42
0.0
 97
        0
 92
       22
 72
     1
 73
     1
 93
        8
 10
213.4650332312738
 20
15.76983240166673
 42
-0.0778487808658406
 10
213.731151682959
 20
15.73259877445109
 42
-0.3177589605132556
 10
213.8871164124943
 20
15.53806097156587
 42
-0.1499991004044121
 10
213.822043100373
 20
15.18491225445126
 42
-0.2235622073577406
 10
213.4862384796563
 20
14.95384941431735
 42
-0.0649053889362471
 10
213.2012136111698
 20
14.9334878742405
 42
0.0
 10
212.4313176136513
 20
14.9334878742405
 42
0.0
 10
212.5631726630035
 20
15.76983240166673
 42
0.0
 97
        0
 92
        7
 72
     1
 73
     1
 93
       19
 10
218.6023253383486
 20
15.78074022537136
 42
0.0
 10
218.7477857470462
 20
16.66452058639541
 42
0.0
 10
217.2549409414627
 20
16.66452058639541
 42
0.0252996923995391
 10
216.7950926453944
 20
16.62691191853072
 42
0.0939077938706688
 10
216.1176035146784
 20
16.37439266994253
 42
0.1812662691294423
 10
215.2687702808306
 20
15.14857089456836
 42
0.0648316800598133
 10
215.1194082137442
 20
14.12350604184052
 42
0.1689156506945501
 10
215.4657989789926
 20
13.17405149255922
 42
0.2118289747613281
 10
216.4451772530366
 20
12.76405441441682
 42
0.0
 10
218.1058124372681
 20
12.76405441441682
 42
0.0
 10
218.2509849615849
 20
13.64608566333625
 42
0.0
 10
216.7119952821261
 20
13.64608566333625
 42
-0.1328062462698949
 10
216.4041691473939
 20
13.72797230181349
 42
-0.2398607660355685
 10
216.2300714983268
 20
13.96913139373261
 42
-0.0700485998847137
 10
216.222772201424
 20
14.29659501743454
 42
0.0
 10
218.3580515594408
 20
14.29659501743454
 42
0.0
 10
218.5037443095077
 20
15.18178702538816
 42
0.0
 10
216.3901630278578
 20
15.18178702538875
 42
-0.3789343119641536
 10
217.1602369992616
 20
15.78074022537076
 42
0.0
 97
        0
 92
        7
 72
     1
 73
     1
 93
       19
 10
220.8584175747851
 20
16.66452058639541
 42
0.0252996924000095
 10
220.3985692787082
 20
16.62691191852959
 42
0.0939077938697973
 10
219.7210801479989
 20
16.37439266994253
 42
0.1812662691376246
 10
218.8722469141347
 20
15.14857089450311
 42
0.0648316800594869
 10
218.7228848470657
 20
14.12350604177794
 42
0.1689156506840911
 10
219.0692756123132
 20
13.17405149255922
 42
0.2118289747613335
 10
220.0486538863571
 20
12.76405441441682
 42
0.0
 10
221.7092890705886
 20
12.76405441441682
 42
0.0
 10
221.8544615949054
 20
13.64608566333625
 42
0.0
 10
220.3154719154486
 20
13.64608566333625
 42
-0.132806246262597
 10
220.0076457807316
 20
13.72797230180475
 42
-0.2398607660517056
 10
219.8335481316471
 20
13.96913139373341
 42
-0.0700485998845358
 10
219.8262488347446
 20
14.29659501743454
 42
0.0
 10
221.9615281927632
 20
14.29659501743454
 42
0.0
 10
222.1072209428283
 20
15.18178702538816
 42
0.0
 10
219.9936396611802
 20
15.18178702538875
 42
-0.3789343119641538
 10
220.763713632584
 20
15.78074022537076
 42
0.0
 10
222.2058019716711
 20
15.78074022537136
 42
0.0
 10
222.3512623803686
 20
16.66452058639541
 42
0.0
 97
        0
 92
        7
 72
     1
 73
     1
 93
        8
 10
222.9213822985411
 20
16.67184743878324
 42
0.0
 10
222.2905428304911
 20
12.76904669572866
 42
0.0
 10
224.3978516591268
 20
12.76904669572866
 42
0.1464490096050931
 10
225.3037827788458
 20
13.04112141250986
 42
0.1643226419710838
 10
226.0384182586811
 20
13.88272418110624
 42
0.1071070729013668
 10
226.2862477507879
 20
15.38134018547314
 42
0.2222361588251873
 10
225.8349946488092
 20
16.35720377214687
 42
0.1449155111699273
 10
224.8467206827092
 20
16.67184743878324
 42
0.0
 97
        0
 92
       22
 72
     1
 73
     1
 93
        9
 10
223.7962272520117
 20
15.78866076339287
 42
0.0
 10
224.6888120209026
 20
15.78866076339228
 42
-0.1687734909131058
 10
225.0936615699655
 20
15.65347971563102
 42
-0.1664672560178
 10
225.1938359853231
 20
15.45747171164273
 42
-0.0685866171018183
 10
225.1983350261728
 20
14.9416510789536
 42
-0.0717373944122886
 10
225.0221553757159
 20
14.15508581574989
 42
-0.1949146159060197
 10
224.7071541571332
 20
13.74479774138705
 42
-0.119585394590416
 10
224.3243813398369
 20
13.64636454245461
 42
0.0
 10
223.4499515650416
 20
13.64636454245461
 42
0.0
 97
        0
 75
     0
 76
     1
 47
0.2560755718704768
 98
        6
 10
212.8039708929917
 20
16.37618637174613
 10
212.8039708929917
 20
16.37618637174613
 10
217.9952616444424
 20
16.18794914327617
 10
221.0723383712515
 20
16.22978181761653
 10
223.7307801024689
 20
16.31343736023439
 10
223.7307801024689
 20
16.31343736023439
1001
ACAD
1010
0.0
1020
0.0
1030
0.0
  0
LINE
  5
124C
330
123E
100
AcDbEntity
  8
图框
 62
     7
 48
2.0
370
    25
100
AcDbLine
 10
211.0739181393059
 20
12.7702253374314
 30
0.0
 11
211.688823324102
 21
16.67051272665501
 31
0.0
  0
LINE
  5
124D
330
123E
100
AcDbEntity
  8
图框
 62
     7
 48
2.0
370
    25
100
AcDbLine
 10
211.688823324102
 20
16.67051272665501
 30
0.0
 11
213.6929778968249
 21
16.67051272665501
 31
0.0
  0
LINE
  5
124E
330
123E
100
AcDbEntity
  8
图框
 62
     7
 48
2.0
370
    25
100
AcDbLine
 10
211.0739181393059
 20
12.7702253374314
 30
0.0
 11
212.0902654764095
 21
12.7702253374314
 31
0.0
  0
LINE
  5
124F
330
123E
100
AcDbEntity
  8
图框
 62
     7
 48
2.0
370
    25
100
AcDbLine
 10
212.0902654764095
 20
12.7702253374314
 30
0.0
 11
212.2906470373278
 21
14.0412272649073
 31
0.0
  0
LINE
  5
1250
330
123E
100
AcDbEntity
  8
图框
 62
     7
 48
2.0
370
    25
100
AcDbLine
 10
212.4313176136513
 20
14.93348787423991
 30
0.0
 11
212.5631726630035
 21
15.76983240166673
 31
0.0
  0
LINE
  5
1251
330
123E
100
AcDbEntity
  8
图框
 62
     7
 48
2.0
370
    25
100
AcDbLine
 10
212.2906470373278
 20
14.0412272649067
 30
0.0
 11
213.3009864206314
 21
14.0412272649067
 31
0.0
  0
LINE
  5
1252
330
123E
100
AcDbEntity
  8
图框
 62
     7
 48
2.0
370
    25
100
AcDbLine
 10
212.5631726630035
 20
15.76983240166673
 30
0.0
 11
213.465033231284
 21
15.76983240166673
 31
0.0
  0
LINE
  5
1253
330
123E
100
AcDbEntity
  8
图框
 62
     7
 48
2.0
370
    25
100
AcDbLine
 10
212.4313176136513
 20
14.9334878742405
 30
0.0
 11
213.201213611171
 21
14.9334878742405
 31
0.0
  0
ARC
  5
1254
330
123E
100
AcDbEntity
  8
图框
 62
     7
 48
2.0
370
    25
100
AcDbCircle
 10
213.7045275902064
 20
14.51881215011276
 30
0.0
 40
2.151731573990989
100
AcDbArc
 50
69.80268059885441
 51
90.30754387348521
  0
ARC
  5
1255
330
123E
100
AcDbEntity
  8
图框
 62
     7
 48
2.0
370
    25
100
AcDbCircle
 10
214.0922295160306
 20
15.72665105252712
 30
0.0
 40
0.885903722209678
100
AcDbArc
 50
20.71506194959071
 51
66.36315775155319
  0
ARC
  5
1256
330
123E
100
AcDbEntity
  8
图框
 62
     7
 48
2.0
370
    25
100
AcDbCircle
 10
213.6734553437699
 20
15.57702865007183
 30
0.0
 40
1.33055428490298
100
AcDbArc
 50
347.0256834346209
 51
20.36283164047821
  0
ARC
  5
1257
330
123E
100
AcDbEntity
  8
图框
 62
     7
 48
2.0
370
    25
100
AcDbCircle
 10
213.588045980396
 20
15.45555414270188
 30
0.0
 40
1.393316535716019
100
AcDbArc
 50
310.3027372585805
 51
352.6911825113954
  0
ARC
  5
1258
330
123E
100
AcDbEntity
  8
图框
 62
     7
 48
2.0
370
    25
100
AcDbCircle
 10
213.5018392346123
 20
15.67305855894094
 30
0.0
 40
1.616692284706791
100
AcDbArc
 50
286.3671331217579
 51
307.6457933074104
  0
ARC
  5
1259
330
123E
100
AcDbEntity
  8
图框
 62
     7
 48
2.0
370
    25
100
AcDbCircle
 10
213.2469643163862
 20
17.19244549085108
 30
0.0
 40
3.151681248995794
100
AcDbArc
 50
270.9821393455971
 51
283.0274360363258
  0
ARC
  5
125A
330
123E
100
AcDbEntity
  8
图框
 62
     7
 48
2.0
370
    25
100
AcDbCircle
 10
213.265628667231
 20
16.03689120315744
 30
0.0
 40
1.105281957562104
100
AcDbArc
 50
266.658949094959
 51
281.5133328234026
  0
ARC
  5
125B
330
123E
100
AcDbEntity
  8
图框
 62
     7
 48
2.0
370
    25
100
AcDbCircle
 10
213.4086673846642
 20
15.42612839159426
 30
0.0
 40
0.4786070487947508
100
AcDbArc
 50
279.3274612472337
 51
329.7352590226471
  0
ARC
  5
125C
330
123E
100
AcDbEntity
  8
图框
 62
     7
 48
2.0
370
    25
100
AcDbCircle
 10
213.2792380287903
 20
15.46750254908558
 30
0.0
 40
0.6119596558250605
100
AcDbArc
 50
332.4980185212114
 51
6.62087932404015
  0
ARC
  5
125D
330
123E
100
AcDbEntity
  8
图框
 62
     7
 48
2.0
370
    25
100
AcDbCircle
 10
213.671533542785
 20
15.52501287950448
 30
0.0
 40
0.2159773747839745
100
AcDbArc
 50
3.463585619237829
 51
73.97606924070894
  0
ARC
  5
125E
330
123E
100
AcDbEntity
  8
图框
 62
     7
 48
2.0
370
    25
100
AcDbCircle
 10
213.4792467445927
 20
14.90179426192728
 30
0.0
 40
0.8681545000765657
100
AcDbArc
 50
73.13238003653828
 51
90.93809421112544
  0
LINE
  5
125F
330
123E
100
AcDbEntity
  8
图框
 62
     7
 48
2.0
370
    25
100
AcDbLine
 10
218.7477857470462
 20
16.66452058639542
 30
0.0
 11
218.6023253383486
 21
15.78074022537136
 31
0.0
  0
LINE
  5
1260
330
123E
100
AcDbEntity
  8
图框
 62
     7
 48
2.0
370
    25
100
AcDbLine
 10
218.5037443095077
 20
15.18178702538816
 30
0.0
 11
218.3580515594408
 21
14.29659501743454
 31
0.0
  0
LINE
  5
1261
330
123E
100
AcDbEntity
  8
图框
 62
     7
 48
2.0
370
    25
100
AcDbLine
 10
218.2509849615849
 20
13.64608566333626
 30
0.0
 11
218.1058124372681
 21
12.76405441441683
 31
0.0
  0
LINE
  5
1262
330
123E
100
AcDbEntity
  8
图框
 62
     7
 48
2.0
370
    25
100
AcDbLine
 10
218.1058124372681
 20
12.76405441441683
 30
0.0
 11
216.4451772530368
 21
12.76405441441683
 31
0.0
  0
ARC
  5
1263
330
123E
100
AcDbEntity
  8
图框
 62
     7
 48
2.0
370
    25
100
AcDbCircle
 10
216.4176532762895
 20
14.07304744789764
 30
0.0
 40
1.309282372522167
100
AcDbArc
 50
223.364087269964
 51
271.2045712325319
  0
ARC
  5
1264
330
123E
100
AcDbEntity
  8
图框
 62
     7
 48
2.0
370
    25
100
AcDbCircle
 10
216.6577290840936
 20
14.14681931343875
 30
0.0
 40
1.538497516665139
100
AcDbArc
 50
180.8682517724997
 51
219.2188556288523
  0
ARC
  5
1265
330
123E
100
AcDbEntity
  8
图框
 62
     7
 48
2.0
370
    25
100
AcDbCircle
 10
219.1302681099697
 20
14.06249835531525
 30
0.0
 40
4.011323851917858
100
AcDbArc
 50
164.2909811630626
 51
179.128562575989
  0
ARC
  5
1266
330
123E
100
AcDbEntity
  8
图框
 62
     7
 48
2.0
370
    25
100
AcDbCircle
 10
217.3282737657073
 20
14.62924861294112
 30
0.0
 40
2.123970394429624
100
AcDbArc
 50
124.7504597171388
 51
165.8473922898371
  0
ARC
  5
1267
330
123E
100
AcDbEntity
  8
图框
 62
     7
 48
2.0
370
    25
100
AcDbCircle
 10
217.1226728689674
 20
14.71295569466573
 30
0.0
 40
1.941787122665014
100
AcDbArc
 50
99.71226494621896
 51
121.1714132069203
  0
ARC
  5
1268
330
123E
100
AcDbEntity
  8
图框
 62
     7
 48
2.0
370
    25
100
AcDbCircle
 10
217.3964105926525
 20
12.10461401619626
 30
0.0
 40
4.562100567847375
100
AcDbArc
 50
91.7770133412042
 51
97.57403909927564
  0
LINE
  5
1269
330
123E
100
AcDbEntity
  8
图框
 62
     7
 48
2.0
370
    25
100
AcDbLine
 10
218.7477857470462
 20
16.66452058639542
 30
0.0
 11
217.2549409414634
 21
16.66452058639542
 31
0.0
  0
LINE
  5
126A
330
123E
100
AcDbEntity
  8
图框
 62
     7
 48
2.0
370
    25
100
AcDbLine
 10
216.3901630278583
 20
15.18178702538875
 30
0.0
 11
218.5037443095077
 21
15.18178702538875
 31
0.0
  0
LINE
  5
126B
330
123E
100
AcDbEntity
  8
图框
 62
     7
 48
2.0
370
    25
100
AcDbLine
 10
218.6023253383486
 20
15.78074022537136
 30
0.0
 11
217.1602369992623
 21
15.78074022537136
 31
0.0
  0
ARC
  5
126C
330
123E
100
AcDbEntity
  8
图框
 62
     7
 48
2.0
370
    25
100
AcDbCircle
 10
217.1136153849053
 20
15.0461630716067
 30
0.0
 40
0.7360551404326352
100
AcDbArc
 50
86.3684635149897
 51
169.3821322029414
  0
LINE
  5
126D
330
123E
100
AcDbEntity
  8
图框
 62
     7
 48
2.0
370
    25
100
AcDbLine
 10
216.2227722014231
 20
14.29659501743454
 30
0.0
 11
218.3580515594408
 21
14.29659501743454
 31
0.0
  0
ARC
  5
126E
330
123E
100
AcDbEntity
  8
图框
 62
     7
 48
2.0
370
    25
100
AcDbCircle
 10
216.7095102635689
 20
14.25627338949688
 30
0.0
 40
0.6101927863178258
100
AcDbArc
 50
239.9734626353128
 51
269.7666615058888
  0
LINE
  5
126F
330
123E
100
AcDbEntity
  8
图框
 62
     7
 48
2.0
370
    25
100
AcDbLine
 10
216.7070252450645
 20
13.64608566333626
 30
0.0
 11
218.2509849615849
 21
13.64608566333626
 31
0.0
  0
ARC
  5
1270
330
123E
100
AcDbEntity
  8
图框
 62
     7
 48
2.0
370
    25
100
AcDbCircle
 10
216.5540123795768
 20
14.01956903741649
 30
0.0
 40
0.3278439422123278
100
AcDbArc
 50
190.0731089977302
 51
242.8026632985777
  0
ARC
  5
1271
330
123E
100
AcDbEntity
  8
图框
 62
     7
 48
2.0
370
    25
100
AcDbCircle
 10
217.3893887887274
 20
14.15878621003454
 30
0.0
 40
1.17472785323586
100
AcDbArc
 50
173.2630468468333
 51
189.6321897365534
  0
LINE
  5
1272
330
123E
100
AcDbEntity
  8
图框
 62
     7
 48
2.0
370
    25
100
AcDbLine
 10
222.3512623803686
 20
16.66452058639542
 30
0.0
 11
222.2058019716711
 21
15.78074022537136
 31
0.0
  0
LINE
  5
1273
330
123E
100
AcDbEntity
  8
图框
 62
     7
 48
2.0
370
    25
100
AcDbLine
 10
222.1072209428283
 20
15.18178702538816
 30
0.0
 11
221.9615281927632
 21
14.29659501743454
 31
0.0
  0
LINE
  5
1274
330
123E
100
AcDbEntity
  8
图框
 62
     7
 48
2.0
370
    25
100
AcDbLine
 10
221.8544615949054
 20
13.64608566333626
 30
0.0
 11
221.7092890705886
 21
12.76405441441683
 31
0.0
  0
LINE
  5
1275
330
123E
100
AcDbEntity
  8
图框
 62
     7
 48
2.0
370
    25
100
AcDbLine
 10
221.7092890705886
 20
12.76405441441683
 30
0.0
 11
220.0486538863573
 21
12.76405441441683
 31
0.0
  0
ARC
  5
1276
330
123E
100
AcDbEntity
  8
图框
 62
     7
 48
2.0
370
    25
100
AcDbCircle
 10
220.0211299096101
 20
14.07304744789764
 30
0.0
 40
1.309282372522167
100
AcDbArc
 50
223.364087269964
 51
271.2045712325319
  0
ARC
  5
1277
330
123E
100
AcDbEntity
  8
图框
 62
     7
 48
2.0
370
    25
100
AcDbCircle
 10
220.2612057174142
 20
14.14681931343875
 30
0.0
 40
1.538497516665139
100
AcDbArc
 50
180.8682517724997
 51
219.2188556288523
  0
ARC
  5
1278
330
123E
100
AcDbEntity
  8
图框
 62
     7
 48
2.0
370
    25
100
AcDbCircle
 10
222.7337447432922
 20
14.06249835531525
 30
0.0
 40
4.011323851917858
100
AcDbArc
 50
164.2909811630626
 51
179.128562575989
  0
ARC
  5
1279
330
123E
100
AcDbEntity
  8
图框
 62
     7
 48
2.0
370
    25
100
AcDbCircle
 10
220.7261495022879
 20
14.71295569466573
 30
0.0
 40
1.941787122665014
100
AcDbArc
 50
99.71226494621896
 51
121.1714132069203
  0
ARC
  5
127A
330
123E
100
AcDbEntity
  8
图框
 62
     7
 48
2.0
370
    25
100
AcDbCircle
 10
220.9998872259749
 20
12.10461401619626
 30
0.0
 40
4.562100567847375
100
AcDbArc
 50
91.7770133412042
 51
97.57403909927564
  0
LINE
  5
127B
330
123E
100
AcDbEntity
  8
图框
 62
     7
 48
2.0
370
    25
100
AcDbLine
 10
222.3512623803686
 20
16.66452058639542
 30
0.0
 11
220.8584175747859
 21
16.66452058639542
 31
0.0
  0
LINE
  5
127C
330
123E
100
AcDbEntity
  8
图框
 62
     7
 48
2.0
370
    25
100
AcDbLine
 10
219.9936396611788
 20
15.18178702538875
 30
0.0
 11
222.1072209428283
 21
15.18178702538875
 31
0.0
  0
LINE
  5
127D
330
123E
100
AcDbEntity
  8
图框
 62
     7
 48
2.0
370
    25
100
AcDbLine
 10
222.2058019716711
 20
15.78074022537136
 30
0.0
 11
220.7637136325828
 21
15.78074022537136
 31
0.0
  0
ARC
  5
127E
330
123E
100
AcDbEntity
  8
图框
 62
     7
 48
2.0
370
    25
100
AcDbCircle
 10
220.7170920182278
 20
15.0461630716067
 30
0.0
 40
0.7360551404326352
100
AcDbArc
 50
86.3684635149897
 51
169.3821322029414
  0
LINE
  5
127F
330
123E
100
AcDbEntity
  8
图框
 62
     7
 48
2.0
370
    25
100
AcDbLine
 10
219.8262488347456
 20
14.29659501743454
 30
0.0
 11
221.9615281927632
 21
14.29659501743454
 31
0.0
  0
ARC
  5
1280
330
123E
100
AcDbEntity
  8
图框
 62
     7
 48
2.0
370
    25
100
AcDbCircle
 10
220.3129868968914
 20
14.25627338949688
 30
0.0
 40
0.6101927863178258
100
AcDbArc
 50
239.9734626353128
 51
269.7666615058888
  0
LINE
  5
1281
330
123E
100
AcDbEntity
  8
图框
 62
     7
 48
2.0
370
    25
100
AcDbLine
 10
220.3105018783851
 20
13.64608566333626
 30
0.0
 11
221.8544615949054
 21
13.64608566333626
 31
0.0
  0
ARC
  5
1282
330
123E
100
AcDbEntity
  8
图框
 62
     7
 48
2.0
370
    25
100
AcDbCircle
 10
220.1574890128973
 20
14.01956903741649
 30
0.0
 40
0.3278439422123278
100
AcDbArc
 50
190.0731089977302
 51
242.8026632985777
  0
ARC
  5
1283
330
123E
100
AcDbEntity
  8
图框
 62
     7
 48
2.0
370
    25
100
AcDbCircle
 10
220.992865422048
 20
14.15878621003454
 30
0.0
 40
1.17472785323586
100
AcDbArc
 50
173.2630468468333
 51
189.6321897365534
  0
LINE
  5
1284
330
123E
100
AcDbEntity
  8
图框
 62
     7
 48
2.0
370
    25
100
AcDbLine
 10
222.2905428304911
 20
12.76904669572866
 30
0.0
 11
222.9213822985411
 21
16.67184743878324
 31
0.0
  0
LINE
  5
1285
330
123E
100
AcDbEntity
  8
图框
 62
     7
 48
2.0
370
    25
100
AcDbLine
 10
222.9213822985411
 20
16.67184743878324
 30
0.0
 11
224.8467206827096
 21
16.67184743878324
 31
0.0
  0
LINE
  5
1286
330
123E
100
AcDbEntity
  8
图框
 62
     7
 48
2.0
370
    25
100
AcDbLine
 10
222.2905428304911
 20
12.76904669572866
 30
0.0
 11
224.3947993510885
 21
12.76904669572866
 31
0.0
  0
LINE
  5
1287
330
123E
100
AcDbEntity
  8
图框
 62
     7
 48
2.0
370
    25
100
AcDbLine
 10
223.4499515650416
 20
13.64636454245461
 30
0.0
 11
223.7962272520117
 21
15.78866076339287
 31
0.0
  0
LINE
  5
1288
330
123E
100
AcDbEntity
  8
图框
 62
     7
 48
2.0
370
    25
100
AcDbLine
 10
223.4499515650416
 20
13.64636454245461
 30
0.0
 11
224.3243813398869
 21
13.64636454245461
 31
0.0
  0
LINE
  5
1289
330
123E
100
AcDbEntity
  8
图框
 62
     7
 48
2.0
370
    25
100
AcDbLine
 10
223.7962272520117
 20
15.78866076339287
 30
0.0
 11
224.6888120208679
 21
15.78866076339287
 31
0.0
  0
ARC
  5
128A
330
123E
100
AcDbEntity
  8
图框
 62
     7
 48
2.0
370
    25
100
AcDbCircle
 10
224.8094514896081
 20
14.84541560897559
 30
0.0
 40
1.826812037865126
100
AcDbArc
 50
55.84843112705228
 51
88.83101513387938
  0
ARC
  5
128B
330
123E
100
AcDbEntity
  8
图框
 62
     7
 48
2.0
370
    25
100
AcDbCircle
 10
225.0170615553635
 20
15.38671526383292
 30
0.0
 40
1.269197577260139
100
AcDbArc
 50
359.7573504473653
 51
49.87562500155732
  0
ARC
  5
128C
330
123E
100
AcDbEntity
  8
图框
 62
     7
 48
2.0
370
    25
100
AcDbCircle
 10
222.7045221577631
 20
15.20385812369625
 30
0.0
 40
3.58612020238874
100
AcDbArc
 50
338.3829002978954
 51
2.836806464266706
  0
ARC
  5
128D
330
123E
100
AcDbEntity
  8
图框
 62
     7
 48
2.0
370
    25
100
AcDbCircle
 10
224.4252620585712
 20
14.54941581507235
 30
0.0
 40
1.74549438863405
100
AcDbArc
 50
300.2190762788206
 51
337.5454755874373
  0
ARC
  5
128E
330
123E
100
AcDbEntity
  8
图框
 62
     7
 48
2.0
370
    25
100
AcDbCircle
 10
224.3963255053716
 20
14.41841168664992
 30
0.0
 40
1.64936569699444
100
AcDbArc
 50
269.9469843392521
 51
303.3797475786871
  0
ARC
  5
128F
330
123E
100
AcDbEntity
  8
图框
 62
     7
 48
2.0
370
    25
100
AcDbCircle
 10
224.6967001954021
 20
15.13845857830967
 30
0.0
 40
0.6502500325129725
100
AcDbArc
 50
52.37614507390483
 51
90.69507139092996
  0
ARC
  5
1290
330
123E
100
AcDbEntity
  8
图框
 62
     7
 48
2.0
370
    25
100
AcDbCircle
 10
224.8575418041681
 20
15.40920303264502
 30
0.0
 40
0.3397405504954689
100
AcDbArc
 50
8.167942285560105
 51
45.9727632737098
  0
ARC
  5
1291
330
123E
100
AcDbEntity
  8
图框
 62
     7
 48
2.0
370
    25
100
AcDbCircle
 10
223.3247505057814
 20
15.18323941809384
 30
0.0
 40
1.88909604855312
100
AcDbArc
 50
352.6525689248956
 51
8.346885152675875
  0
ARC
  5
1292
330
123E
100
AcDbEntity
  8
图框
 62
     7
 48
2.0
370
    25
100
AcDbCircle
 10
222.3832246380511
 20
15.15918302566424
 30
0.0
 40
2.823502549166494
100
AcDbArc
 50
339.1684822712075
 51
355.5813655839521
  0
ARC
  5
1293
330
123E
100
AcDbEntity
  8
图框
 62
     7
 48
2.0
370
    25
100
AcDbCircle
 10
224.3584067767359
 20
14.33861681842829
 30
0.0
 40
0.6886550889901974
100
AcDbArc
 50
300.4255322651138
 51
344.5435162207626
  0
ARC
  5
1294
330
123E
100
AcDbEntity
  8
图框
 62
     7
 48
2.0
370
    25
100
AcDbCircle
 10
224.3129303976018
 20
14.48434575683316
 30
0.0
 40
0.8380594488038497
100
AcDbArc
 50
270.7828932446879
 51
298.0603106127404
  0
HATCH
  5
1295
330
123E
100
AcDbEntity
  8
图框
 62
     7
 48
2.0
370
    25
100
AcDbHatch
 10
0.0
 20
0.0
 30
0.0
210
0.0
220
0.0
230
1.0
  2
SOLID
 70
     1
 71
     1
 91
       15
 92
        7
 72
     1
 73
     1
 93
        8
 10
206.6322677241098
 20
17.57623766784236
 42
0.3683842839059281
 10
206.3096868348983
 20
17.30125284854944
 42
0.0
 10
205.6442303658914
 20
13.15037226439101
 42
0.4615777333331137
 10
205.9668112551029
 20
12.7719570836836
 42
0.0
 10
210.1704475877489
 20
12.77195708368301
 42
0.3683842839060195
 10
210.4930284769594
 20
13.04694190297497
 42
0.0
 10
211.1584849459667
 20
17.1978224871365
 42
0.4615777333331878
 10
210.8359040567558
 20
17.57623766784296
 42
0.0
 97
        1
330
1296
 92
       22
 72
     1
 73
     1
 93
        4
 10
208.8079853089918
 20
16.74989758438907
 42
0.0
 10
210.9212391423614
 20
16.74989758438907
 42
0.0
 10
210.8411383736292
 20
16.25025750093816
 42
0.0
 10
208.5785885440918
 20
16.25025750093816
 42
-0.2041143824047703
 97
        4
330
12BA
330
1298
330
12B8
330
12C9
 92
       22
 72
     1
 73
     1
 93
        5
 10
208.9940122092765
 20
16.91324758438729
 42
-0.0869183080132769
 10
210.0073194920003
 20
17.41288766784296
 42
0.0
 10
210.8359040567564
 20
17.41288766784296
 42
-0.4615777333329322
 10
210.9971945013617
 20
17.22368007748997
 42
0.0
 10
210.9474269143318
 20
16.91324758438907
 42
0.0
 97
        3
330
12CA
330
1297
330
12BC
 92
       22
 72
     1
 73
     1
 93
        5
 10
207.6068721026296
 20
16.91324758438907
 42
0.0
 10
206.4129188730097
 20
16.91324758438907
 42
0.0
 10
206.4709772795052
 20
17.27539525819634
 42
-0.3683842839061904
 10
206.6322677241104
 20
17.41288766784237
 42
0.0
 10
208.3263582112413
 20
17.41288766784237
 42
0.0997971991786382
 97
        3
330
12BB
330
12A4
330
12BD
 92
       22
 72
     1
 73
     1
 93
        4
 10
208.5957572243081
 20
16.08690750093817
 42
0.0
 10
210.8149506016587
 20
16.08690750093817
 42
0.0
 10
210.7348498329265
 20
15.58726741748725
 42
0.0
 10
208.8069031205322
 20
15.58726741748725
 42
-0.0863965868712523
 97
        4
330
12B6
330
1299
330
12B4
330
12C8
 92
       22
 72
     1
 73
     1
 93
        4
 10
207.479422177457
 20
16.7498975843889
 42
0.1364123597185061
 10
207.303327141336
 20
16.25025750093816
 42
0.0
 10
206.306630332307
 20
16.25025750093816
 42
0.0
 10
206.3867311010373
 20
16.74989758438907
 42
0.0
 97
        4
330
12BE
330
12B7
330
12A3
330
12B9
 92
       22
 72
     1
 73
     1
 93
        4
 10
207.3064518104869
 20
16.08690750093836
 42
0.0871633389418112
 10
207.4504092437667
 20
15.58726741748725
 42
0.0
 10
206.2003417916044
 20
15.58726741748725
 42
0.0
 10
206.2804425603347
 20
16.08690750093817
 42
0.0
 97
        4
330
12BF
330
12B3
330
12A2
330
12B5
 92
       22
 72
     1
 73
     1
 93
        4
 10
208.9162746001405
 20
15.42391741748725
 42
0.0
 10
210.7086620609561
 20
15.42391741748725
 42
0.0
 10
210.6285612922239
 20
14.92427733403634
 42
0.0
 10
209.2676083999458
 20
14.92427733403634
 42
0.0231348396495453
 97
        4
330
12B2
330
129A
330
12B0
330
12C7
 92
       22
 72
     1
 73
     1
 93
        4
 10
207.5380557623452
 20
15.42391741748838
 42
0.0231347354905128
 10
207.8893896964145
 20
14.92427733403634
 42
0.0
 10
206.0940532509017
 20
14.92427733403634
 42
0.0
 10
206.1741540196339
 20
15.42391741748725
 42
0.0
 97
        4
330
12C0
330
12AF
330
12A1
330
12B1
 92
       22
 72
     1
 73
     1
 93
        4
 10
207.998761147357
 20
14.76092733403772
 42
-0.0863974137151232
 10
208.2099059900994
 20
14.26128725058543
 42
0.0
 10
205.9877647101991
 20
14.26128725058543
 42
0.0
 10
206.0678654789313
 20
14.76092733403634
 42
0.0
 97
        4
330
12C1
330
12AB
330
12A0
330
12AD
 92
       22
 72
     1
 73
     1
 93
        4
 10
209.3552550237563
 20
14.76092733403634
 42
0.0
 10
210.6023735202554
 20
14.76092733403634
 42
0.0
 10
210.5222727515213
 20
14.26128725058543
 42
0.0
 10
209.5023337011819
 20
14.26128725058543
 42
0.0812622371887477
 97
        4
330
12AE
330
129B
330
12AC
330
12C6
 92
       22
 72
     1
 73
     1
 93
        4
 10
208.2270745008792
 20
14.09793725058568
 42
-0.2025073207011897
 10
207.9987611473564
 20
13.59829716713452
 42
0.0
 10
205.8814761694965
 20
13.59829716713452
 42
0.0
 10
205.9615769382287
 20
14.09793725058543
 42
0.0
 97
        4
330
12C2
330
12A7
330
129F
330
12A9
 92
       22
 72
     1
 73
     1
 93
        4
 10
209.502333701182
 20
14.09793725058543
 42
0.0
 10
210.4960849795527
 20
14.09793725058543
 42
0.0
 10
210.4159842108187
 20
13.59829716713452
 42
0.0
 10
209.3262690402145
 20
13.59829716713452
 42
0.1363982367517204
 97
        4
330
12AA
330
129C
330
12A8
330
12C5
 92
       22
 72
     1
 73
     1
 93
        5
 10
207.8116615297656
 20
13.4349471671365
 42
-0.0870905069851636
 10
206.7973618643682
 20
12.9353070836836
 42
0.0
 10
205.9668112551024
 20
12.9353070836836
 42
-0.4615777333333858
 10
205.8055208104963
 20
13.12451467403777
 42
0.0
 10
205.8552883975261
 20
13.43494716713452
 42
0.0
 97
        3
330
12C3
330
129E
330
12A5
 92
       22
 72
     1
 73
     1
 93
        5
 10
209.1988106813169
 20
13.43494716713452
 42
0.0
 10
210.3897964388502
 20
13.43494716713452
 42
0.0
 10
210.3317380323546
 20
13.07279949332909
 42
-0.3683842839059502
 10
210.1704475877492
 20
12.935307083683
 42
0.0
 10
208.4779802996811
 20
12.935307083683
 42
0.1001393499443966
 97
        3
330
12A6
330
129D
330
12C4
 75
     0
 76
     1
 47
0.1639037111405958
 98
       15
 10
208.4778443571528
 20
16.85489781260853
 10
208.4778443571528
 20
16.85489781260853
 10
208.4778443571528
 20
16.85489781260853
 10
208.4778443571528
 20
16.85489781260853
 10
208.4778443571528
 20
16.85489781260853
 10
208.4778443571528
 20
16.85489781260853
 10
208.4778443571528
 20
16.85489781260853
 10
208.4778443571528
 20
16.85489781260853
 10
208.4778443571528
 20
16.85489781260853
 10
208.4778443571528
 20
16.85489781260853
 10
208.4778443571528
 20
16.85489781260853
 10
208.4778443571528
 20
16.85489781260853
 10
208.4778443571528
 20
16.85489781260853
 10
208.4778443571528
 20
16.85489781260853
 10
208.4778443571528
 20
16.85489781260853
1001
ACAD
1010
0.0
1020
0.0
1030
0.0
  0
LWPOLYLINE
  5
1296
102
{ACAD_REACTORS
330
1295
102
}
330
123E
100
AcDbEntity
  8
图框
 62
     7
 48
2.0
370
    25
100
AcDbPolyline
 90
        8
 70
     1
 43
0.0
 10
206.3096868348984
 20
17.3012528485496
 42
-0.3683842839060217
 10
206.6322677241101
 20
17.57623766784236
 10
210.8359040567567
 20
17.57623766784236
 42
-0.4615777333331171
 10
211.1584849459665
 20
17.19782248713572
 10
210.4930284769595
 20
13.04694190297577
 42
-0.3683842839060294
 10
210.1704475877497
 20
12.77195708368301
 10
205.966811255103
 20
12.77195708368301
 42
-0.4615777333331176
 10
205.6442303658913
 20
13.15037226439084
  0
LWPOLYLINE
  5
1297
102
{ACAD_REACTORS
330
1295
102
}
330
123E
100
AcDbEntity
  8
图框
 62
     7
 48
2.0
370
    25
100
AcDbPolyline
 90
        4
 70
     0
 43
0.0
 10
210.0073194919997
 20
17.41288766784296
 10
210.8359040567567
 20
17.41288766784296
 42
-0.4615777333336207
 10
210.9971945013616
 20
17.22368007748934
 10
210.9474269143318
 20
16.91324758438907
  0
LWPOLYLINE
  5
1298
102
{ACAD_REACTORS
330
1295
102
}
330
123E
100
AcDbEntity
  8
图框
 62
     7
 48
2.0
370
    25
100
AcDbPolyline
 90
        2
 70
     0
 43
0.0
 10
210.9212391423614
 20
16.74989758438907
 10
210.8411383736292
 20
16.25025750093816
  0
LWPOLYLINE
  5
1299
102
{ACAD_REACTORS
330
1295
102
}
330
123E
100
AcDbEntity
  8
图框
 62
     7
 48
2.0
370
    25
100
AcDbPolyline
 90
        2
 70
     0
 43
0.0
 10
210.8149506016587
 20
16.08690750093817
 10
210.7348498329265
 20
15.58726741748725
  0
LWPOLYLINE
  5
129A
102
{ACAD_REACTORS
330
1295
102
}
330
123E
100
AcDbEntity
  8
图框
 62
     7
 48
2.0
370
    25
100
AcDbPolyline
 90
        2
 70
     0
 43
0.0
 10
210.7086620609561
 20
15.42391741748725
 10
210.6285612922239
 20
14.92427733403634
  0
LWPOLYLINE
  5
129B
102
{ACAD_REACTORS
330
1295
102
}
330
123E
100
AcDbEntity
  8
图框
 62
     7
 48
2.0
370
    25
100
AcDbPolyline
 90
        2
 70
     0
 43
0.0
 10
210.6023735202554
 20
14.76092733403634
 10
210.5222727515213
 20
14.26128725058543
  0
LWPOLYLINE
  5
129C
102
{ACAD_REACTORS
330
1295
102
}
330
123E
100
AcDbEntity
  8
图框
 62
     7
 48
2.0
370
    25
100
AcDbPolyline
 90
        2
 70
     0
 43
0.0
 10
210.4960849795527
 20
14.09793725058543
 10
210.4159842108187
 20
13.59829716713452
  0
LWPOLYLINE
  5
129D
102
{ACAD_REACTORS
330
1295
102
}
330
123E
100
AcDbEntity
  8
图框
 62
     7
 48
2.0
370
    25
100
AcDbPolyline
 90
        4
 70
     0
 43
0.0
 10
210.3897964388502
 20
13.43494716713452
 10
210.3317380323546
 20
13.07279949332939
 42
-0.3683842839056389
 10
210.1704475877497
 20
12.935307083683
 10
208.4779802996781
 20
12.935307083683
  0
LWPOLYLINE
  5
129E
102
{ACAD_REACTORS
330
1295
102
}
330
123E
100
AcDbEntity
  8
图框
 62
     7
 48
2.0
370
    25
100
AcDbPolyline
 90
        4
 70
     0
 43
0.0
 10
206.7973618643698
 20
12.9353070836836
 10
205.966811255103
 20
12.9353070836836
 42
-0.4615777333336219
 10
205.8055208104963
 20
13.12451467403722
 10
205.8552883975261
 20
13.43494716713452
  0
LWPOLYLINE
  5
129F
102
{ACAD_REACTORS
330
1295
102
}
330
123E
100
AcDbEntity
  8
图框
 62
     7
 48
2.0
370
    25
100
AcDbPolyline
 90
        2
 70
     0
 43
0.0
 10
205.8814761694965
 20
13.59829716713452
 10
205.9615769382287
 20
14.09793725058543
  0
LWPOLYLINE
  5
12A0
102
{ACAD_REACTORS
330
1295
102
}
330
123E
100
AcDbEntity
  8
图框
 62
     7
 48
2.0
370
    25
100
AcDbPolyline
 90
        2
 70
     0
 43
0.0
 10
205.9877647101991
 20
14.26128725058543
 10
206.0678654789313
 20
14.76092733403634
  0
LWPOLYLINE
  5
12A1
102
{ACAD_REACTORS
330
1295
102
}
330
123E
100
AcDbEntity
  8
图框
 62
     7
 48
2.0
370
    25
100
AcDbPolyline
 90
        2
 70
     0
 43
0.0
 10
206.0940532509017
 20
14.92427733403634
 10
206.1741540196339
 20
15.42391741748725
  0
LWPOLYLINE
  5
12A2
102
{ACAD_REACTORS
330
1295
102
}
330
123E
100
AcDbEntity
  8
图框
 62
     7
 48
2.0
370
    25
100
AcDbPolyline
 90
        2
 70
     0
 43
0.0
 10
206.2003417916044
 20
15.58726741748725
 10
206.2804425603347
 20
16.08690750093817
  0
LWPOLYLINE
  5
12A3
102
{ACAD_REACTORS
330
1295
102
}
330
123E
100
AcDbEntity
  8
图框
 62
     7
 48
2.0
370
    25
100
AcDbPolyline
 90
        2
 70
     0
 43
0.0
 10
206.306630332307
 20
16.25025750093816
 10
206.3867311010373
 20
16.74989758438907
  0
LWPOLYLINE
  5
12A4
102
{ACAD_REACTORS
330
1295
102
}
330
123E
100
AcDbEntity
  8
图框
 62
     7
 48
2.0
370
    25
100
AcDbPolyline
 90
        4
 70
     0
 43
0.0
 10
206.4129188730097
 20
16.91324758438907
 10
206.4709772795052
 20
17.27539525819598
 42
-0.3683842839063045
 10
206.6322677241101
 20
17.41288766784237
 10
208.3263582112423
 20
17.41288766784237
  0
LINE
  5
12A5
102
{ACAD_REACTORS
330
1295
102
}
330
123E
100
AcDbEntity
  8
图框
 62
     7
 48
2.0
370
    25
100
AcDbLine
 10
205.8552883975261
 20
13.43494716713452
 30
0.0
 11
207.8116615297652
 21
13.43494716713452
 31
0.0
  0
LINE
  5
12A6
102
{ACAD_REACTORS
330
1295
102
}
330
123E
100
AcDbEntity
  8
图框
 62
     7
 48
2.0
370
    25
100
AcDbLine
 10
209.1988106813032
 20
13.43494716713452
 30
0.0
 11
210.3897964388502
 21
13.43494716713452
 31
0.0
  0
LINE
  5
12A7
102
{ACAD_REACTORS
330
1295
102
}
330
123E
100
AcDbEntity
  8
图框
 62
     7
 48
2.0
370
    25
100
AcDbLine
 10
205.8814761694965
 20
13.59829716713452
 30
0.0
 11
207.9976919774829
 21
13.59829716713452
 31
0.0
  0
LINE
  5
12A8
102
{ACAD_REACTORS
330
1295
102
}
330
123E
100
AcDbEntity
  8
图框
 62
     7
 48
2.0
370
    25
100
AcDbLine
 10
209.3262690402133
 20
13.59829716713452
 30
0.0
 11
210.4159842108187
 21
13.59829716713452
 31
0.0
  0
LINE
  5
12A9
102
{ACAD_REACTORS
330
1295
102
}
330
123E
100
AcDbEntity
  8
图框
 62
     7
 48
2.0
370
    25
100
AcDbLine
 10
205.9615769382287
 20
14.09793725058543
 30
0.0
 11
208.2270745008804
 21
14.09793725058543
 31
0.0
  0
LINE
  5
12AA
102
{ACAD_REACTORS
330
1295
102
}
330
123E
100
AcDbEntity
  8
图框
 62
     7
 48
2.0
370
    25
100
AcDbLine
 10
209.502333701182
 20
14.09793725058543
 30
0.0
 11
210.4960849795527
 21
14.09793725058543
 31
0.0
  0
LINE
  5
12AB
102
{ACAD_REACTORS
330
1295
102
}
330
123E
100
AcDbEntity
  8
图框
 62
     7
 48
2.0
370
    25
100
AcDbLine
 10
205.9877647101991
 20
14.26128725058543
 30
0.0
 11
208.2099059900969
 21
14.26128725058543
 31
0.0
  0
LINE
  5
12AC
102
{ACAD_REACTORS
330
1295
102
}
330
123E
100
AcDbEntity
  8
图框
 62
     7
 48
2.0
370
    25
100
AcDbLine
 10
209.4992092927312
 20
14.26128725058543
 30
0.0
 11
210.5222727515213
 21
14.26128725058543
 31
0.0
  0
LINE
  5
12AD
102
{ACAD_REACTORS
330
1295
102
}
330
123E
100
AcDbEntity
  8
图框
 62
     7
 48
2.0
370
    25
100
AcDbLine
 10
206.0678654789313
 20
14.76092733403634
 30
0.0
 11
207.9987611473567
 21
14.76092733403634
 31
0.0
  0
LINE
  5
12AE
102
{ACAD_REACTORS
330
1295
102
}
330
123E
100
AcDbEntity
  8
图框
 62
     7
 48
2.0
370
    25
100
AcDbLine
 10
209.3552550237599
 20
14.76092733403634
 30
0.0
 11
210.6023735202554
 21
14.76092733403634
 31
0.0
  0
LINE
  5
12AF
102
{ACAD_REACTORS
330
1295
102
}
330
123E
100
AcDbEntity
  8
图框
 62
     7
 48
2.0
370
    25
100
AcDbLine
 10
206.0940532509017
 20
14.92427733403634
 30
0.0
 11
207.8893896964116
 21
14.92427733403634
 31
0.0
  0
LINE
  5
12B0
102
{ACAD_REACTORS
330
1295
102
}
330
123E
100
AcDbEntity
  8
图框
 62
     7
 48
2.0
370
    25
100
AcDbLine
 10
209.2676083999458
 20
14.92427733403634
 30
0.0
 11
210.6285612922239
 21
14.92427733403634
 31
0.0
  0
LINE
  5
12B1
102
{ACAD_REACTORS
330
1295
102
}
330
123E
100
AcDbEntity
  8
图框
 62
     7
 48
2.0
370
    25
100
AcDbLine
 10
206.1741540196339
 20
15.42391741748725
 30
0.0
 11
207.5380557623445
 21
15.42391741748725
 31
0.0
  0
LINE
  5
12B2
102
{ACAD_REACTORS
330
1295
102
}
330
123E
100
AcDbEntity
  8
图框
 62
     7
 48
2.0
370
    25
100
AcDbLine
 10
208.9162746001405
 20
15.42391741748725
 30
0.0
 11
210.7086620609561
 21
15.42391741748725
 31
0.0
  0
LINE
  5
12B3
102
{ACAD_REACTORS
330
1295
102
}
330
123E
100
AcDbEntity
  8
图框
 62
     7
 48
2.0
370
    25
100
AcDbLine
 10
206.2003417916044
 20
15.58726741748725
 30
0.0
 11
207.4504092437656
 21
15.58726741748725
 31
0.0
  0
LINE
  5
12B4
102
{ACAD_REACTORS
330
1295
102
}
330
123E
100
AcDbEntity
  8
图框
 62
     7
 48
2.0
370
    25
100
AcDbLine
 10
208.80690312053
 20
15.58726741748725
 30
0.0
 11
210.7348498329265
 21
15.58726741748725
 31
0.0
  0
LINE
  5
12B5
102
{ACAD_REACTORS
330
1295
102
}
330
123E
100
AcDbEntity
  8
图框
 62
     7
 48
2.0
370
    25
100
AcDbLine
 10
206.2804425603347
 20
16.08690750093817
 30
0.0
 11
207.3064518104867
 21
16.08690750093817
 31
0.0
  0
LINE
  5
12B6
102
{ACAD_REACTORS
330
1295
102
}
330
123E
100
AcDbEntity
  8
图框
 62
     7
 48
2.0
370
    25
100
AcDbLine
 10
208.5957572243074
 20
16.08690750093817
 30
0.0
 11
210.8149506016587
 21
16.08690750093817
 31
0.0
  0
LINE
  5
12B7
102
{ACAD_REACTORS
330
1295
102
}
330
123E
100
AcDbEntity
  8
图框
 62
     7
 48
2.0
370
    25
100
AcDbLine
 10
206.306630332307
 20
16.25025750093816
 30
0.0
 11
207.3033271413357
 21
16.25025750093816
 31
0.0
  0
LINE
  5
12B8
102
{ACAD_REACTORS
330
1295
102
}
330
123E
100
AcDbEntity
  8
图框
 62
     7
 48
2.0
370
    25
100
AcDbLine
 10
208.5785885440912
 20
16.25025750093816
 30
0.0
 11
210.8411383736292
 21
16.25025750093816
 31
0.0
  0
LINE
  5
12B9
102
{ACAD_REACTORS
330
1295
102
}
330
123E
100
AcDbEntity
  8
图框
 62
     7
 48
2.0
370
    25
100
AcDbLine
 10
206.3867311010373
 20
16.74989758438907
 30
0.0
 11
207.4794221774586
 21
16.74989758438907
 31
0.0
  0
LINE
  5
12BA
102
{ACAD_REACTORS
330
1295
102
}
330
123E
100
AcDbEntity
  8
图框
 62
     7
 48
2.0
370
    25
100
AcDbLine
 10
208.8079853089902
 20
16.74989758438907
 30
0.0
 11
210.9212391423614
 21
16.74989758438907
 31
0.0
  0
LINE
  5
12BB
102
{ACAD_REACTORS
330
1295
102
}
330
123E
100
AcDbEntity
  8
图框
 62
     7
 48
2.0
370
    25
100
AcDbLine
 10
206.4129188730097
 20
16.91324758438907
 30
0.0
 11
207.6068721026296
 21
16.91324758438907
 31
0.0
  0
LINE
  5
12BC
102
{ACAD_REACTORS
330
1295
102
}
330
123E
100
AcDbEntity
  8
图框
 62
     7
 48
2.0
370
    25
100
AcDbLine
 10
208.994012209278
 20
16.91324758438907
 30
0.0
 11
210.9474269143318
 21
16.91324758438907
 31
0.0
  0
ARC
  5
12BD
102
{ACAD_REACTORS
330
1295
102
}
330
123E
100
AcDbEntity
  8
图框
 62
     7
 48
2.0
370
    25
100
AcDbCircle
 10
209.2057880285806
 20
15.37864780704308
 30
0.0
 40
2.21619688089531
100
AcDbArc
 50
113.3794909943001
 51
136.175844279555
  0
ARC
  5
12BE
102
{ACAD_REACTORS
330
1295
102
}
330
123E
100
AcDbEntity
  8
图框
 62
     7
 48
2.0
370
    25
100
AcDbCircle
 10
208.290015031807
 20
16.18335733929933
 30
0.0
 40
0.9889532975977616
100
AcDbArc
 50
145.049498064244
 51
176.1211247842591
  0
ARC
  5
12BF
102
{ACAD_REACTORS
330
1295
102
}
330
123E
100
AcDbEntity
  8
图框
 62
     7
 48
2.0
370
    25
100
AcDbCircle
 10
208.8005998132344
 20
16.24684609727736
 30
0.0
 40
1.502683801973349
100
AcDbArc
 50
186.1098664466419
 51
206.0358718158479
  0
ARC
  5
12C0
102
{ACAD_REACTORS
330
1295
102
}
330
123E
100
AcDbEntity
  8
图框
 62
     7
 48
2.0
370
    25
100
AcDbCircle
 10
213.1100743355697
 20
18.96867171480362
 30
0.0
 40
6.603989249589498
100
AcDbArc
 50
212.4633186211672
 51
217.7644638180745
  0
ARC
  5
12C1
102
{ACAD_REACTORS
330
1295
102
}
330
123E
100
AcDbEntity
  8
图框
 62
     7
 48
2.0
370
    25
100
AcDbCircle
 10
206.6693643602143
 20
13.90469808314983
 30
0.0
 40
1.581273014928606
100
AcDbArc
 50
13.03273181281425
 51
32.78451211735273
  0
ARC
  5
12C2
102
{ACAD_REACTORS
330
1295
102
}
330
123E
100
AcDbEntity
  8
图框
 62
     7
 48
2.0
370
    25
100
AcDbCircle
 10
207.5213957075118
 20
14.118416575541
 30
0.0
 40
0.705975893468811
100
AcDbArc
 50
312.5457035566776
 51
358.3377003013433
  0
ARC
  5
12C3
102
{ACAD_REACTORS
330
1295
102
}
330
123E
100
AcDbEntity
  8
图框
 62
     7
 48
2.0
370
    25
100
AcDbCircle
 10
205.8811348782443
 20
16.0746683749609
 30
0.0
 40
3.270330443131396
100
AcDbArc
 50
286.2699588132488
 51
306.1793980816477
  0
ARC
  5
12C4
102
{ACAD_REACTORS
330
1295
102
}
330
123E
100
AcDbEntity
  8
图框
 62
     7
 48
2.0
370
    25
100
AcDbCircle
 10
207.6035418884069
 20
14.96664951066429
 30
0.0
 40
2.2115593120615
100
AcDbArc
 50
293.290580929962
 51
316.1645734935568
  0
ARC
  5
12C5
102
{ACAD_REACTORS
330
1295
102
}
330
123E
100
AcDbEntity
  8
图框
 62
     7
 48
2.0
370
    25
100
AcDbCircle
 10
208.5155644227485
 20
14.16481681179732
 30
0.0
 40
0.9890331059016576
100
AcDbArc
 50
325.0541853075716
 51
356.1226344065661
  0
ARC
  5
12C6
102
{ACAD_REACTORS
330
1295
102
}
330
123E
100
AcDbEntity
  8
图框
 62
     7
 48
2.0
370
    25
100
AcDbCircle
 10
207.9018222357081
 20
14.06161365017076
 30
0.0
 40
1.612918627152507
100
AcDbArc
 50
7.111257614418327
 51
25.69435747901148
  0
ARC
  5
12C7
102
{ACAD_REACTORS
330
1295
102
}
330
123E
100
AcDbEntity
  8
图框
 62
     7
 48
2.0
370
    25
100
AcDbCircle
 10
203.6956142156642
 20
11.37954158927153
 30
0.0
 40
6.603958713520337
100
AcDbArc
 50
32.46329638872526
 51
37.76446544486753
  0
ARC
  5
12C8
102
{ACAD_REACTORS
330
1295
102
}
330
123E
100
AcDbEntity
  8
图框
 62
     7
 48
2.0
370
    25
100
AcDbCircle
 10
210.1363133206237
 20
16.44350558483616
 30
0.0
 40
1.581289119463131
100
AcDbArc
 50
193.0329283609821
 51
212.7845205722476
  0
ARC
  5
12C9
102
{ACAD_REACTORS
330
1295
102
}
330
123E
100
AcDbEntity
  8
图框
 62
     7
 48
2.0
370
    25
100
AcDbCircle
 10
209.2797518933239
 20
16.2308173880783
 30
0.0
 40
0.7014327910031282
100
AcDbArc
 50
132.2661638817097
 51
178.4118520323965
  0
ARC
  5
12CA
102
{ACAD_REACTORS
330
1295
102
}
330
123E
100
AcDbEntity
  8
图框
 62
     7
 48
2.0
370
    25
100
AcDbCircle
 10
210.9269056663649
 20
14.27054710976528
 30
0.0
 40
3.27413239118738
100
AcDbArc
 50
106.3117823257126
 51
126.1820529946861
  0
MTEXT
  5
12CB
330
123E
100
AcDbEntity
  8
图框
 62
     7
370
    25
100
AcDbMText
 10
229.2113520658075
 20
17.45920674019415
 30
0.0
 40
3.5
 41
24.91108461248405
 46
0.0
 71
     1
 72
     5
  1
{\fSTXingkai|b0|i0|c134|p2;实达}
  7
样式 1
 73
     1
 44
1.0
1001
ACAD
1000
ACAD_MTEXT_COLUMN_INFO_BEGIN
1070
    75
1070
     2
1070
    79
1070
     0
1070
    76
1070
     1
1070
    78
1070
     0
1070
    48
1040
24.91108461248405
1070
    49
1040
15.0
1070
    50
1070
     1
1040
4.558397498057844
1000
ACAD_MTEXT_COLUMN_INFO_END
1000
MTEXTBEGIN
1070
    73
1070
     1
1070
    44
1040
1.0
1070
    74
1070
     0
1000
MTEXTEND
  0
MTEXT
  5
12CC
330
123E
100
AcDbEntity
  8
图框
 62
     7
370
    25
100
AcDbMText
 10
203.2189479059436
 20
12.03084088784112
 30
0.0
 40
1.8
 41
48.89428655814345
 46
0.0
 71
     1
 72
     5
  1
{\fArial|b0|i1|c238|p34;Specialized\fArial|b0|i1|c0|p34; \fArial|b0|i1|c238|p34;in\fArial|b0|i1|c0|p34; \fArial|b0|i1|c238|p34;handmade\fArial|b0|i1|c0|p34; \fArial|b0|i1|c238|p34;Kitchen\fArial|b0|i1|c0|p34; \fArial|b0|i1|c238|p34;Sink}
  7
样式 1
 73
     1
 44
1.0
1001
ACAD
1000
ACAD_MTEXT_COLUMN_INFO_BEGIN
1070
    75
1070
     2
1070
    79
1070
     0
1070
    76
1070
     1
1070
    78
1070
     0
1070
    48
1040
48.89428655814345
1070
    49
1040
15.0
1070
    50
1070
     1
1040
2.530627340047162
1000
ACAD_MTEXT_COLUMN_INFO_END
1000
MTEXTBEGIN
1070
    73
1070
     1
1070
    44
1040
1.0
1070
    74
1070
     0
1000
MTEXTEND
  0
LINE
  5
12CD
330
123E
100
AcDbEntity
  8
图框
 62
     7
370
    25
100
AcDbLine
 10
291.4842734710851
 20
7.200707451001193
 30
0.0
 11
241.4842734710851
 21
7.200707451001193
 31
0.0
  0
LINE
  5
12CE
330
123E
100
AcDbEntity
  8
图框
 62
     7
370
    25
100
AcDbLine
 10
246.4842734710852
 20
7.2007074510012
 30
0.0
 11
246.4842734710852
 21
29.7007074510012
 31
0.0
  0
LINE
  5
12CF
330
123E
100
AcDbEntity
  8
图框
 62
     7
370
    25
100
AcDbLine
 10
246.4842734710852
 20
29.7007074510012
 30
0.0
 11
291.4842734710851
 21
29.7007074510012
 31
0.0
  0
LINE
  5
12D0
330
123E
100
AcDbEntity
  8
图框
 62
     7
370
    25
100
AcDbLine
 10
246.4842734710852
 20
29.7007074510012
 30
0.0
 11
201.4842734710851
 21
29.7007074510012
 31
0.0
  0
LINE
  5
12D1
330
123E
100
AcDbEntity
  8
图框
 62
     7
370
    25
100
AcDbLine
 10
201.4842734710851
 20
35.3257074510012
 30
0.0
 11
201.4842734710851
 21
7.2007074510012
 31
0.0
  0
LINE
  5
12D2
330
123E
100
AcDbEntity
  8
图框
 62
     7
370
    25
100
AcDbLine
 10
291.4842734710851
 20
18.4507074510012
 30
0.0
 11
201.4842734710851
 21
18.4507074510012
 31
0.0
  0
LINE
  5
12D3
330
123E
100
AcDbEntity
  8
图框
 62
     7
370
    25
100
AcDbLine
 10
246.4842734710852
 20
35.3257074510012
 30
0.0
 11
246.4842734710852
 21
18.4507074510012
 31
0.0
  0
LINE
  5
12D4
330
123E
100
AcDbEntity
  8
图框
 62
     7
370
    25
100
AcDbLine
 10
246.4842734710852
 20
18.4507074510012
 30
0.0
 11
246.4842734710852
 21
7.2007074510012
 31
0.0
  0
LINE
  5
12D5
330
123E
100
AcDbEntity
  8
图框
 62
     7
370
    25
100
AcDbLine
 10
246.4842734710852
 20
24.0757074510012
 30
0.0
 11
291.4842734710851
 21
24.0757074510012
 31
0.0
  0
LINE
  5
12D6
330
123E
100
AcDbEntity
  8
图框
 62
     7
370
    25
100
AcDbLine
 10
246.4842734710852
 20
12.52759628022923
 30
0.0
 11
291.4842734710851
 21
12.52759628022923
 31
0.0
  0
LINE
  5
12D7
330
123E
100
AcDbEntity
  8
图框
 62
     7
370
    25
100
AcDbLine
 10
246.4842734710852
 20
24.0757074510012
 30
0.0
 11
201.4842734710851
 21
24.0757074510012
 31
0.0
  0
LINE
  5
12D8
330
123E
100
AcDbEntity
  8
图框
 62
     7
370
    25
100
AcDbLine
 10
219.4842734710852
 20
35.3257074510012
 30
0.0
 11
219.4842734710852
 21
18.4507074510012
 31
0.0
  0
LINE
  5
12D9
330
123E
100
AcDbEntity
  8
图框
 62
     7
370
    25
100
AcDbLine
 10
264.4842734710851
 20
35.3257074510012
 30
0.0
 11
264.4842734710851
 21
7.2007074510012
 31
0.0
  0
MTEXT
  5
12DA
330
123E
100
AcDbEntity
  8
图框
 62
     7
370
    25
100
AcDbMText
 10
248.9980961666919
 20
28.22013466875489
 30
0.0
 40
1.8
 41
4.994896984571823
 46
0.0
 71
     1
 72
     5
  1
{\f@Lingoes Unicode|b0|i0|c238|p34;\C0;NAME}
  7
样式 1
 73
     1
 44
1.0
1001
ACAD
1000
ACAD_MTEXT_COLUMN_INFO_BEGIN
1070
    75
1070
     2
1070
    79
1070
     0
1070
    76
1070
     1
1070
    78
1070
     0
1070
    48
1040
4.994896984571823
1070
    49
1040
15.0
1070
    50
1070
     1
1040
0.0
1000
ACAD_MTEXT_COLUMN_INFO_END
1000
MTEXTBEGIN
1070
    73
1070
     1
1070
    44
1040
1.0
1070
    74
1070
     0
1000
MTEXTEND
  0
MTEXT
  5
12DB
330
123E
100
AcDbEntity
  8
图框
 62
     7
370
    25
100
AcDbMText
 10
248.9980961666919
 20
22.59513466875489
 30
0.0
 40
1.8
 41
4.994896984571823
 46
0.0
 71
     1
 72
     5
  1
{\f@Lingoes Unicode|b0|i0|c134|p34;\C0;MODEL}
  7
样式 1
 73
     1
 44
1.0
1001
ACAD
1000
ACAD_MTEXT_COLUMN_INFO_BEGIN
1070
    75
1070
     2
1070
    79
1070
     0
1070
    76
1070
     1
1070
    78
1070
     0
1070
    48
1040
4.994896984571823
1070
    49
1040
15.0
1070
    50
1070
     1
1040
0.0
1000
ACAD_MTEXT_COLUMN_INFO_END
1000
MTEXTBEGIN
1070
    73
1070
     1
1070
    44
1040
1.0
1070
    74
1070
     0
1000
MTEXTEND
  0
MTEXT
  5
12DC
330
123E
100
AcDbEntity
  8
图框
 62
     7
370
    25
100
AcDbMText
 10
248.9980961666919
 20
16.97013466875489
 30
0.0
 40
1.8
 41
4.994896984571823
 46
0.0
 71
     1
 72
     5
  1
{\f@Lingoes Unicode|b0|i0|c134|p34;\C0;MATERIAL}
  7
样式 1
 73
     1
 44
1.0
1001
ACAD
1000
ACAD_MTEXT_COLUMN_INFO_BEGIN
1070
    75
1070
     2
1070
    79
1070
     0
1070
    76
1070
     1
1070
    78
1070
     0
1070
    48
1040
4.994896984571823
1070
    49
1040
15.0
1070
    50
1070
     1
1040
0.0
1000
ACAD_MTEXT_COLUMN_INFO_END
1000
MTEXTBEGIN
1070
    73
1070
     1
1070
    44
1040
1.0
1070
    74
1070
     0
1000
MTEXTEND
  0
MTEXT
  5
12DD
330
123E
100
AcDbEntity
  8
图框
 62
     7
370
    25
100
AcDbMText
 10
248.9980961666919
 20
11.34513466875489
 30
0.0
 40
1.8
 41
4.994896984571823
 46
0.0
 71
     1
 72
     5
  1
{\f@Lingoes Unicode|b0|i0|c134|p34;\C0;THICKNESS}
  7
样式 1
 73
     1
 44
1.0
1001
ACAD
1000
ACAD_MTEXT_COLUMN_INFO_BEGIN
1070
    75
1070
     2
1070
    79
1070
     0
1070
    76
1070
     1
1070
    78
1070
     0
1070
    48
1040
4.994896984571823
1070
    49
1040
15.0
1070
    50
1070
     1
1040
0.0
1000
ACAD_MTEXT_COLUMN_INFO_END
1000
MTEXTBEGIN
1070
    73
1070
     1
1070
    44
1040
1.0
1070
    74
1070
     0
1000
MTEXTEND
  0
MTEXT
  5
12DE
330
123E
100
AcDbEntity
  8
图框
 62
     7
370
    25
100
AcDbMText
 10
203.9980961666919
 20
22.59513466875489
 30
0.0
 40
1.8
 41
17.50517454311011
 46
0.0
 71
     1
 72
     5
  1
{\f@Lingoes Unicode|b0|i0|c134|p34;\C0;DRAWN BY }
  7
样式 1
 73
     1
 44
1.0
1001
ACAD
1000
ACAD_MTEXT_COLUMN_INFO_BEGIN
1070
    75
1070
     2
1070
    79
1070
     0
1070
    76
1070
     1
1070
    78
1070
     0
1070
    48
1040
17.50517454311011
1070
    49
1040
15.0
1070
    50
1070
     1
1040
0.0
1000
ACAD_MTEXT_COLUMN_INFO_END
1000
MTEXTBEGIN
1070
    73
1070
     1
1070
    44
1040
1.0
1070
    74
1070
     0
1000
MTEXTEND
  0
LINE
  5
12DF
330
123E
100
AcDbEntity
  8
图框
 62
     7
370
    25
100
AcDbLine
 10
246.4842734710852
 20
35.3257074510012
 30
0.0
 11
291.4842734710851
 21
35.3257074510012
 31
0.0
  0
LINE
  5
12E0
330
123E
100
AcDbEntity
  8
图框
 62
     7
370
    25
100
AcDbLine
 10
246.4842734710852
 20
35.3257074510012
 30
0.0
 11
201.4842734710851
 21
35.3257074510012
 31
0.0
  0
MTEXT
  5
12E1
330
123E
100
AcDbEntity
  8
图框
 62
     7
370
    25
100
AcDbMText
 10
203.9980961666919
 20
33.84513466875489
 30
0.0
 40
1.8
 41
17.50517454311011
 46
0.0
 71
     1
 72
     5
  1
{\f@Lingoes Unicode|b0|i0|c134|p34;\C0;PURPOSE}
  7
样式 1
 73
     1
 44
1.0
1001
ACAD
1000
ACAD_MTEXT_COLUMN_INFO_BEGIN
1070
    75
1070
     2
1070
    79
1070
     0
1070
    76
1070
     1
1070
    78
1070
     0
1070
    48
1040
17.50517454311011
1070
    49
1040
15.0
1070
    50
1070
     1
1040
0.0
1000
ACAD_MTEXT_COLUMN_INFO_END
1000
MTEXTBEGIN
1070
    73
1070
     1
1070
    44
1040
1.0
1070
    74
1070
     0
1000
MTEXTEND
  0
MTEXT
  5
12E2
330
123E
100
AcDbEntity
  8
图框
 62
     7
370
    25
100
AcDbMText
 10
248.9980961666919
 20
33.84513466875489
 30
0.0
 40
1.8
 41
17.50517454311011
 46
0.0
 71
     1
 72
     5
  1
{\f@Lingoes Unicode|b0|i0|c134|p34;\C0;CUSTOMER}
  7
样式 1
 73
     1
 44
1.0
1001
ACAD
1000
ACAD_MTEXT_COLUMN_INFO_BEGIN
1070
    75
1070
     2
1070
    79
1070
     0
1070
    76
1070
     1
1070
    78
1070
     0
1070
    48
1040
17.50517454311011
1070
    49
1040
15.0
1070
    50
1070
     1
1040
0.0
1000
ACAD_MTEXT_COLUMN_INFO_END
1000
MTEXTBEGIN
1070
    73
1070
     1
1070
    44
1040
1.0
1070
    74
1070
     0
1000
MTEXTEND
  0
MTEXT
  5
12E3
330
123E
100
AcDbEntity
  8
图框
 62
     7
370
    25
100
AcDbMText
 10
203.9980961666919
 20
28.22013466875489
 30
0.0
 40
1.8
 41
17.50517454311011
 46
0.0
 71
     1
 72
     5
  1
{\f@Lingoes Unicode|b0|i0|c134|p34;\C0;SCALE}
  7
样式 1
 73
     1
 44
1.0
1001
ACAD
1000
ACAD_MTEXT_COLUMN_INFO_BEGIN
1070
    75
1070
     2
1070
    79
1070
     0
1070
    76
1070
     1
1070
    78
1070
     0
1070
    48
1040
17.50517454311011
1070
    49
1040
15.0
1070
    50
1070
     1
1040
0.0
1000
ACAD_MTEXT_COLUMN_INFO_END
1000
MTEXTBEGIN
1070
    73
1070
     1
1070
    44
1040
1.0
1070
    74
1070
     0
1000
MTEXTEND
  0
MTEXT
  5
12E4
330
123E
100
AcDbEntity
  8
图框
 62
     7
370
    25
100
AcDbMText
 10
221.9935034528066
 20
28.22013466875489
 30
0.0
 40
2.2
 41
21.57067160571751
 46
0.0
 71
     1
 72
     5
  1
{\f@Arial Unicode MS|b0|i0|c134|p34;\C0;1 : 6}
  7
样式 1
 73
     1
 44
1.0
1001
ACAD
1000
ACAD_MTEXT_COLUMN_INFO_BEGIN
1070
    75
1070
     2
1070
    79
1070
     0
1070
    76
1070
     1
1070
    78
1070
     0
1070
    48
1040
21.57067160571751
1070
    49
1040
15.0
1070
    50
1070
     1
1040
0.0
1000
ACAD_MTEXT_COLUMN_INFO_END
1000
MTEXTBEGIN
1070
    73
1070
     1
1070
    44
1040
1.0
1070
    74
1070
     0
1000
MTEXTEND
  0
MTEXT
  5
12E5
330
123E
100
AcDbEntity
  8
图框
 62
     7
370
    25
100
AcDbMText
 10
203.2189479059436
 20
9.81302555233421
 30
0.0
 40
1.8
 41
48.89428655814345
 46
0.0
 71
     1
 72
     5
  1
{\fArial|b0|i0|c238|p34;www.speedsink.com}
  7
样式 1
 73
     1
 44
1.0
1001
ACAD
1000
ACAD_MTEXT_COLUMN_INFO_BEGIN
1070
    75
1070
     2
1070
    79
1070
     0
1070
    76
1070
     1
1070
    78
1070
     0
1070
    48
1040
48.89428655814345
1070
    49
1040
15.0
1070
    50
1070
     1
1040
2.530627340047162
1000
ACAD_MTEXT_COLUMN_INFO_END
1000
MTEXTBEGIN
1070
    73
1070
     1
1070
    44
1040
1.0
1070
    74
1070
     0
1000
MTEXTEND
  0
LINE
  5
12E6
330
123E
100
AcDbEntity
  8
图框
 62
     7
370
    25
100
AcDbLine
 10
101.4842734710851
 20
35.3257074510012
 30
0.0
 11
31.48427347108515
 21
35.3257074510012
 31
0.0
  0
LINE
  5
12E7
330
123E
100
AcDbEntity
  8
图框
 62
     7
370
    25
100
AcDbLine
 10
101.4842734710851
 20
29.7007074510012
 30
0.0
 11
31.48427347108515
 21
29.7007074510012
 31
0.0
  0
LINE
  5
12E8
330
123E
100
AcDbEntity
  8
图框
 62
     7
370
    25
100
AcDbLine
 10
101.4842734710851
 20
24.0757074510012
 30
0.0
 11
31.48427347108515
 21
24.0757074510012
 31
0.0
  0
LINE
  5
12E9
330
123E
100
AcDbEntity
  8
图框
 62
     7
370
    25
100
AcDbLine
 10
101.4842734710851
 20
18.4507074510012
 30
0.0
 11
31.48427347108515
 21
18.4507074510012
 31
0.0
  0
LINE
  5
12EA
330
123E
100
AcDbEntity
  8
图框
 62
     7
370
    25
100
AcDbLine
 10
101.4842734710851
 20
12.8257074510012
 30
0.0
 11
7.200706561155811
 21
12.8257074510012
 31
0.0
  0
MTEXT
  5
12EB
330
123E
100
AcDbEntity
  8
图框
 62
     7
370
    25
100
AcDbMText
 10
33.31109963030659
 20
33.84513466875489
 30
0.0
 40
1.8
 41
26.34592963415071
 46
0.0
 71
     1
 72
     5
  1
{\f@Lingoes Unicode|b0|i0|c134|p34;\C0;REVISION RECORD}
  7
样式 1
 73
     1
 44
1.0
1001
ACAD
1000
ACAD_MTEXT_COLUMN_INFO_BEGIN
1070
    75
1070
     2
1070
    79
1070
     0
1070
    76
1070
     1
1070
    78
1070
     0
1070
    48
1040
26.34592963415071
1070
    49
1040
15.0
1070
    50
1070
     1
1040
0.0
1000
ACAD_MTEXT_COLUMN_INFO_END
1000
MTEXTBEGIN
1070
    73
1070
     1
1070
    44
1040
1.0
1070
    74
1070
     0
1000
MTEXTEND
  0
LINE
  5
12EC
330
123E
100
AcDbEntity
  8
图框
 62
     7
370
    25
100
AcDbLine
 10
31.48427347108515
 20
35.3257074510012
 30
0.0
 11
31.48427347108515
 21
7.200707451001193
 31
0.0
  0
LINE
  5
12ED
330
123E
100
AcDbEntity
  8
图框
 62
     7
370
    25
100
AcDbLine
 10
84.12201185174456
 20
29.7007074510012
 30
0.0
 11
84.12201185174456
 21
7.200707451001193
 31
0.0
  0
LINE
  5
12EE
330
123E
100
AcDbEntity
  8
图框
 62
     7
370
    25
100
AcDbLine
 10
201.4842734710851
 20
35.3257074510012
 30
0.0
 11
101.4842734710851
 21
35.3257074510012
 31
0.0
  0
LINE
  5
12EF
330
123E
100
AcDbEntity
  8
图框
 62
     7
370
    25
100
AcDbLine
 10
201.4842734710851
 20
29.7007074510012
 30
0.0
 11
101.4842734710851
 21
29.7007074510012
 31
0.0
  0
LINE
  5
12F0
330
123E
100
AcDbEntity
  8
图框
 62
     7
370
    25
100
AcDbLine
 10
201.4842734710851
 20
24.0757074510012
 30
0.0
 11
101.4842734710851
 21
24.0757074510012
 31
0.0
  0
LINE
  5
12F1
330
123E
100
AcDbEntity
  8
图框
 62
     7
370
    25
100
AcDbLine
 10
201.4842734710851
 20
18.4507074510012
 30
0.0
 11
101.4842734710851
 21
18.4507074510012
 31
0.0
  0
LINE
  5
12F2
330
123E
100
AcDbEntity
  8
图框
 62
     7
370
    25
100
AcDbLine
 10
201.4842734710851
 20
12.8257074510012
 30
0.0
 11
101.4842734710851
 21
12.8257074510012
 31
0.0
  0
MTEXT
  5
12F3
330
123E
100
AcDbEntity
  8
图框
 62
     7
370
    25
100
AcDbMText
 10
103.3110996303066
 20
33.84513466875489
 30
0.0
 40
1.8
 41
26.34592963415071
 46
0.0
 71
     1
 72
     5
  1
{\f@Lingoes Unicode|b0|i0|c134|p34;\C0;ACCESSORIES LIST}
  7
样式 1
 73
     1
 44
1.0
1001
ACAD
1000
ACAD_MTEXT_COLUMN_INFO_BEGIN
1070
    75
1070
     2
1070
    79
1070
     0
1070
    76
1070
     1
1070
    78
1070
     0
1070
    48
1040
26.34592963415071
1070
    49
1040
15.0
1070
    50
1070
     1
1040
0.0
1000
ACAD_MTEXT_COLUMN_INFO_END
1000
MTEXTBEGIN
1070
    73
1070
     1
1070
    44
1040
1.0
1070
    74
1070
     0
1000
MTEXTEND
  0
LINE
  5
12F4
330
123E
100
AcDbEntity
  8
图框
 62
     7
370
    25
100
AcDbLine
 10
101.4842734710851
 20
35.3257074510012
 30
0.0
 11
101.4842734710851
 21
7.200707451001193
 31
0.0
  0
LINE
  5
12F5
330
123E
100
AcDbEntity
  8
图框
 62
     7
370
    25
100
AcDbLine
 10
106.4842734710851
 20
29.7007074510012
 30
0.0
 11
106.4842734710851
 21
7.200707451001196
 31
0.0
  0
LINE
  5
12F6
330
123E
100
AcDbEntity
  8
图框
 62
     7
370
    25
100
AcDbLine
 10
156.4842734710851
 20
29.7007074510012
 30
0.0
 11
156.4842734710851
 21
7.200707451001196
 31
0.0
  0
LINE
  5
12F7
330
123E
100
AcDbEntity
  8
图框
 62
     7
370
    25
100
AcDbLine
 10
151.5986576929722
 20
29.7007074510012
 30
0.0
 11
151.5986576929722
 21
7.200707451001196
 31
0.0
  0
ENDBLK
  5
12F8
330
123E
100
AcDbEntity
  8
0
100
AcDbBlockEnd
  0
BLOCK
  5
13E9
330
13DF
100
AcDbEntity
  8
0
 62
     6
100
AcDbBlockBegin
  2
*D58
 70
     1
 10
0.0
 20
0.0
 30
0.0
  3
*D58
  1

  0
LINE
  5
1451
330
13DF
100
AcDbEntity
  8
标注
 62
     0
370
    -2
390
F56
100
AcDbLine
 10
10069.23474852853
 20
2938.232438669396
 30
0.0
 11
10069.23474852853
 21
3004.232438669396
 31
0.0
  0
LINE
  5
1452
330
13DF
100
AcDbEntity
  8
标注
 62
     0
370
    -2
390
F56
100
AcDbLine
 10
10834.23474852854
 20
2938.232438669396
 30
0.0
 11
10834.23474852854
 21
3004.232438669396
 31
0.0
  0
LINE
  5
1453
330
13DF
100
AcDbEntity
  8
标注
 62
     0
370
    -2
390
F56
100
AcDbLine
 10
10085.73474852853
 20
2993.232438669397
 30
0.0
 11
10817.73474852854
 21
2993.232438669397
 31
0.0
  0
SOLID
  5
1454
330
13DF
100
AcDbEntity
  8
标注
 62
     0
390
F56
100
AcDbTrace
 10
10085.73474852853
 20
2995.982438669397
 30
0.0
 11
10085.73474852853
 21
2990.482438669396
 31
0.0
 12
10069.23474852853
 22
2993.232438669397
 32
0.0
 13
10069.23474852853
 23
2993.232438669397
 33
0.0
  0
SOLID
  5
1455
330
13DF
100
AcDbEntity
  8
标注
 62
     0
390
F56
100
AcDbTrace
 10
10817.73474852854
 20
2990.482438669396
 30
0.0
 11
10817.73474852854
 21
2995.982438669397
 31
0.0
 12
10834.23474852854
 22
2993.232438669397
 32
0.0
 13
10834.23474852854
 23
2993.232438669397
 33
0.0
  0
MTEXT
  5
1456
330
13DF
100
AcDbEntity
  8
标注
 62
     0
390
F56
100
AcDbMText
 10
10451.73474852854
 20
3015.235511295095
 30
0.0
 40
27.5
 41
0.0
 46
0.0
 71
     5
 72
     1
  1
\A1;765.0 [30 1/8"]
 73
     1
 44
1.0
1001
ACAD
1000
MTEXTBEGIN
1070
    73
1070
     1
1070
    44
1040
1.0
1070
    74
1070
     0
1000
MTEXTEND
  0
POINT
  5
1457
330
13DF
100
AcDbEntity
  8
Defpoints
 62
     0
390
F56
100
AcDbPoint
 10
10069.23474852853
 20
2725.232438669396
 30
0.0
  0
POINT
  5
1458
330
13DF
100
AcDbEntity
  8
Defpoints
 62
     0
390
F56
100
AcDbPoint
 10
10834.23474852854
 20
2725.232438669396
 30
0.0
  0
POINT
  5
1459
330
13DF
100
AcDbEntity
  8
Defpoints
 62
     0
390
F56
100
AcDbPoint
 10
10834.23474852854
 20
2993.232438669397
 30
0.0
  0
ENDBLK
  5
13EA
330
13DF
100
AcDbEntity
  8
0
 62
     6
100
AcDbBlockEnd
  0
BLOCK
  5
13F5
330
13EB
100
AcDbEntity
  8
0
 62
     6
100
AcDbBlockBegin
  2
*D59
 70
     1
 10
0.0
 20
0.0
 30
0.0
  3
*D59
  1

  0
LINE
  5
1448
330
13EB
100
AcDbEntity
  8
标注
 62
     0
370
    -2
390
F56
100
AcDbLine
 10
10044.23478892388
 20
2998.232438669397
 30
0.0
 11
10044.23478892388
 21
3064.232438669396
 31
0.0
  0
LINE
  5
1449
330
13EB
100
AcDbEntity
  8
标注
 62
     0
370
    -2
390
F56
100
AcDbLine
 10
10859.23470813316
 20
2998.232438669397
 30
0.0
 11
10859.23470813316
 21
3064.232438669396
 31
0.0
  0
LINE
  5
144A
330
13EB
100
AcDbEntity
  8
标注
 62
     0
370
    -2
390
F56
100
AcDbLine
 10
10060.73478892388
 20
3053.232438669397
 30
0.0
 11
10842.73470813316
 21
3053.232438669397
 31
0.0
  0
SOLID
  5
144B
330
13EB
100
AcDbEntity
  8
标注
 62
     0
390
F56
100
AcDbTrace
 10
10060.73478892388
 20
3055.982438669397
 30
0.0
 11
10060.73478892388
 21
3050.482438669396
 31
0.0
 12
10044.23478892388
 22
3053.232438669397
 32
0.0
 13
10044.23478892388
 23
3053.232438669397
 33
0.0
  0
SOLID
  5
144C
330
13EB
100
AcDbEntity
  8
标注
 62
     0
390
F56
100
AcDbTrace
 10
10842.73470813316
 20
3050.482438669396
 30
0.0
 11
10842.73470813316
 21
3055.982438669397
 31
0.0
 12
10859.23470813316
 22
3053.232438669397
 32
0.0
 13
10859.23470813316
 23
3053.232438669397
 33
0.0
  0
MTEXT
  5
144D
330
13EB
100
AcDbEntity
  8
标注
 62
     0
390
F56
100
AcDbMText
 10
10451.73474852852
 20
3075.235511295094
 30
0.0
 40
27.5
 41
0.0
 46
0.0
 71
     5
 72
     1
  1
\A1;815.0 [32 1/8"]
 73
     1
 44
1.0
1001
ACAD
1000
MTEXTBEGIN
1070
    73
1070
     1
1070
    44
1040
1.0
1070
    74
1070
     0
1000
MTEXTEND
  0
POINT
  5
144E
330
13EB
100
AcDbEntity
  8
Defpoints
 62
     0
390
F56
100
AcDbPoint
 10
10044.23478892388
 20
2870.796856215058
 30
0.0
  0
POINT
  5
144F
330
13EB
100
AcDbEntity
  8
Defpoints
 62
     0
390
F56
100
AcDbPoint
 10
10859.23470813316
 20
2870.796856215058
 30
0.0
  0
POINT
  5
1450
330
13EB
100
AcDbEntity
  8
Defpoints
 62
     0
390
F56
100
AcDbPoint
 10
10859.23470813316
 20
3053.232438669397
 30
0.0
  0
ENDBLK
  5
13F6
330
13EB
100
AcDbEntity
  8
0
 62
     6
100
AcDbBlockEnd
  0
BLOCK
  5
1401
330
13F7
100
AcDbEntity
  8
0
 62
     6
100
AcDbBlockBegin
  2
*D60
 70
     1
 10
0.0
 20
0.0
 30
0.0
  3
*D60
  1

  0
LINE
  5
1463
330
13F7
100
AcDbEntity
  8
标注
 62
     0
370
    -2
390
F56
100
AcDbLine
 10
10059.23478892391
 20
2928.232438669397
 30
0.0
 11
9993.234788923915
 21
2928.232438669397
 31
0.0
  0
LINE
  5
1464
330
13F7
100
AcDbEntity
  8
标注
 62
     0
370
    -2
390
F56
100
AcDbLine
 10
10059.23478892391
 20
2522.232438669397
 30
0.0
 11
9993.234788923915
 21
2522.232438669397
 31
0.0
  0
LINE
  5
1465
330
13F7
100
AcDbEntity
  8
标注
 62
     0
370
    -2
390
F56
100
AcDbLine
 10
10004.23478892391
 20
2911.732438669396
 30
0.0
 11
10004.23478892391
 21
2538.732438669396
 31
0.0
  0
SOLID
  5
1466
330
13F7
100
AcDbEntity
  8
标注
 62
     0
390
F56
100
AcDbTrace
 10
10006.98478892391
 20
2911.732438669396
 30
0.0
 11
10001.48478892391
 21
2911.732438669396
 31
0.0
 12
10004.23478892391
 22
2928.232438669397
 32
0.0
 13
10004.23478892391
 23
2928.232438669397
 33
0.0
  0
SOLID
  5
1467
330
13F7
100
AcDbEntity
  8
标注
 62
     0
390
F56
100
AcDbTrace
 10
10001.48478892391
 20
2538.732438669396
 30
0.0
 11
10006.98478892391
 21
2538.732438669396
 31
0.0
 12
10004.23478892391
 22
2522.232438669397
 32
0.0
 13
10004.23478892391
 23
2522.232438669397
 33
0.0
  0
MTEXT
  5
1468
330
13F7
100
AcDbEntity
  8
标注
 62
     0
390
F56
100
AcDbMText
 10
9982.231716298215
 20
2725.232438669396
 30
0.0
 40
27.5
 41
0.0
 46
0.0
 71
     5
 72
     1
  1
\A1;406.0 [16"]
 11
0.0
 21
1.0
 31
0.0
 73
     1
 44
1.0
1001
ACAD
1000
MTEXTBEGIN
1070
    73
1070
     1
1070
    44
1040
1.0
1070
    74
1070
     0
1000
MTEXTEND
  0
POINT
  5
1469
330
13F7
100
AcDbEntity
  8
Defpoints
 62
     0
390
F56
100
AcDbPoint
 10
10451.73474852854
 20
2928.232438669397
 30
0.0
  0
POINT
  5
146A
330
13F7
100
AcDbEntity
  8
Defpoints
 62
     0
390
F56
100
AcDbPoint
 10
10451.73474852854
 20
2522.232438669397
 30
0.0
  0
POINT
  5
146B
330
13F7
100
AcDbEntity
  8
Defpoints
 62
     0
390
F56
100
AcDbPoint
 10
10004.23478892391
 20
2522.232438669397
 30
0.0
  0
ENDBLK
  5
1402
330
13F7
100
AcDbEntity
  8
0
 62
     6
100
AcDbBlockEnd
  0
BLOCK
  5
140D
330
1403
100
AcDbEntity
  8
0
 62
     6
100
AcDbBlockBegin
  2
*D61
 70
     1
 10
0.0
 20
0.0
 30
0.0
  3
*D61
  1

  0
LINE
  5
145A
330
1403
100
AcDbEntity
  8
标注
 62
     0
370
    -2
390
F56
100
AcDbLine
 10
9999.234788923915
 20
2953.232438669397
 30
0.0
 11
9933.234788923916
 21
2953.232438669397
 31
0.0
  0
LINE
  5
145B
330
1403
100
AcDbEntity
  8
标注
 62
     0
370
    -2
390
F56
100
AcDbLine
 10
9999.234788923915
 20
2497.232438669396
 30
0.0
 11
9933.234788923916
 21
2497.232438669396
 31
0.0
  0
LINE
  5
145C
330
1403
100
AcDbEntity
  8
标注
 62
     0
370
    -2
390
F56
100
AcDbLine
 10
9944.234788923916
 20
2936.732438669396
 30
0.0
 11
9944.234788923916
 21
2513.732438669396
 31
0.0
  0
SOLID
  5
145D
330
1403
100
AcDbEntity
  8
标注
 62
     0
390
F56
100
AcDbTrace
 10
9946.984788923916
 20
2936.732438669396
 30
0.0
 11
9941.484788923915
 21
2936.732438669396
 31
0.0
 12
9944.234788923916
 22
2953.232438669397
 32
0.0
 13
9944.234788923916
 23
2953.232438669397
 33
0.0
  0
SOLID
  5
145E
330
1403
100
AcDbEntity
  8
标注
 62
     0
390
F56
100
AcDbTrace
 10
9941.484788923915
 20
2513.732438669396
 30
0.0
 11
9946.984788923916
 21
2513.732438669396
 31
0.0
 12
9944.234788923916
 22
2497.232438669396
 32
0.0
 13
9944.234788923916
 23
2497.232438669396
 33
0.0
  0
MTEXT
  5
145F
330
1403
100
AcDbEntity
  8
标注
 62
     0
390
F56
100
AcDbMText
 10
9922.231716298217
 20
2725.232438669396
 30
0.0
 40
27.5
 41
0.0
 46
0.0
 71
     5
 72
     1
  1
\A1;456.0 [18"]
 11
0.0
 21
1.0
 31
0.0
 73
     1
 44
1.0
1001
ACAD
1000
MTEXTBEGIN
1070
    73
1070
     1
1070
    44
1040
1.0
1070
    74
1070
     0
1000
MTEXTEND
  0
POINT
  5
1460
330
1403
100
AcDbEntity
  8
Defpoints
 62
     0
390
F56
100
AcDbPoint
 10
10126.67037137823
 20
2953.232438669397
 30
0.0
  0
POINT
  5
1461
330
1403
100
AcDbEntity
  8
Defpoints
 62
     0
390
F56
100
AcDbPoint
 10
10126.67037137823
 20
2497.232438669396
 30
0.0
  0
POINT
  5
1462
330
1403
100
AcDbEntity
  8
Defpoints
 62
     0
390
F56
100
AcDbPoint
 10
9944.234788923916
 20
2497.232438669396
 30
0.0
  0
ENDBLK
  5
140E
330
1403
100
AcDbEntity
  8
0
 62
     6
100
AcDbBlockEnd
  0
BLOCK
  5
1419
330
140F
100
AcDbEntity
  8
0
 62
     6
100
AcDbBlockBegin
  2
*D62
 70
     1
 10
0.0
 20
0.0
 30
0.0
  3
*D62
  1

  0
LINE
  5
146C
330
140F
100
AcDbEntity
  8
标注
 62
     0
370
    -2
390
F56
100
AcDbLine
 10
10021.23478892392
 20
2397.232438669396
 30
0.0
 11
9955.234788923924
 21
2397.232438669396
 31
0.0
  0
LINE
  5
146D
330
140F
100
AcDbEntity
  8
标注
 62
     0
370
    -2
390
F56
100
AcDbLine
 10
10021.23478892392
 20
2168.832438669402
 30
0.0
 11
9955.234788923924
 21
2168.832438669402
 31
0.0
  0
LINE
  5
146E
330
140F
100
AcDbEntity
  8
标注
 62
     0
370
    -2
390
F56
100
AcDbLine
 10
9966.234788923923
 20
2380.732438669396
 30
0.0
 11
9966.234788923923
 21
2185.332438669402
 31
0.0
  0
SOLID
  5
146F
330
140F
100
AcDbEntity
  8
标注
 62
     0
390
F56
100
AcDbTrace
 10
9968.984788923924
 20
2380.732438669396
 30
0.0
 11
9963.484788923922
 21
2380.732438669396
 31
0.0
 12
9966.234788923923
 22
2397.232438669396
 32
0.0
 13
9966.234788923923
 23
2397.232438669396
 33
0.0
  0
SOLID
  5
1470
330
140F
100
AcDbEntity
  8
标注
 62
     0
390
F56
100
AcDbTrace
 10
9963.484788923922
 20
2185.332438669402
 30
0.0
 11
9968.984788923924
 21
2185.332438669402
 31
0.0
 12
9966.234788923923
 22
2168.832438669402
 32
0.0
 13
9966.234788923923
 23
2168.832438669402
 33
0.0
  0
MTEXT
  5
1471
330
140F
100
AcDbEntity
  8
标注
 62
     0
390
F56
100
AcDbMText
 10
9944.231716298224
 20
2283.032438669399
 30
0.0
 40
27.5
 41
0.0
 46
0.0
 71
     5
 72
     1
  1
\A1;228 [9"]
 11
0.0
 21
1.0
 31
0.0
 73
     1
 44
1.0
1001
ACAD
1000
MTEXTBEGIN
1070
    73
1070
     1
1070
    44
1040
1.0
1070
    74
1070
     0
1000
MTEXTEND
  0
POINT
  5
1472
330
140F
100
AcDbEntity
  8
Defpoints
 62
     0
390
F56
100
AcDbPoint
 10
10044.23478892388
 20
2397.232438669396
 30
0.0
  0
POINT
  5
1473
330
140F
100
AcDbEntity
  8
Defpoints
 62
     0
390
F56
100
AcDbPoint
 10
10453.23474852164
 20
2168.832438669402
 30
0.0
  0
POINT
  5
1474
330
140F
100
AcDbEntity
  8
Defpoints
 62
     0
390
F56
100
AcDbPoint
 10
9966.234788923923
 20
2168.832438669402
 30
0.0
  0
ENDBLK
  5
141A
330
140F
100
AcDbEntity
  8
0
 62
     6
100
AcDbBlockEnd
  0
BLOCK
  5
1666
330
165C
100
AcDbEntity
  8
0
 62
     6
100
AcDbBlockBegin
  2
*D71
 70
     1
 10
0.0
 20
0.0
 30
0.0
  3
*D71
  1

  0
LINE
  5
1ACD
330
165C
100
AcDbEntity
  8
标注
 62
     0
370
    -2
390
F56
100
AcDbLine
 10
11891.90049830075
 20
2902.22180774482
 30
0.0
 11
11825.90049830075
 21
2902.22180774482
 31
0.0
  0
LINE
  5
1ACE
330
165C
100
AcDbEntity
  8
标注
 62
     0
370
    -2
390
F56
100
AcDbLine
 10
11891.90049830075
 20
2496.221807744822
 30
0.0
 11
11825.90049830075
 21
2496.221807744822
 31
0.0
  0
LINE
  5
1ACF
330
165C
100
AcDbEntity
  8
标注
 62
     0
370
    -2
390
F56
100
AcDbLine
 10
11836.90049830075
 20
2885.72180774482
 30
0.0
 11
11836.90049830075
 21
2512.721807744822
 31
0.0
  0
SOLID
  5
1AD0
330
165C
100
AcDbEntity
  8
标注
 62
     0
390
F56
100
AcDbTrace
 10
11839.65049830075
 20
2885.72180774482
 30
0.0
 11
11834.15049830075
 21
2885.72180774482
 31
0.0
 12
11836.90049830075
 22
2902.22180774482
 32
0.0
 13
11836.90049830075
 23
2902.22180774482
 33
0.0
  0
SOLID
  5
1AD1
330
165C
100
AcDbEntity
  8
标注
 62
     0
390
F56
100
AcDbTrace
 10
11834.15049830075
 20
2512.721807744822
 30
0.0
 11
11839.65049830075
 21
2512.721807744822
 31
0.0
 12
11836.90049830075
 22
2496.221807744822
 32
0.0
 13
11836.90049830075
 23
2496.221807744822
 33
0.0
  0
MTEXT
  5
1AD2
330
165C
100
AcDbEntity
  8
标注
 62
     0
390
F56
100
AcDbMText
 10
11814.89742567505
 20
2699.221807744821
 30
0.0
 40
27.5
 41
0.0
 46
0.0
 71
     5
 72
     1
  1
\A1;406.0 [16"]
 11
0.0
 21
1.0
 31
0.0
 73
     1
 44
1.0
1001
ACAD
1000
MTEXTBEGIN
1070
    73
1070
     1
1070
    44
1040
1.0
1070
    74
1070
     0
1000
MTEXTEND
  0
POINT
  5
1AD3
330
165C
100
AcDbEntity
  8
Defpoints
 62
     0
390
F56
100
AcDbPoint
 10
12086.90045790537
 20
2902.22180774482
 30
0.0
  0
POINT
  5
1AD4
330
165C
100
AcDbEntity
  8
Defpoints
 62
     0
390
F56
100
AcDbPoint
 10
12086.90045790537
 20
2496.221807744822
 30
0.0
  0
POINT
  5
1AD5
330
165C
100
AcDbEntity
  8
Defpoints
 62
     0
390
F56
100
AcDbPoint
 10
11836.90049830075
 20
2496.221807744822
 30
0.0
  0
ENDBLK
  5
1667
330
165C
100
AcDbEntity
  8
0
 62
     6
100
AcDbBlockEnd
  0
BLOCK
  5
1672
330
1668
100
AcDbEntity
  8
0
 62
     6
100
AcDbBlockBegin
  2
*D72
 70
     1
 10
0.0
 20
0.0
 30
0.0
  3
*D72
  1

  0
LINE
  5
1AD6
330
1668
100
AcDbEntity
  8
标注
 62
     0
370
    -2
390
F56
100
AcDbLine
 10
11831.90049830075
 20
2927.22180774484
 30
0.0
 11
11765.90049830075
 21
2927.22180774484
 31
0.0
  0
LINE
  5
1AD7
330
1668
100
AcDbEntity
  8
标注
 62
     0
370
    -2
390
F56
100
AcDbLine
 10
11831.90049830075
 20
2471.222127757601
 30
0.0
 11
11765.90049830075
 21
2471.222127757601
 31
0.0
  0
LINE
  5
1AD8
330
1668
100
AcDbEntity
  8
标注
 62
     0
370
    -2
390
F56
100
AcDbLine
 10
11776.90049830075
 20
2910.72180774484
 30
0.0
 11
11776.90049830075
 21
2487.722127757601
 31
0.0
  0
SOLID
  5
1AD9
330
1668
100
AcDbEntity
  8
标注
 62
     0
390
F56
100
AcDbTrace
 10
11779.65049830075
 20
2910.72180774484
 30
0.0
 11
11774.15049830075
 21
2910.72180774484
 31
0.0
 12
11776.90049830075
 22
2927.22180774484
 32
0.0
 13
11776.90049830075
 23
2927.22180774484
 33
0.0
  0
SOLID
  5
1ADA
330
1668
100
AcDbEntity
  8
标注
 62
     0
390
F56
100
AcDbTrace
 10
11774.15049830075
 20
2487.722127757601
 30
0.0
 11
11779.65049830075
 21
2487.722127757601
 31
0.0
 12
11776.90049830075
 22
2471.222127757601
 32
0.0
 13
11776.90049830075
 23
2471.222127757601
 33
0.0
  0
MTEXT
  5
1ADB
330
1668
100
AcDbEntity
  8
标注
 62
     0
390
F56
100
AcDbMText
 10
11754.89742567505
 20
2699.221967751221
 30
0.0
 40
27.5
 41
0.0
 46
0.0
 71
     5
 72
     1
  1
\A1;456.0 [18"]
 11
0.0
 21
1.0
 31
0.0
 73
     1
 44
1.0
1001
ACAD
1000
MTEXTBEGIN
1070
    73
1070
     1
1070
    44
1040
1.0
1070
    74
1070
     0
1000
MTEXTEND
  0
POINT
  5
1ADC
330
1668
100
AcDbEntity
  8
Defpoints
 62
     0
390
F56
100
AcDbPoint
 10
11959.40063391684
 20
2927.22180774484
 30
0.0
  0
POINT
  5
1ADD
330
1668
100
AcDbEntity
  8
Defpoints
 62
     0
390
F56
100
AcDbPoint
 10
11959.40063391684
 20
2471.222127757601
 30
0.0
  0
POINT
  5
1ADE
330
1668
100
AcDbEntity
  8
Defpoints
 62
     0
390
F56
100
AcDbPoint
 10
11776.90049830075
 20
2471.222127757601
 30
0.0
  0
ENDBLK
  5
1673
330
1668
100
AcDbEntity
  8
0
 62
     6
100
AcDbBlockEnd
  0
BLOCK
  5
167E
330
1674
100
AcDbEntity
  8
0
 62
     6
100
AcDbBlockBegin
  2
*D73
 70
     1
 10
0.0
 20
0.0
 30
0.0
  3
*D73
  1

  0
LINE
  5
1ADF
330
1674
100
AcDbEntity
  8
标注
 62
     0
370
    -2
390
F56
100
AcDbLine
 10
11901.90049748254
 20
2912.221807744838
 30
0.0
 11
11901.90049748254
 21
2978.221807744838
 31
0.0
  0
LINE
  5
1AE0
330
1674
100
AcDbEntity
  8
标注
 62
     0
370
    -2
390
F56
100
AcDbLine
 10
12269.90037277958
 20
2912.221807744838
 30
0.0
 11
12269.90037277958
 21
2978.221807744838
 31
0.0
  0
LINE
  5
1AE1
330
1674
100
AcDbEntity
  8
标注
 62
     0
370
    -2
390
F56
100
AcDbLine
 10
11918.40049748254
 20
2967.221807744838
 30
0.0
 11
12253.40037277958
 21
2967.221807744838
 31
0.0
  0
SOLID
  5
1AE2
330
1674
100
AcDbEntity
  8
标注
 62
     0
390
F56
100
AcDbTrace
 10
11918.40049748254
 20
2969.971807744838
 30
0.0
 11
11918.40049748254
 21
2964.471807744838
 31
0.0
 12
11901.90049748254
 22
2967.221807744838
 32
0.0
 13
11901.90049748254
 23
2967.221807744838
 33
0.0
  0
SOLID
  5
1AE3
330
1674
100
AcDbEntity
  8
标注
 62
     0
390
F56
100
AcDbTrace
 10
12253.40037277958
 20
2964.471807744838
 30
0.0
 11
12253.40037277958
 21
2969.971807744838
 31
0.0
 12
12269.90037277958
 22
2967.221807744838
 32
0.0
 13
12269.90037277958
 23
2967.221807744838
 33
0.0
  0
MTEXT
  5
1AE4
330
1674
100
AcDbEntity
  8
标注
 62
     0
390
F56
100
AcDbMText
 10
12085.90043513106
 20
2989.224880370536
 30
0.0
 40
27.5
 41
0.0
 46
0.0
 71
     5
 72
     1
  1
\A1;368.0 [14 1/2"]
 73
     1
 44
1.0
1001
ACAD
1000
MTEXTBEGIN
1070
    73
1070
     1
1070
    44
1040
1.0
1070
    74
1070
     0
1000
MTEXTEND
  0
POINT
  5
1AE5
330
1674
100
AcDbEntity
  8
Defpoints
 62
     0
390
F56
100
AcDbPoint
 10
11901.90049748254
 20
2699.191943833472
 30
0.0
  0
POINT
  5
1AE6
330
1674
100
AcDbEntity
  8
Defpoints
 62
     0
390
F56
100
AcDbPoint
 10
12269.90037277958
 20
2699.050760275735
 30
0.0
  0
POINT
  5
1AE7
330
1674
100
AcDbEntity
  8
Defpoints
 62
     0
390
F56
100
AcDbPoint
 10
12269.90037277958
 20
2967.221807744838
 30
0.0
  0
ENDBLK
  5
167F
330
1674
100
AcDbEntity
  8
0
 62
     6
100
AcDbBlockEnd
  0
BLOCK
  5
168A
330
1680
100
AcDbEntity
  8
0
 62
     6
100
AcDbBlockBegin
  2
*D74
 70
     1
 10
0.0
 20
0.0
 30
0.0
  3
*D74
  1

  0
LINE
  5
1AE8
330
1680
100
AcDbEntity
  8
标注
 62
     0
370
    -2
390
F56
100
AcDbLine
 10
12298.90049748254
 20
2912.221807744834
 30
0.0
 11
12298.90049748254
 21
2978.221807744834
 31
0.0
  0
LINE
  5
1AE9
330
1680
100
AcDbEntity
  8
标注
 62
     0
370
    -2
390
F56
100
AcDbLine
 10
12666.90037277958
 20
2912.221807744834
 30
0.0
 11
12666.90037277958
 21
2978.221807744834
 31
0.0
  0
LINE
  5
1AEA
330
1680
100
AcDbEntity
  8
标注
 62
     0
370
    -2
390
F56
100
AcDbLine
 10
12315.40049748254
 20
2967.221807744834
 30
0.0
 11
12650.40037277958
 21
2967.221807744834
 31
0.0
  0
SOLID
  5
1AEB
330
1680
100
AcDbEntity
  8
标注
 62
     0
390
F56
100
AcDbTrace
 10
12315.40049748254
 20
2969.971807744834
 30
0.0
 11
12315.40049748254
 21
2964.471807744834
 31
0.0
 12
12298.90049748254
 22
2967.221807744834
 32
0.0
 13
12298.90049748254
 23
2967.221807744834
 33
0.0
  0
SOLID
  5
1AEC
330
1680
100
AcDbEntity
  8
标注
 62
     0
390
F56
100
AcDbTrace
 10
12650.40037277958
 20
2964.471807744834
 30
0.0
 11
12650.40037277958
 21
2969.971807744834
 31
0.0
 12
12666.90037277958
 22
2967.221807744834
 32
0.0
 13
12666.90037277958
 23
2967.221807744834
 33
0.0
  0
MTEXT
  5
1AED
330
1680
100
AcDbEntity
  8
标注
 62
     0
390
F56
100
AcDbMText
 10
12482.90043513106
 20
2989.224880370533
 30
0.0
 40
27.5
 41
0.0
 46
0.0
 71
     5
 72
     1
  1
\A1;368.0 [14 1/2"]
 73
     1
 44
1.0
1001
ACAD
1000
MTEXTBEGIN
1070
    73
1070
     1
1070
    44
1040
1.0
1070
    74
1070
     0
1000
MTEXTEND
  0
POINT
  5
1AEE
330
1680
100
AcDbEntity
  8
Defpoints
 62
     0
390
F56
100
AcDbPoint
 10
12298.90049748254
 20
2699.191943833472
 30
0.0
  0
POINT
  5
1AEF
330
1680
100
AcDbEntity
  8
Defpoints
 62
     0
390
F56
100
AcDbPoint
 10
12666.90037277958
 20
2699.050760275735
 30
0.0
  0
POINT
  5
1AF0
330
1680
100
AcDbEntity
  8
Defpoints
 62
     0
390
F56
100
AcDbPoint
 10
12666.90037277958
 20
2967.221807744834
 30
0.0
  0
ENDBLK
  5
168B
330
1680
100
AcDbEntity
  8
0
 62
     6
100
AcDbBlockEnd
  0
BLOCK
  5
1696
330
168C
100
AcDbEntity
  8
0
 62
     6
100
AcDbBlockBegin
  2
*D75
 70
     1
 10
0.0
 20
0.0
 30
0.0
  3
*D75
  1

  0
LINE
  5
1AF1
330
168C
100
AcDbEntity
  8
标注
 62
     0
370
    -2
390
F56
100
AcDbLine
 10
11876.90049830073
 20
2972.221807744836
 30
0.0
 11
11876.90049830073
 21
3038.221807744836
 31
0.0
  0
LINE
  5
1AF2
330
168C
100
AcDbEntity
  8
标注
 62
     0
370
    -2
390
F56
100
AcDbLine
 10
12691.90041751001
 20
2972.221807744836
 30
0.0
 11
12691.90041751001
 21
3038.221807744836
 31
0.0
  0
LINE
  5
1AF3
330
168C
100
AcDbEntity
  8
标注
 62
     0
370
    -2
390
F56
100
AcDbLine
 10
11893.40049830073
 20
3027.221807744836
 30
0.0
 11
12675.40041751001
 21
3027.221807744836
 31
0.0
  0
SOLID
  5
1AF4
330
168C
100
AcDbEntity
  8
标注
 62
     0
390
F56
100
AcDbTrace
 10
11893.40049830073
 20
3029.971807744836
 30
0.0
 11
11893.40049830073
 21
3024.471807744836
 31
0.0
 12
11876.90049830073
 22
3027.221807744836
 32
0.0
 13
11876.90049830073
 23
3027.221807744836
 33
0.0
  0
SOLID
  5
1AF5
330
168C
100
AcDbEntity
  8
标注
 62
     0
390
F56
100
AcDbTrace
 10
12675.40041751001
 20
3024.471807744836
 30
0.0
 11
12675.40041751001
 21
3029.971807744836
 31
0.0
 12
12691.90041751001
 22
3027.221807744836
 32
0.0
 13
12691.90041751001
 23
3027.221807744836
 33
0.0
  0
MTEXT
  5
1AF6
330
168C
100
AcDbEntity
  8
标注
 62
     0
390
F56
100
AcDbMText
 10
12284.40045790537
 20
3049.224880370534
 30
0.0
 40
27.5
 41
0.0
 46
0.0
 71
     5
 72
     1
  1
\A1;815.0 [32 1/8"]
 73
     1
 44
1.0
1001
ACAD
1000
MTEXTBEGIN
1070
    73
1070
     1
1070
    44
1040
1.0
1070
    74
1070
     0
1000
MTEXTEND
  0
POINT
  5
1AF7
330
168C
100
AcDbEntity
  8
Defpoints
 62
     0
390
F56
100
AcDbPoint
 10
11876.90049830073
 20
2844.721672128775
 30
0.0
  0
POINT
  5
1AF8
330
168C
100
AcDbEntity
  8
Defpoints
 62
     0
390
F56
100
AcDbPoint
 10
12691.90041751001
 20
2844.721672128775
 30
0.0
  0
POINT
  5
1AF9
330
168C
100
AcDbEntity
  8
Defpoints
 62
     0
390
F56
100
AcDbPoint
 10
12691.90041751001
 20
3027.221807744836
 30
0.0
  0
ENDBLK
  5
1697
330
168C
100
AcDbEntity
  8
0
 62
     6
100
AcDbBlockEnd
  0
BLOCK
  5
16A2
330
1698
100
AcDbEntity
  8
0
 62
     6
100
AcDbBlockBegin
  2
*D76
 70
     1
 10
0.0
 20
0.0
 30
0.0
  3
*D76
  1

  0
LINE
  5
1AFA
330
1698
100
AcDbEntity
  8
标注
 62
     0
370
    -2
390
F56
100
AcDbLine
 10
11853.90049830075
 20
2349.26727914321
 30
0.0
 11
11787.90049830075
 21
2349.26727914321
 31
0.0
  0
LINE
  5
1AFB
330
1698
100
AcDbEntity
  8
标注
 62
     0
370
    -2
390
F56
100
AcDbLine
 10
11853.90049830075
 20
2120.26764745055
 30
0.0
 11
11787.90049830075
 21
2120.26764745055
 31
0.0
  0
LINE
  5
1AFC
330
1698
100
AcDbEntity
  8
标注
 62
     0
370
    -2
390
F56
100
AcDbLine
 10
11798.90049830075
 20
2332.767279143211
 30
0.0
 11
11798.90049830075
 21
2136.76764745055
 31
0.0
  0
SOLID
  5
1AFD
330
1698
100
AcDbEntity
  8
标注
 62
     0
390
F56
100
AcDbTrace
 10
11801.65049830075
 20
2332.767279143211
 30
0.0
 11
11796.15049830075
 21
2332.767279143211
 31
0.0
 12
11798.90049830075
 22
2349.26727914321
 32
0.0
 13
11798.90049830075
 23
2349.26727914321
 33
0.0
  0
SOLID
  5
1AFE
330
1698
100
AcDbEntity
  8
标注
 62
     0
390
F56
100
AcDbTrace
 10
11796.15049830075
 20
2136.76764745055
 30
0.0
 11
11801.65049830075
 21
2136.76764745055
 31
0.0
 12
11798.90049830075
 22
2120.26764745055
 32
0.0
 13
11798.90049830075
 23
2120.26764745055
 33
0.0
  0
MTEXT
  5
1AFF
330
1698
100
AcDbEntity
  8
标注
 62
     0
390
F56
100
AcDbMText
 10
11776.89742567505
 20
2234.76746329688
 30
0.0
 40
27.5
 41
0.0
 46
0.0
 71
     5
 72
     1
  1
\A1;229.0 [9"]
 11
0.0
 21
1.0
 31
0.0
 73
     1
 44
1.0
1001
ACAD
1000
MTEXTBEGIN
1070
    73
1070
     1
1070
    44
1040
1.0
1070
    74
1070
     0
1000
MTEXTEND
  0
POINT
  5
1B00
330
1698
100
AcDbEntity
  8
Defpoints
 62
     0
390
F56
100
AcDbPoint
 10
11876.90049830073
 20
2349.26727914321
 30
0.0
  0
POINT
  5
1B01
330
1698
100
AcDbEntity
  8
Defpoints
 62
     0
390
F56
100
AcDbPoint
 10
12085.85558044595
 20
2120.26764745055
 30
0.0
  0
POINT
  5
1B02
330
1698
100
AcDbEntity
  8
Defpoints
 62
     0
390
F56
100
AcDbPoint
 10
11798.90049830075
 20
2120.26764745055
 30
0.0
  0
ENDBLK
  5
16A3
330
1698
100
AcDbEntity
  8
0
 62
     6
100
AcDbBlockEnd
  0
BLOCK
  5
16AA
330
16A4
100
AcDbEntity
  8
0
 62
     6
100
AcDbBlockBegin
  2
*D77
 70
     1
 10
0.0
 20
0.0
 30
0.0
  3
*D77
  1

  0
LINE
  5
1B03
330
16A4
100
AcDbEntity
  8
标注
 62
     0
370
    -2
390
F56
100
AcDbLine
 10
12563.25053303961
 20
2207.829120827236
 30
0.0
 11
12630.96942732025
 21
2154.676713953278
 31
0.0
  0
MTEXT
  5
1B04
330
16A4
100
AcDbEntity
  8
标注
 62
     0
390
F56
100
AcDbMText
 10
12600.71899521417
 20
2202.88191535497
 30
0.0
 40
25.29999999999999
 41
0.0
 46
0.0
 71
     5
 72
     1
  1
R50
 11
0.7866302813616694
 21
-0.6174243277073402
 31
0.0
 73
     1
 44
1.0
1001
ACAD
1000
MTEXTBEGIN
1070
    73
1070
     1
1070
    44
1040
1.0
1070
    74
1070
     0
1000
MTEXTEND
  0
SOLID
  5
1B05
330
16A4
100
AcDbEntity
  8
标注
 62
     0
390
F56
100
AcDbTrace
 10
12629.27151041906
 20
2152.513480679533
 30
0.0
 11
12632.66734422145
 21
2156.839947227022
 31
0.0
 12
12643.94882696272
 22
2144.489212546107
 32
0.0
 13
12643.94882696272
 23
2144.489212546107
 33
0.0
  0
POINT
  5
1B06
330
16A4
100
AcDbEntity
  8
Defpoints
 62
     0
390
F56
100
AcDbPoint
 10
12643.94882696272
 20
2144.489212546107
 30
0.0
  0
POINT
  5
1B07
330
16A4
100
AcDbEntity
  8
Defpoints
 62
     0
390
F56
100
AcDbPoint
 10
12604.61731289464
 20
2175.36042893147
 30
0.0
  0
ENDBLK
  5
16AB
330
16A4
100
AcDbEntity
  8
0
 62
     6
100
AcDbBlockEnd
  0
BLOCK
  5
16B2
330
16AC
100
AcDbEntity
  8
0
 62
     6
100
AcDbBlockBegin
  2
*D78
 70
     1
 10
0.0
 20
0.0
 30
0.0
  3
*D78
  1

  0
LINE
  5
1B08
330
16AC
100
AcDbEntity
  8
标注
 62
     0
370
    -2
390
F56
100
AcDbLine
 10
12167.66866873618
 20
2209.486368859462
 30
0.0
 11
12233.18070796122
 21
2153.636572837767
 31
0.0
  0
MTEXT
  5
1B09
330
16AC
100
AcDbEntity
  8
标注
 62
     0
390
F56
100
AcDbMText
 10
12204.90618706687
 20
2203.026668534961
 30
0.0
 40
25.29999999999999
 41
0.0
 46
0.0
 71
     5
 72
     1
  1
R50
 11
0.7609952051874958
 21
-0.6487575029867795
 31
0.0
 73
     1
 44
1.0
1001
ACAD
1000
MTEXTBEGIN
1070
    73
1070
     1
1070
    44
1040
1.0
1070
    74
1070
     0
1000
MTEXTEND
  0
SOLID
  5
1B0A
330
16AC
100
AcDbEntity
  8
标注
 62
     0
390
F56
100
AcDbTrace
 10
12231.39662482801
 20
2151.543836023501
 30
0.0
 11
12234.96479109443
 21
2155.729309652032
 31
0.0
 12
12245.73712884681
 22
2142.932074038485
 32
0.0
 13
12245.73712884681
 23
2142.932074038485
 33
0.0
  0
POINT
  5
1B0B
330
16AC
100
AcDbEntity
  8
Defpoints
 62
     0
390
F56
100
AcDbPoint
 10
12245.73712884681
 20
2142.932074038485
 30
0.0
  0
POINT
  5
1B0C
330
16AC
100
AcDbEntity
  8
Defpoints
 62
     0
390
F56
100
AcDbPoint
 10
12207.68736858743
 20
2175.369949187827
 30
0.0
  0
ENDBLK
  5
16B3
330
16AC
100
AcDbEntity
  8
0
 62
     6
100
AcDbBlockEnd
  0
BLOCK
  5
176A
330
1764
100
AcDbEntity
  8
0
 62
     6
100
AcDbBlockBegin
  2
*D79
 70
     1
 10
0.0
 20
0.0
 30
0.0
  3
*D79
  1

  0
LINE
  5
1790
330
1764
100
AcDbEntity
  8
标注
 62
     0
370
    -2
390
F56
100
AcDbLine
 10
10185.7876458411
 20
2273.365037001206
 30
0.0
 11
10123.04598405495
 21
2221.259568679001
 31
0.0
  0
MTEXT
  5
1791
330
1764
100
AcDbEntity
  8
标注
 62
     0
390
F56
100
AcDbMText
 10
10148.46989359505
 20
2267.386252257308
 30
0.0
 40
25.29999999999999
 41
0.0
 46
0.0
 71
     5
 72
     1
  1
R50
 11
0.7693010970000996
 21
0.6388863922126089
 31
0.0
 73
     1
 44
1.0
1001
ACAD
1000
MTEXTBEGIN
1070
    73
1070
     1
1070
    44
1040
1.0
1070
    74
1070
     0
1000
MTEXTEND
  0
SOLID
  5
1792
330
1764
100
AcDbEntity
  8
标注
 62
     0
390
F56
100
AcDbTrace
 10
10121.28904647636
 20
2223.375146695751
 30
0.0
 11
10124.80292163354
 21
2219.143990662251
 31
0.0
 12
10110.35251595445
 22
2210.717943207492
 32
0.0
 13
10110.35251595445
 23
2210.717943207492
 33
0.0
  0
POINT
  5
1793
330
1764
100
AcDbEntity
  8
Defpoints
 62
     0
390
F56
100
AcDbPoint
 10
10110.35251595445
 20
2210.717943207492
 30
0.0
  0
POINT
  5
1794
330
1764
100
AcDbEntity
  8
Defpoints
 62
     0
390
F56
100
AcDbPoint
 10
10148.81757080445
 20
2242.662262818123
 30
0.0
  0
ENDBLK
  5
176B
330
1764
100
AcDbEntity
  8
0
 62
     6
100
AcDbBlockEnd
  0
BLOCK
  5
19CC
330
19C2
100
AcDbEntity
  8
0
 62
     6
100
AcDbBlockBegin
  2
*D89
 70
     1
 10
0.0
 20
0.0
 30
0.0
  3
*D89
  1

  0
LINE
  5
1B0D
330
19C2
100
AcDbEntity
  8
标注
 62
     0
370
    -2
390
F56
100
AcDbLine
 10
13760.87294195996
 20
2861.783942226922
 30
0.0
 11
13760.87294195996
 21
2927.783942226922
 31
0.0
  0
LINE
  5
1B0E
330
19C2
100
AcDbEntity
  8
标注
 62
     0
370
    -2
390
F56
100
AcDbLine
 10
14166.87294195997
 20
2861.783942226922
 30
0.0
 11
14166.87294195997
 21
2927.783942226922
 31
0.0
  0
LINE
  5
1B0F
330
19C2
100
AcDbEntity
  8
标注
 62
     0
370
    -2
390
F56
100
AcDbLine
 10
13777.37294195996
 20
2916.783942226922
 30
0.0
 11
14150.37294195997
 21
2916.783942226922
 31
0.0
  0
SOLID
  5
1B10
330
19C2
100
AcDbEntity
  8
标注
 62
     0
390
F56
100
AcDbTrace
 10
13777.37294195996
 20
2919.533942226922
 30
0.0
 11
13777.37294195996
 21
2914.033942226922
 31
0.0
 12
13760.87294195996
 22
2916.783942226922
 32
0.0
 13
13760.87294195996
 23
2916.783942226922
 33
0.0
  0
SOLID
  5
1B11
330
19C2
100
AcDbEntity
  8
标注
 62
     0
390
F56
100
AcDbTrace
 10
14150.37294195997
 20
2914.033942226922
 30
0.0
 11
14150.37294195997
 21
2919.533942226922
 31
0.0
 12
14166.87294195997
 22
2916.783942226922
 32
0.0
 13
14166.87294195997
 23
2916.783942226922
 33
0.0
  0
MTEXT
  5
1B12
330
19C2
100
AcDbEntity
  8
标注
 62
     0
390
F56
100
AcDbMText
 10
13963.87294195997
 20
2938.78701485262
 30
0.0
 40
27.5
 41
0.0
 46
0.0
 71
     5
 72
     1
  1
\A1;406.0 [16"]
 73
     1
 44
1.0
1001
ACAD
1000
MTEXTBEGIN
1070
    73
1070
     1
1070
    44
1040
1.0
1070
    74
1070
     0
1000
MTEXTEND
  0
POINT
  5
1B13
330
19C2
100
AcDbEntity
  8
Defpoints
 62
     0
390
F56
100
AcDbPoint
 10
13760.87294195996
 20
2648.783942226903
 30
0.0
  0
POINT
  5
1B14
330
19C2
100
AcDbEntity
  8
Defpoints
 62
     0
390
F56
100
AcDbPoint
 10
14166.87294195997
 20
2648.783942226893
 30
0.0
  0
POINT
  5
1B15
330
19C2
100
AcDbEntity
  8
Defpoints
 62
     0
390
F56
100
AcDbPoint
 10
14166.87294195997
 20
2916.783942226922
 30
0.0
  0
ENDBLK
  5
19CD
330
19C2
100
AcDbEntity
  8
0
 62
     6
100
AcDbBlockEnd
  0
BLOCK
  5
19D8
330
19CE
100
AcDbEntity
  8
0
 62
     6
100
AcDbBlockBegin
  2
*D90
 70
     1
 10
0.0
 20
0.0
 30
0.0
  3
*D90
  1

  0
LINE
  5
1B16
330
19CE
100
AcDbEntity
  8
标注
 62
     0
370
    -2
390
F56
100
AcDbLine
 10
14195.91770338413
 20
2861.783942226884
 30
0.0
 11
14195.91770338413
 21
2927.783942226884
 31
0.0
  0
LINE
  5
1B17
330
19CE
100
AcDbEntity
  8
标注
 62
     0
370
    -2
390
F56
100
AcDbLine
 10
14525.91770338414
 20
2861.783942226884
 30
0.0
 11
14525.91770338414
 21
2927.783942226884
 31
0.0
  0
LINE
  5
1B18
330
19CE
100
AcDbEntity
  8
标注
 62
     0
370
    -2
390
F56
100
AcDbLine
 10
14212.41770338413
 20
2916.783942226884
 30
0.0
 11
14509.41770338414
 21
2916.783942226884
 31
0.0
  0
SOLID
  5
1B19
330
19CE
100
AcDbEntity
  8
标注
 62
     0
390
F56
100
AcDbTrace
 10
14212.41770338413
 20
2919.533942226884
 30
0.0
 11
14212.41770338413
 21
2914.033942226884
 31
0.0
 12
14195.91770338413
 22
2916.783942226884
 32
0.0
 13
14195.91770338413
 23
2916.783942226884
 33
0.0
  0
SOLID
  5
1B1A
330
19CE
100
AcDbEntity
  8
标注
 62
     0
390
F56
100
AcDbTrace
 10
14509.41770338414
 20
2914.033942226884
 30
0.0
 11
14509.41770338414
 21
2919.533942226884
 31
0.0
 12
14525.91770338414
 22
2916.783942226884
 32
0.0
 13
14525.91770338414
 23
2916.783942226884
 33
0.0
  0
MTEXT
  5
1B1B
330
19CE
100
AcDbEntity
  8
标注
 62
     0
390
F56
100
AcDbMText
 10
14360.91770338414
 20
2938.787014852582
 30
0.0
 40
27.5
 41
0.0
 46
0.0
 71
     5
 72
     1
  1
\A1;330.0 [13"]
 73
     1
 44
1.0
1001
ACAD
1000
MTEXTBEGIN
1070
    73
1070
     1
1070
    44
1040
1.0
1070
    74
1070
     0
1000
MTEXTEND
  0
POINT
  5
1B1C
330
19CE
100
AcDbEntity
  8
Defpoints
 62
     0
390
F56
100
AcDbPoint
 10
14195.91770338413
 20
2648.783942226862
 30
0.0
  0
POINT
  5
1B1D
330
19CE
100
AcDbEntity
  8
Defpoints
 62
     0
390
F56
100
AcDbPoint
 10
14525.91770338414
 20
2648.783942226842
 30
0.0
  0
POINT
  5
1B1E
330
19CE
100
AcDbEntity
  8
Defpoints
 62
     0
390
F56
100
AcDbPoint
 10
14525.91770338414
 20
2916.783942226884
 30
0.0
  0
ENDBLK
  5
19D9
330
19CE
100
AcDbEntity
  8
0
 62
     6
100
AcDbBlockEnd
  0
BLOCK
  5
19E4
330
19DA
100
AcDbEntity
  8
0
 62
     6
100
AcDbBlockBegin
  2
*D91
 70
     1
 10
0.0
 20
0.0
 30
0.0
  3
*D91
  1

  0
LINE
  5
1B1F
330
19DA
100
AcDbEntity
  8
标注
 62
     0
370
    -2
390
F56
100
AcDbLine
 10
14550.87294195996
 20
2921.783942226903
 30
0.0
 11
14550.87294195996
 21
2987.783942226903
 31
0.0
  0
LINE
  5
1B20
330
19DA
100
AcDbEntity
  8
标注
 62
     0
370
    -2
390
F56
100
AcDbLine
 10
13735.87294195996
 20
2921.783942226903
 30
0.0
 11
13735.87294195996
 21
2987.783942226903
 31
0.0
  0
LINE
  5
1B21
330
19DA
100
AcDbEntity
  8
标注
 62
     0
370
    -2
390
F56
100
AcDbLine
 10
14534.37294195996
 20
2976.783942226903
 30
0.0
 11
13752.37294195996
 21
2976.783942226903
 31
0.0
  0
SOLID
  5
1B22
330
19DA
100
AcDbEntity
  8
标注
 62
     0
390
F56
100
AcDbTrace
 10
14534.37294195996
 20
2974.033942226903
 30
0.0
 11
14534.37294195996
 21
2979.533942226903
 31
0.0
 12
14550.87294195996
 22
2976.783942226903
 32
0.0
 13
14550.87294195996
 23
2976.783942226903
 33
0.0
  0
SOLID
  5
1B23
330
19DA
100
AcDbEntity
  8
标注
 62
     0
390
F56
100
AcDbTrace
 10
13752.37294195996
 20
2979.533942226903
 30
0.0
 11
13752.37294195996
 21
2974.033942226903
 31
0.0
 12
13735.87294195996
 22
2976.783942226903
 32
0.0
 13
13735.87294195996
 23
2976.783942226903
 33
0.0
  0
MTEXT
  5
1B24
330
19DA
100
AcDbEntity
  8
标注
 62
     0
390
F56
100
AcDbMText
 10
14143.37294195996
 20
2998.787014852601
 30
0.0
 40
27.5
 41
0.0
 46
0.0
 71
     5
 72
     1
  1
\A1;815.0 [32 1/8"]
 73
     1
 44
1.0
1001
ACAD
1000
MTEXTBEGIN
1070
    73
1070
     1
1070
    44
1040
1.0
1070
    74
1070
     0
1000
MTEXTEND
  0
POINT
  5
1B25
330
19DA
100
AcDbEntity
  8
Defpoints
 62
     0
390
F56
100
AcDbPoint
 10
14550.87294195996
 20
2795.157864364949
 30
0.0
  0
POINT
  5
1B26
330
19DA
100
AcDbEntity
  8
Defpoints
 62
     0
390
F56
100
AcDbPoint
 10
13735.87294195996
 20
2794.338310546541
 30
0.0
  0
POINT
  5
1B27
330
19DA
100
AcDbEntity
  8
Defpoints
 62
     0
390
F56
100
AcDbPoint
 10
13735.87294195996
 20
2976.783942226903
 30
0.0
  0
ENDBLK
  5
19E5
330
19DA
100
AcDbEntity
  8
0
 62
     6
100
AcDbBlockEnd
  0
BLOCK
  5
19F0
330
19E6
100
AcDbEntity
  8
0
 62
     6
100
AcDbBlockBegin
  2
*D92
 70
     1
 10
0.0
 20
0.0
 30
0.0
  3
*D92
  1

  0
LINE
  5
1B28
330
19E6
100
AcDbEntity
  8
标注
 62
     0
370
    -2
390
F56
100
AcDbLine
 10
13750.87294196
 20
2851.783942226902
 30
0.0
 11
13684.87294196
 21
2851.783942226902
 31
0.0
  0
LINE
  5
1B29
330
19E6
100
AcDbEntity
  8
标注
 62
     0
370
    -2
390
F56
100
AcDbLine
 10
13750.87294196
 20
2445.783942226904
 30
0.0
 11
13684.87294196
 21
2445.783942226904
 31
0.0
  0
LINE
  5
1B2A
330
19E6
100
AcDbEntity
  8
标注
 62
     0
370
    -2
390
F56
100
AcDbLine
 10
13695.87294196
 20
2835.283942226902
 30
0.0
 11
13695.87294196
 21
2462.283942226904
 31
0.0
  0
SOLID
  5
1B2B
330
19E6
100
AcDbEntity
  8
标注
 62
     0
390
F56
100
AcDbTrace
 10
13698.62294196
 20
2835.283942226902
 30
0.0
 11
13693.12294196
 21
2835.283942226902
 31
0.0
 12
13695.87294196
 22
2851.783942226902
 32
0.0
 13
13695.87294196
 23
2851.783942226902
 33
0.0
  0
SOLID
  5
1B2C
330
19E6
100
AcDbEntity
  8
标注
 62
     0
390
F56
100
AcDbTrace
 10
13693.12294196
 20
2462.283942226904
 30
0.0
 11
13698.62294196
 21
2462.283942226904
 31
0.0
 12
13695.87294196
 22
2445.783942226904
 32
0.0
 13
13695.87294196
 23
2445.783942226904
 33
0.0
  0
MTEXT
  5
1B2D
330
19E6
100
AcDbEntity
  8
标注
 62
     0
390
F56
100
AcDbMText
 10
13673.8698693343
 20
2648.783942226903
 30
0.0
 40
27.5
 41
0.0
 46
0.0
 71
     5
 72
     1
  1
\A1;406.0 [16"]
 11
0.0
 21
1.0
 31
0.0
 73
     1
 44
1.0
1001
ACAD
1000
MTEXTBEGIN
1070
    73
1070
     1
1070
    44
1040
1.0
1070
    74
1070
     0
1000
MTEXTEND
  0
POINT
  5
1B2E
330
19E6
100
AcDbEntity
  8
Defpoints
 62
     0
390
F56
100
AcDbPoint
 10
13963.87294195996
 20
2851.783942226902
 30
0.0
  0
POINT
  5
1B2F
330
19E6
100
AcDbEntity
  8
Defpoints
 62
     0
390
F56
100
AcDbPoint
 10
13963.87294195996
 20
2445.783942226904
 30
0.0
  0
POINT
  5
1B30
330
19E6
100
AcDbEntity
  8
Defpoints
 62
     0
390
F56
100
AcDbPoint
 10
13695.87294196
 20
2445.783942226904
 30
0.0
  0
ENDBLK
  5
19F1
330
19E6
100
AcDbEntity
  8
0
 62
     6
100
AcDbBlockEnd
  0
BLOCK
  5
19FC
330
19F2
100
AcDbEntity
  8
0
 62
     6
100
AcDbBlockBegin
  2
*D93
 70
     1
 10
0.0
 20
0.0
 30
0.0
  3
*D93
  1

  0
LINE
  5
1B31
330
19F2
100
AcDbEntity
  8
标注
 62
     0
370
    -2
390
F56
100
AcDbLine
 10
13690.87294196
 20
2876.783942226903
 30
0.0
 11
13624.87294196
 21
2876.783942226903
 31
0.0
  0
LINE
  5
1B32
330
19F2
100
AcDbEntity
  8
标注
 62
     0
370
    -2
390
F56
100
AcDbLine
 10
13690.87294196
 20
2420.783942226903
 30
0.0
 11
13624.87294196
 21
2420.783942226903
 31
0.0
  0
LINE
  5
1B33
330
19F2
100
AcDbEntity
  8
标注
 62
     0
370
    -2
390
F56
100
AcDbLine
 10
13635.87294196
 20
2860.283942226903
 30
0.0
 11
13635.87294196
 21
2437.283942226903
 31
0.0
  0
SOLID
  5
1B34
330
19F2
100
AcDbEntity
  8
标注
 62
     0
390
F56
100
AcDbTrace
 10
13638.62294196
 20
2860.283942226903
 30
0.0
 11
13633.12294196
 21
2860.283942226903
 31
0.0
 12
13635.87294196
 22
2876.783942226903
 32
0.0
 13
13635.87294196
 23
2876.783942226903
 33
0.0
  0
SOLID
  5
1B35
330
19F2
100
AcDbEntity
  8
标注
 62
     0
390
F56
100
AcDbTrace
 10
13633.12294196
 20
2437.283942226903
 30
0.0
 11
13638.62294196
 21
2437.283942226903
 31
0.0
 12
13635.87294196
 22
2420.783942226903
 32
0.0
 13
13635.87294196
 23
2420.783942226903
 33
0.0
  0
MTEXT
  5
1B36
330
19F2
100
AcDbEntity
  8
标注
 62
     0
390
F56
100
AcDbMText
 10
13613.8698693343
 20
2648.783942226903
 30
0.0
 40
27.5
 41
0.0
 46
0.0
 71
     5
 72
     1
  1
\A1;456.0 [18"]
 11
0.0
 21
1.0
 31
0.0
 73
     1
 44
1.0
1001
ACAD
1000
MTEXTBEGIN
1070
    73
1070
     1
1070
    44
1040
1.0
1070
    74
1070
     0
1000
MTEXTEND
  0
POINT
  5
1B37
330
19F2
100
AcDbEntity
  8
Defpoints
 62
     0
390
F56
100
AcDbPoint
 10
13818.31857364032
 20
2876.783942226903
 30
0.0
  0
POINT
  5
1B38
330
19F2
100
AcDbEntity
  8
Defpoints
 62
     0
390
F56
100
AcDbPoint
 10
13818.31857364032
 20
2420.783942226903
 30
0.0
  0
POINT
  5
1B39
330
19F2
100
AcDbEntity
  8
Defpoints
 62
     0
390
F56
100
AcDbPoint
 10
13635.87294196
 20
2420.783942226903
 30
0.0
  0
ENDBLK
  5
19FD
330
19F2
100
AcDbEntity
  8
0
 62
     6
100
AcDbBlockEnd
  0
BLOCK
  5
1A08
330
19FE
100
AcDbEntity
  8
0
 62
     6
100
AcDbBlockBegin
  2
*D94
 70
     1
 10
0.0
 20
0.0
 30
0.0
  3
*D94
  1

  0
LINE
  5
1B3A
330
19FE
100
AcDbEntity
  8
标注
 62
     0
370
    -2
390
F56
100
AcDbLine
 10
13712.87294196
 20
2320.783942226903
 30
0.0
 11
13646.87294196
 21
2320.783942226903
 31
0.0
  0
LINE
  5
1B3B
330
19FE
100
AcDbEntity
  8
标注
 62
     0
370
    -2
390
F56
100
AcDbLine
 10
13712.87294196
 20
2091.786459157332
 30
0.0
 11
13646.87294196
 21
2091.786459157332
 31
0.0
  0
LINE
  5
1B3C
330
19FE
100
AcDbEntity
  8
标注
 62
     0
370
    -2
390
F56
100
AcDbLine
 10
13657.87294196
 20
2304.283942226903
 30
0.0
 11
13657.87294196
 21
2108.286459157332
 31
0.0
  0
SOLID
  5
1B3D
330
19FE
100
AcDbEntity
  8
标注
 62
     0
390
F56
100
AcDbTrace
 10
13660.62294196
 20
2304.283942226903
 30
0.0
 11
13655.12294196
 21
2304.283942226903
 31
0.0
 12
13657.87294196
 22
2320.783942226903
 32
0.0
 13
13657.87294196
 23
2320.783942226903
 33
0.0
  0
SOLID
  5
1B3E
330
19FE
100
AcDbEntity
  8
标注
 62
     0
390
F56
100
AcDbTrace
 10
13655.12294196
 20
2108.286459157332
 30
0.0
 11
13660.62294196
 21
2108.286459157332
 31
0.0
 12
13657.87294196
 22
2091.786459157332
 32
0.0
 13
13657.87294196
 23
2091.786459157332
 33
0.0
  0
MTEXT
  5
1B3F
330
19FE
100
AcDbEntity
  8
标注
 62
     0
390
F56
100
AcDbMText
 10
13635.8698693343
 20
2206.285200692118
 30
0.0
 40
27.5
 41
0.0
 46
0.0
 71
     5
 72
     1
  1
\A1;229.0 [9"]
 11
0.0
 21
1.0
 31
0.0
 73
     1
 44
1.0
1001
ACAD
1000
MTEXTBEGIN
1070
    73
1070
     1
1070
    44
1040
1.0
1070
    74
1070
     0
1000
MTEXTEND
  0
POINT
  5
1B40
330
19FE
100
AcDbEntity
  8
Defpoints
 62
     0
390
F56
100
AcDbPoint
 10
13735.87294195996
 20
2320.783942226903
 30
0.0
  0
POINT
  5
1B41
330
19FE
100
AcDbEntity
  8
Defpoints
 62
     0
390
F56
100
AcDbPoint
 10
13967.11982762979
 20
2091.786459157332
 30
0.0
  0
POINT
  5
1B42
330
19FE
100
AcDbEntity
  8
Defpoints
 62
     0
390
F56
100
AcDbPoint
 10
13657.87294196
 20
2091.786459157332
 30
0.0
  0
ENDBLK
  5
1A09
330
19FE
100
AcDbEntity
  8
0
 62
     6
100
AcDbBlockEnd
  0
BLOCK
  5
1A14
330
1A0A
100
AcDbEntity
  8
0
 62
     6
100
AcDbBlockBegin
  2
*D95
 70
     1
 10
0.0
 20
0.0
 30
0.0
  3
*D95
  1

  0
LINE
  5
1B43
330
1A0A
100
AcDbEntity
  8
标注
 62
     0
370
    -2
390
F56
100
AcDbLine
 10
14588.93107508056
 20
2320.783942226903
 30
0.0
 11
14654.93107508056
 21
2320.783942226903
 31
0.0
  0
LINE
  5
1B44
330
1A0A
100
AcDbEntity
  8
标注
 62
     0
370
    -2
390
F56
100
AcDbLine
 10
14588.93107508056
 20
2142.783942226906
 30
0.0
 11
14654.93107508056
 21
2142.783942226906
 31
0.0
  0
LINE
  5
1B45
330
1A0A
100
AcDbEntity
  8
标注
 62
     0
370
    -2
390
F56
100
AcDbLine
 10
14643.93107508056
 20
2304.283942226903
 30
0.0
 11
14643.93107508056
 21
2159.283942226906
 31
0.0
  0
SOLID
  5
1B46
330
1A0A
100
AcDbEntity
  8
标注
 62
     0
390
F56
100
AcDbTrace
 10
14646.68107508056
 20
2304.283942226903
 30
0.0
 11
14641.18107508056
 21
2304.283942226903
 31
0.0
 12
14643.93107508056
 22
2320.783942226903
 32
0.0
 13
14643.93107508056
 23
2320.783942226903
 33
0.0
  0
SOLID
  5
1B47
330
1A0A
100
AcDbEntity
  8
标注
 62
     0
390
F56
100
AcDbTrace
 10
14641.18107508056
 20
2159.283942226906
 30
0.0
 11
14646.68107508056
 21
2159.283942226906
 31
0.0
 12
14643.93107508056
 22
2142.783942226906
 32
0.0
 13
14643.93107508056
 23
2142.783942226906
 33
0.0
  0
MTEXT
  5
1B48
330
1A0A
100
AcDbEntity
  8
标注
 62
     0
390
F56
100
AcDbMText
 10
14621.92800245486
 20
2231.783942226905
 30
0.0
 40
27.5
 41
0.0
 46
0.0
 71
     5
 72
     1
  1
\A1;178.0 [7"]
 11
0.0
 21
1.0
 31
0.0
 73
     1
 44
1.0
1001
ACAD
1000
MTEXTBEGIN
1070
    73
1070
     1
1070
    44
1040
1.0
1070
    74
1070
     0
1000
MTEXTEND
  0
POINT
  5
1B49
330
1A0A
100
AcDbEntity
  8
Defpoints
 62
     0
390
F56
100
AcDbPoint
 10
14550.87294195996
 20
2320.783942226903
 30
0.0
  0
POINT
  5
1B4A
330
1A0A
100
AcDbEntity
  8
Defpoints
 62
     0
390
F56
100
AcDbPoint
 10
14360.91770338413
 20
2142.783942226906
 30
0.0
  0
POINT
  5
1B4B
330
1A0A
100
AcDbEntity
  8
Defpoints
 62
     0
390
F56
100
AcDbPoint
 10
14643.93107508056
 20
2142.783942226906
 30
0.0
  0
ENDBLK
  5
1A15
330
1A0A
100
AcDbEntity
  8
0
 62
     6
100
AcDbBlockEnd
  0
BLOCK
  5
1A1C
330
1A16
100
AcDbEntity
  8
0
 62
     6
100
AcDbBlockBegin
  2
*D96
 70
     1
 10
0.0
 20
0.0
 30
0.0
  3
*D96
  1

  0
LINE
  5
1B65
330
1A16
100
AcDbEntity
  8
标注
 62
     0
370
    -2
390
F56
100
AcDbLine
 10
14424.2977929632
 20
2226.867506611037
 30
0.0
 11
14494.35193969802
 21
2176.833083217287
 31
0.0
  0
MTEXT
  5
1B66
330
1A16
100
AcDbEntity
  8
标注
 62
     0
390
F56
100
AcDbMText
 10
14461.95170268532
 20
2223.620418323103
 30
0.0
 40
25.29999999999999
 41
0.0
 46
0.0
 71
     5
 72
     1
  1
R50
 11
0.8137568361376864
 21
-0.5812054814256168
 31
0.0
 73
     1
 44
1.0
1001
ACAD
1000
MTEXTBEGIN
1070
    73
1070
     1
1070
    44
1040
1.0
1070
    74
1070
     0
1000
MTEXTEND
  0
SOLID
  5
1B67
330
1A16
100
AcDbEntity
  8
标注
 62
     0
390
F56
100
AcDbTrace
 10
14492.7536246241
 20
2174.595251917909
 30
0.0
 11
14495.95025477194
 21
2179.070914516666
 31
0.0
 12
14507.77892749429
 22
2167.243192773765
 32
0.0
 13
14507.77892749429
 23
2167.243192773765
 33
0.0
  0
POINT
  5
1B68
330
1A16
100
AcDbEntity
  8
Defpoints
 62
     0
390
F56
100
AcDbPoint
 10
14507.77892749429
 20
2167.243192773765
 30
0.0
  0
POINT
  5
1B69
330
1A16
100
AcDbEntity
  8
Defpoints
 62
     0
390
F56
100
AcDbPoint
 10
14467.09108568741
 20
2196.303466845043
 30
0.0
  0
ENDBLK
  5
1A1D
330
1A16
100
AcDbEntity
  8
0
 62
     6
100
AcDbBlockEnd
  0
BLOCK
  5
1A24
330
1A1E
100
AcDbEntity
  8
0
 62
     6
100
AcDbBlockBegin
  2
*D97
 70
     1
 10
0.0
 20
0.0
 30
0.0
  3
*D97
  1

  0
LINE
  5
1B5B
330
1A1E
100
AcDbEntity
  8
标注
 62
     0
370
    -2
390
F56
100
AcDbLine
 10
14061.23274336312
 20
2176.415092067066
 30
0.0
 11
14132.18217680831
 21
2127.658503867141
 31
0.0
  0
MTEXT
  5
1B5C
330
1A1E
100
AcDbEntity
  8
标注
 62
     0
390
F56
100
AcDbMText
 10
14098.93931693173
 20
2173.85095294716
 30
0.0
 40
25.29999999999999
 41
0.0
 46
0.0
 71
     5
 72
     1
  1
R50
 11
0.8241565871134003
 21
-0.5663620043025415
 31
0.0
 73
     1
 44
1.0
1001
ACAD
1000
MTEXTBEGIN
1070
    73
1070
     1
1070
    44
1040
1.0
1070
    74
1070
     0
1000
MTEXTEND
  0
SOLID
  5
1B5D
330
1A1E
100
AcDbEntity
  8
标注
 62
     0
390
F56
100
AcDbTrace
 10
14130.62468129647
 20
2125.392073252578
 30
0.0
 11
14133.73967232014
 21
2129.924934481703
 31
0.0
 12
14145.78076049568
 22
2118.313530796149
 32
0.0
 13
14145.78076049568
 23
2118.313530796149
 33
0.0
  0
POINT
  5
1B5E
330
1A1E
100
AcDbEntity
  8
Defpoints
 62
     0
390
F56
100
AcDbPoint
 10
14145.78076049568
 20
2118.313530796149
 30
0.0
  0
POINT
  5
1B5F
330
1A1E
100
AcDbEntity
  8
Defpoints
 62
     0
390
F56
100
AcDbPoint
 10
14104.57293114001
 20
2146.631631011276
 30
0.0
  0
ENDBLK
  5
1A25
330
1A1E
100
AcDbEntity
  8
0
 62
     6
100
AcDbBlockEnd
  0
ENDSEC
  0
SECTION
  2
ENTITIES
  0
LWPOLYLINE
  5
639
102
{ACAD_REACTORS
330
63D
330
643
102
}
330
1F
100
AcDbEntity
  8
开孔尺寸-2线
  6
ACAD_ISO03W100
100
AcDbPolyline
 90
       12
 70
     1
 43
0.0
 10
11460.78017335664
 20
975.0315237572554
 42
0.0292316360073065
 10
11548.44913315886
 20
980.1615601187673
 42
0.3553619487026863
 10
11632.28436585593
 20
1065.875498183095
 42
0.0466218704728302
 10
11632.28436585586
 20
1280.187549332194
 42
0.3553619487006378
 10
11548.44913315876
 20
1365.901487395751
 42
0.0292316382316199
 10
11460.78016667417
 20
1371.031523757273
 10
11058.78018020061
 20
1371.031523757255
 42
0.0292316382316497
 10
10971.11122724236
 20
1365.901487395743
 42
0.355361948702681
 10
10887.27599454529
 20
1280.187549331423
 42
0.0466218704724789
 10
10887.27599454522
 20
1065.875498183935
 42
0.3553619487052976
 10
10971.1112272424
 20
980.1615601187636
 42
0.0292316382316399
 10
11058.78019372706
 20
975.0315237572372
  0
LWPOLYLINE
  5
63A
102
{ACAD_REACTORS
330
640
330
646
102
}
330
1F
100
AcDbEntity
  8
开孔尺寸-2线
100
AcDbPolyline
 90
       13
 70
     0
 43
0.0
 10
11460.78020725352
 20
960.0315237572917
 42
0.0292238055597398
 10
11550.17474503182
 20
965.261129640659
 42
0.3552618651114656
 10
11647.22047656254
 20
1064.49247431661
 42
0.0466164358744001
 10
11647.22047656238
 20
1281.57057319956
 42
0.3552618651066789
 10
11550.17474503202
 20
1380.80191787383
 42
0.0292238055598056
 10
11460.78020725352
 20
1386.031523757219
 10
11058.78018020061
 20
1386.031523757255
 42
0.0292238055599562
 10
10969.38561536874
 20
1380.801917873775
 42
0.3552618651098051
 10
10872.33988383869
 20
1281.570573197886
 42
0.0466164358739003
 10
10872.33988383863
 20
1064.492474317253
 42
0.3552618651125172
 10
10969.38561536917
 20
965.2611296406844
 42
0.0292238055598156
 10
11058.78015314771
 20
960.0315237572917
 10
11460.78018020062
 20
960.0315237572553
  0
DIMENSION
  5
63B
102
{ACAD_XDICTIONARY
360
63C
102
}
102
{ACAD_REACTORS
330
63D
102
}
330
1F
100
AcDbEntity
  8
开孔尺寸-2线
100
AcDbDimension
280
     0
  2
*D24
 10
11637.28018020061
 20
1426.473121564222
 30
0.0
 11
11259.78018020064
 21
1426.473121564222
 31
0.0
 70
   160
 71
     5
 42
755.0000000000036
 73
     0
 74
     0
 75
     0
  3
1-11-L
100
AcDbAlignedDimension
 13
10882.28018020061
 23
1173.031523757681
 33
0.0
 14
11637.28018020061
 24
1173.031523757255
 34
0.0
 50
0.0
100
AcDbRotatedDimension
1001
ACAD
1000
DSTYLE
1002
{
1070
    50
1040
1.570796326794896
1070
   345
1005
14
1002
}
1001
ACAD_DSTYLE_DIMEXT_ENABLED
1070
   383
1070
     1
1001
ACAD_DSTYLE_DIMEXT_LENGTH
1070
   378
1040
5.0
  0
DIMENSION
  5
63E
102
{ACAD_XDICTIONARY
360
63F
102
}
102
{ACAD_REACTORS
330
640
102
}
330
1F
100
AcDbEntity
  8
开孔尺寸-2线
100
AcDbDimension
280
     0
  2
*D25
 10
11652.28018020062
 20
1474.194483532626
 30
0.0
 11
11259.78018020061
 21
1474.194483532626
 31
0.0
 70
   160
 71
     5
 42
785.0000000000036
 73
     0
 74
     0
 75
     0
  3
1-11-L
100
AcDbAlignedDimension
 13
10867.28018020061
 23
1173.031523757255
 33
0.0
 14
11652.28018020062
 24
1173.031523757248
 34
0.0
 50
0.0
100
AcDbRotatedDimension
1001
ACAD
1000
DSTYLE
1002
{
1070
    50
1040
1.570796326794896
1070
   345
1005
14
1002
}
1001
ACAD_DSTYLE_DIMEXT_ENABLED
1070
   383
1070
     1
1001
ACAD_DSTYLE_DIMEXT_LENGTH
1070
   378
1040
5.0
  0
DIMENSION
  5
641
102
{ACAD_XDICTIONARY
360
642
102
}
102
{ACAD_REACTORS
330
643
102
}
330
1F
100
AcDbEntity
  8
开孔尺寸-2线
100
AcDbDimension
280
     0
  2
*D26
 10
10821.7584071992
 20
975.0315237572463
 30
0.0
 11
10802.51608876345
 21
1173.031523757255
 31
0.0
 70
    32
 71
     5
 42
396.0000000000182
 73
     0
 74
     0
 75
     0
  3
1-11-L
100
AcDbAlignedDimension
 13
11259.78018020061
 23
1371.031523757264
 33
0.0
 14
11259.78018354185
 24
975.0315237572463
 34
0.0
 50
90.0
100
AcDbRotatedDimension
1001
ACAD
1000
DSTYLE
1002
{
1070
    50
1040
1.570796326794896
1070
   345
1005
14
1002
}
1001
ACAD_DSTYLE_DIMEXT_ENABLED
1070
   383
1070
     1
1001
ACAD_DSTYLE_DIMEXT_LENGTH
1070
   378
1040
5.0
  0
DIMENSION
  5
644
102
{ACAD_XDICTIONARY
360
645
102
}
102
{ACAD_REACTORS
330
646
102
}
330
1F
100
AcDbEntity
  8
开孔尺寸-2线
100
AcDbDimension
280
     0
  2
*D27
 10
10770.1084970722
 20
960.0315237572736
 30
0.0
 11
10750.86617863644
 21
1173.031523757255
 31
0.0
 70
    32
 71
     5
 42
425.9999999999635
 73
     0
 74
     0
 75
     0
  3
1-11-L
100
AcDbAlignedDimension
 13
11259.78019372706
 23
1386.031523757237
 33
0.0
 14
11259.78016667416
 24
960.0315237572736
 34
0.0
 50
90.0
100
AcDbRotatedDimension
1001
ACAD
1000
DSTYLE
1002
{
1070
    50
1040
1.570796326794896
1070
   345
1005
14
1002
}
1001
ACAD_DSTYLE_DIMEXT_ENABLED
1070
   383
1070
     1
1001
ACAD_DSTYLE_DIMEXT_LENGTH
1070
   378
1040
5.0
  0
MTEXT
  5
647
330
1F
100
AcDbEntity
  8
开孔尺寸-2线
100
AcDbMText
 10
11159.11726362468
 20
1308.105161833152
 30
0.0
 40
20.0
 41
219.327528190006
 46
0.0
 71
     1
 72
     5
  1
{\fSimSun|b0|i0|c134|p2;压齿线}
 73
     1
 44
1.0
1001
ACAD
1000
MTEXTBEGIN
1070
    73
1070
     1
1070
    44
1040
1.0
1070
    74
1070
     0
1000
MTEXTEND
  0
MTEXT
  5
648
330
1F
100
AcDbEntity
  8
开孔尺寸-2线
100
AcDbMText
 10
11188.6872969822
 20
1204.105159144279
 30
0.0
 40
20.0
 41
219.327528190006
 46
0.0
 71
     1
 72
     5
  1
{\fSimSun|b0|i0|c134|p2;有}
 73
     1
 44
1.0
1001
ACAD
1000
MTEXTBEGIN
1070
    73
1070
     1
1070
    44
1040
1.0
1070
    74
1070
     0
1000
MTEXTEND
  0
MTEXT
  5
649
330
1F
100
AcDbEntity
  8
开孔尺寸-2线
100
AcDbMText
 10
11024.60586958904
 20
1104.087767063588
 30
0.0
 40
20.0
 41
481.9053118004157
 46
0.0
 71
     1
 72
     5
  1
{\fSimSun|b0|i0|c134|p2;15111239-01  与VS3218\\VP6040共用}
 73
     1
 44
1.0
1001
ACAD
1000
ACAD_MTEXT_COLUMN_INFO_BEGIN
1070
    75
1070
     2
1070
    79
1070
     0
1070
    76
1070
     1
1070
    78
1070
     0
1070
    48
1040
481.9053118004157
1070
    49
1040
0.0
1070
    50
1070
     1
1040
103.0578504862581
1000
ACAD_MTEXT_COLUMN_INFO_END
1000
MTEXTBEGIN
1070
    73
1070
     1
1070
    44
1040
1.0
1070
    74
1070
     0
1000
MTEXTEND
  0
LWPOLYLINE
  5
13AE
102
{ACAD_REACTORS
330
13D2
330
13D8
102
}
330
1F
100
AcDbEntity
  8
外框线1
100
AcDbPolyline
 90
       12
 70
     1
 43
0.0
 10
10652.73474852854
 20
2522.232438669397
 42
0.0292289367346908
 10
10740.97873694548
 20
2527.395645002807
 42
0.3553259945361586
 10
10829.2176465629
 20
2617.615499260379
 42
0.0466200023266847
 10
10829.2176465629
 20
2832.849378078414
 42
0.3553259945361586
 10
10740.97873694548
 20
2923.069232335985
 42
0.0292289367346909
 10
10652.73474852854
 20
2928.232438669397
 10
10250.73474852853
 20
2928.232438669397
 42
0.0292289367346908
 10
10162.49076011158
 20
2923.069232335985
 42
0.3553259945361586
 10
10074.25185049417
 20
2832.849378078414
 42
0.0466200023266847
 10
10074.25185049417
 20
2617.615499260379
 42
0.3553259945361586
 10
10162.49076011158
 20
2527.395645002807
 42
0.0292289367346908
 10
10250.73474852853
 20
2522.232438669397
  0
LWPOLYLINE
  5
13AF
330
1F
100
AcDbEntity
  8
外框线1
100
AcDbPolyline
 90
        2
 70
     0
 43
0.0
 10
10652.73474852854
 20
2953.232438669397
 10
10250.73474852853
 20
2953.232438669397
  0
LWPOLYLINE
  5
13B0
330
1F
100
AcDbEntity
  8
外框线1
100
AcDbPolyline
 90
        2
 70
     0
 43
0.0
 10
10044.23478892388
 20
2723.547031441691
 42
0.0001284052167933
 10
10044.23478892388
 20
2722.917845889775
 42
0.0001284052167933
  0
LWPOLYLINE
  5
13B1
330
1F
100
AcDbEntity
  8
外框线1
100
AcDbPolyline
 90
        2
 70
     0
 43
0.0
 10
10859.23470813316
 20
2722.917845861632
 42
0.0001284052297671
 10
10859.23470813316
 20
2723.547031477118
 42
0.0001284052297671
  0
CIRCLE
  5
13B2
330
1F
100
AcDbEntity
  8
外框线1
100
AcDbCircle
 10
10451.73474852854
 20
2788.232438669397
 30
0.0
 40
45.0
  0
CIRCLE
  5
13B3
330
1F
100
AcDbEntity
  8
外框线1
100
AcDbCircle
 10
10451.73474852854
 20
2788.232438669397
 30
0.0
 40
57.0
  0
LINE
  5
13B4
330
1F
100
AcDbEntity
  8
切角线
100
AcDbLine
 10
10044.23478892388
 20
2870.796856215058
 30
0.0
 11
10044.23478892388
 21
2579.608341136498
 31
0.0
  0
LINE
  5
13B5
330
1F
100
AcDbEntity
  8
切角线
100
AcDbLine
 10
10859.23470813316
 20
2870.796856215058
 30
0.0
 11
10859.23470813316
 21
2579.608341136498
 31
0.0
  0
LINE
  5
13B6
102
{ACAD_REACTORS
330
13D5
102
}
330
1F
100
AcDbEntity
  8
切角线
100
AcDbLine
 10
10819.11704593473
 20
2910.9145184135
 30
0.0
 11
10859.23470813316
 21
2870.796856215058
 31
0.0
  0
LINE
  5
13B7
330
1F
100
AcDbEntity
  8
切角线
100
AcDbLine
 10
10819.11704593473
 20
2910.9145184135
 30
0.0
 11
10776.79912567883
 21
2953.232438669397
 31
0.0
  0
LINE
  5
13B8
102
{ACAD_REACTORS
330
13D5
102
}
330
1F
100
AcDbEntity
  8
切角线
100
AcDbLine
 10
10084.35245112233
 20
2910.9145184135
 30
0.0
 11
10044.23478892388
 21
2870.796856215058
 31
0.0
  0
LINE
  5
13B9
330
1F
100
AcDbEntity
  8
切角线
100
AcDbLine
 10
10084.35245112233
 20
2910.9145184135
 30
0.0
 11
10126.67037137823
 21
2953.232438669397
 31
0.0
  0
LINE
  5
13BA
102
{ACAD_REACTORS
330
13DB
102
}
330
1F
100
AcDbEntity
  8
切角线
100
AcDbLine
 10
10776.79912567883
 20
2953.232438669397
 30
0.0
 11
10126.67037137823
 21
2953.232438669397
 31
0.0
  0
LINE
  5
13BB
330
1F
100
AcDbEntity
  8
外框线1
100
AcDbLine
 10
10069.55831602687
 20
2392.579287524388
 30
0.0
 11
10081.3281948596
 21
2223.319317195705
 31
0.0
  0
LINE
  5
13BC
102
{ACAD_REACTORS
330
13DE
102
}
330
1F
100
AcDbEntity
  8
外框线1
100
AcDbLine
 10
10044.23478892388
 20
2397.232438669396
 30
0.0
 11
10859.23470813316
 21
2397.232438669396
 31
0.0
  0
ARC
  5
13BD
330
1F
100
AcDbEntity
  8
外框线1
100
AcDbCircle
 10
10064.5703609477
 20
2392.232438669396
 30
0.0
 40
5.0
100
AcDbArc
 50
3.977789761612681
 51
90.0
  0
ARC
  5
13BE
330
1F
100
AcDbEntity
  8
外框线1
100
AcDbCircle
 10
10453.23448370903
 20
17968.61958624955
 30
0.0
 40
15795.12524642808
100
AcDbArc
 50
268.8280779434289
 51
271.1609893816261
  0
ARC
  5
13BF
330
1F
100
AcDbEntity
  8
外框线1
100
AcDbCircle
 10
10772.25749852434
 20
2226.726646017583
 30
0.0
 40
50.0
100
AcDbArc
 50
271.1609893816261
 51
356.0222102384913
  0
ARC
  5
13C0
330
1F
100
AcDbEntity
  8
外框线1
100
AcDbCircle
 10
10131.20774565127
 20
2226.787805745649
 30
0.0
 40
50.0
100
AcDbArc
 50
183.9777897615087
 51
268.8280779434289
  0
LINE
  5
13C1
330
1F
100
AcDbEntity
  8
外框线1
100
AcDbLine
 10
10393.23474852164
 20
2173.573926735133
 30
0.0
 11
10513.23474852164
 21
2173.573926735133
 31
0.0
  0
LINE
  5
13C2
330
1F
100
AcDbEntity
  8
外框线1
100
AcDbLine
 10
10396.23474852163
 20
2170.934082025475
 30
0.0
 11
10408.23474852163
 21
2168.832438669402
 31
0.0
  0
LINE
  5
13C3
330
1F
100
AcDbEntity
  8
外框线1
100
AcDbLine
 10
10393.23474852164
 20
2173.573926735133
 30
0.0
 11
10396.23474852163
 21
2170.934082025475
 31
0.0
  0
LINE
  5
13C4
330
1F
100
AcDbEntity
  8
外框线1
100
AcDbLine
 10
10396.23474852163
 20
2170.934082025475
 30
0.0
 11
10510.23474852164
 21
2170.934082025475
 31
0.0
  0
LINE
  5
13C5
330
1F
100
AcDbEntity
  8
外框线1
100
AcDbLine
 10
10408.23474852163
 20
2168.832438669402
 30
0.0
 11
10498.23474852165
 21
2168.832438669402
 31
0.0
  0
LINE
  5
13C6
330
1F
100
AcDbEntity
  8
外框线1
100
AcDbLine
 10
10510.23474852166
 20
2170.934082025475
 30
0.0
 11
10498.23474852165
 21
2168.832438669402
 31
0.0
  0
LINE
  5
13C7
330
1F
100
AcDbEntity
  8
外框线1
100
AcDbLine
 10
10513.23474852164
 20
2173.573926735133
 30
0.0
 11
10510.23474852166
 21
2170.934082025475
 31
0.0
  0
LINE
  5
13C8
330
1F
100
AcDbEntity
  8
外框线1
100
AcDbLine
 10
10833.91118103022
 20
2392.579287524373
 30
0.0
 11
10822.13704931602
 21
2223.258157467635
 31
0.0
  0
ARC
  5
13C9
330
1F
100
AcDbEntity
  8
外框线1
100
AcDbCircle
 10
10838.89913610938
 20
2392.232438669382
 30
0.0
 40
5.0
100
AcDbArc
 50
90.0
 51
176.0222102383873
  0
LINE
  5
13CA
330
1F
100
AcDbEntity
  8
切角线
100
AcDbLine
 10
10776.79912567883
 20
2497.232438669396
 30
0.0
 11
10126.67037137823
 21
2497.232438669396
 31
0.0
  0
LINE
  5
13CB
330
1F
100
AcDbEntity
  8
切角线
100
AcDbLine
 10
10819.11704593473
 20
2539.550358925293
 30
0.0
 11
10859.23470813316
 21
2579.668021123735
 31
0.0
  0
LINE
  5
13CC
330
1F
100
AcDbEntity
  8
切角线
100
AcDbLine
 10
10819.11704593473
 20
2539.550358925293
 30
0.0
 11
10776.79912567883
 21
2497.232438669396
 31
0.0
  0
LINE
  5
13CD
330
1F
100
AcDbEntity
  8
切角线
100
AcDbLine
 10
10084.35245112233
 20
2539.550358925293
 30
0.0
 11
10044.23478892388
 21
2579.668021123735
 31
0.0
  0
LINE
  5
13CE
102
{ACAD_REACTORS
330
13DB
102
}
330
1F
100
AcDbEntity
  8
切角线
100
AcDbLine
 10
10084.35245112233
 20
2539.550358925293
 30
0.0
 11
10126.67037137823
 21
2497.232438669396
 31
0.0
  0
CIRCLE
  5
13CF
330
1F
100
AcDbEntity
  8
标注
100
AcDbCircle
 10
10451.73474852854
 20
2788.232438669397
 30
0.0
 40
60.0
  0
DIMENSION
  5
13D0
102
{ACAD_XDICTIONARY
360
13D1
102
}
102
{ACAD_REACTORS
330
13D2
102
}
330
1F
100
AcDbEntity
  8
标注
 62
     1
100
AcDbDimension
280
     0
  2
*D58
 10
10834.23474852854
 20
2993.232438669397
 30
0.0
 11
10451.73474852854
 21
3015.235511295095
 31
0.0
 70
    32
 71
     5
 42
765.0000000000073
 73
     0
 74
     0
 75
     0
  3
B-英寸
100
AcDbAlignedDimension
 13
10069.23474852853
 23
2725.232438669396
 33
0.0
 14
10834.23474852854
 24
2725.232438669396
 34
0.0
 50
0.0
100
AcDbRotatedDimension
1001
ACAD_DSTYLE_DIMJOGGED_JOGANGLE_SYMBOL
1070
   384
1040
1.570796326794896
1001
ACAD_DSTYLE_DIMEXT_ENABLED
1070
   383
1070
     1
1001
ACAD_DSTYLE_DIMEXT_LENGTH
1070
   378
1040
5.0
  0
DIMENSION
  5
13D3
102
{ACAD_XDICTIONARY
360
13D4
102
}
102
{ACAD_REACTORS
330
13D5
102
}
330
1F
100
AcDbEntity
  8
标注
 62
     1
100
AcDbDimension
280
     0
  2
*D59
 10
10859.23470813316
 20
3053.232438669397
 30
0.0
 11
10451.73474852852
 21
3075.235511295094
 31
0.0
 70
    32
 71
     5
 42
814.9999192092801
 73
     0
 74
     0
 75
     0
  3
B-英寸
100
AcDbAlignedDimension
 13
10044.23478892388
 23
2870.796856215058
 33
0.0
 14
10859.23470813316
 24
2870.796856215058
 34
0.0
 50
0.0
100
AcDbRotatedDimension
1001
ACAD_DSTYLE_DIMJOGGED_JOGANGLE_SYMBOL
1070
   384
1040
1.570796326794896
1001
ACAD_DSTYLE_DIMEXT_ENABLED
1070
   383
1070
     1
1001
ACAD_DSTYLE_DIMEXT_LENGTH
1070
   378
1040
5.0
  0
DIMENSION
  5
13D6
102
{ACAD_XDICTIONARY
360
13D7
102
}
102
{ACAD_REACTORS
330
13D8
102
}
330
1F
100
AcDbEntity
  8
标注
 62
     1
100
AcDbDimension
280
     0
  2
*D60
 10
10004.23478892391
 20
2522.232438669397
 30
0.0
 11
9982.231716298215
 21
2725.232438669396
 31
0.0
 70
    32
 71
     5
 42
406.0
 73
     0
 74
     0
 75
     0
  3
B-英寸
100
AcDbAlignedDimension
 13
10451.73474852854
 23
2928.232438669397
 33
0.0
 14
10451.73474852854
 24
2522.232438669397
 34
0.0
 50
90.0
100
AcDbRotatedDimension
1001
ACAD_DSTYLE_DIMJOGGED_JOGANGLE_SYMBOL
1070
   384
1040
1.570796326794896
1001
ACAD_DSTYLE_DIMEXT_ENABLED
1070
   383
1070
     1
1001
ACAD_DSTYLE_DIMEXT_LENGTH
1070
   378
1040
5.0
  0
DIMENSION
  5
13D9
102
{ACAD_XDICTIONARY
360
13DA
102
}
102
{ACAD_REACTORS
330
13DB
102
}
330
1F
100
AcDbEntity
  8
标注
 62
     1
100
AcDbDimension
280
     0
  2
*D61
 10
9944.234788923916
 20
2497.232438669396
 30
0.0
 11
9922.231716298217
 21
2725.232438669396
 31
0.0
 70
    32
 71
     5
 42
456.0
 73
     0
 74
     0
 75
     0
  3
B-英寸
100
AcDbAlignedDimension
 13
10126.67037137823
 23
2953.232438669397
 33
0.0
 14
10126.67037137823
 24
2497.232438669396
 34
0.0
 50
90.0
100
AcDbRotatedDimension
1001
ACAD_DSTYLE_DIMJOGGED_JOGANGLE_SYMBOL
1070
   384
1040
1.570796326794896
1001
ACAD_DSTYLE_DIMEXT_ENABLED
1070
   383
1070
     1
1001
ACAD_DSTYLE_DIMEXT_LENGTH
1070
   378
1040
5.0
  0
DIMENSION
  5
13DC
102
{ACAD_XDICTIONARY
360
13DD
102
}
102
{ACAD_REACTORS
330
13DE
102
}
330
1F
100
AcDbEntity
  8
标注
 62
     1
100
AcDbDimension
280
     0
  2
*D62
 10
9966.234788923923
 20
2168.832438669402
 30
0.0
 11
9944.231716298224
 21
2283.032438669399
 31
0.0
 70
    32
 71
     5
 42
228.3999999999942
 73
     0
 74
     0
 75
     0
  3
B-英寸
100
AcDbAlignedDimension
 13
10044.23478892388
 23
2397.232438669396
 33
0.0
 14
10453.23474852164
 24
2168.832438669402
 34
0.0
 50
90.0
100
AcDbRotatedDimension
1001
ACAD
1000
DSTYLE
1002
{
1070
   271
1070
     0
1002
}
1001
ACAD_DSTYLE_DIMJOGGED_JOGANGLE_SYMBOL
1070
   384
1040
1.570796326794896
1001
ACAD_DSTYLE_DIMEXT_ENABLED
1070
   383
1070
     1
1001
ACAD_DSTYLE_DIMEXT_LENGTH
1070
   378
1040
5.0
  0
DIMENSION
  5
162F
330
1F
100
AcDbEntity
  8
标注
 62
     1
100
AcDbDimension
280
     0
  2
*D71
 10
11836.90049830075
 20
2496.221807744822
 30
0.0
 11
11814.89742567505
 21
2699.221807744821
 31
0.0
 70
    32
 71
     5
 42
405.999999999998
 73
     0
 74
     0
 75
     0
  3
B-英寸
100
AcDbAlignedDimension
 13
12086.90045790537
 23
2902.22180774482
 33
0.0
 14
12086.90045790537
 24
2496.221807744822
 34
0.0
 50
90.0
100
AcDbRotatedDimension
1001
ACAD_DSTYLE_DIMJOGGED_JOGANGLE_SYMBOL
1070
   384
1040
1.570796326794896
1001
ACAD_DSTYLE_DIMEXT_ENABLED
1070
   383
1070
     1
1001
ACAD_DSTYLE_DIMEXT_LENGTH
1070
   378
1040
5.0
  0
DIMENSION
  5
1630
330
1F
100
AcDbEntity
  8
标注
 62
     1
100
AcDbDimension
280
     0
  2
*D72
 10
11776.90049830075
 20
2471.222127757601
 30
0.0
 11
11754.89742567505
 21
2699.221967751221
 31
0.0
 70
    32
 71
     5
 42
455.9996799872386
 73
     0
 74
     0
 75
     0
  3
B-英寸
100
AcDbAlignedDimension
 13
11959.40063391684
 23
2927.22180774484
 33
0.0
 14
11959.40063391684
 24
2471.222127757601
 34
0.0
 50
90.0
100
AcDbRotatedDimension
1001
ACAD_DSTYLE_DIMJOGGED_JOGANGLE_SYMBOL
1070
   384
1040
1.570796326794896
1001
ACAD_DSTYLE_DIMEXT_ENABLED
1070
   383
1070
     1
1001
ACAD_DSTYLE_DIMEXT_LENGTH
1070
   378
1040
5.0
  0
DIMENSION
  5
1631
330
1F
100
AcDbEntity
  8
标注
 62
     1
100
AcDbDimension
280
     0
  2
*D73
 10
12269.90037277958
 20
2967.221807744838
 30
0.0
 11
12085.90043513106
 21
2989.224880370536
 31
0.0
 70
    32
 71
     5
 42
367.9998752970423
 73
     0
 74
     0
 75
     0
  3
B-英寸
100
AcDbAlignedDimension
 13
11901.90049748254
 23
2699.191943833472
 33
0.0
 14
12269.90037277958
 24
2699.050760275735
 34
0.0
 50
0.0
100
AcDbRotatedDimension
1001
ACAD_DSTYLE_DIMJOGGED_JOGANGLE_SYMBOL
1070
   384
1040
1.570796326794896
1001
ACAD_DSTYLE_DIMEXT_ENABLED
1070
   383
1070
     1
1001
ACAD_DSTYLE_DIMEXT_LENGTH
1070
   378
1040
5.0
  0
DIMENSION
  5
1632
330
1F
100
AcDbEntity
  8
标注
 62
     1
100
AcDbDimension
280
     0
  2
*D74
 10
12666.90037277958
 20
2967.221807744834
 30
0.0
 11
12482.90043513106
 21
2989.224880370533
 31
0.0
 70
    32
 71
     5
 42
367.9998752970423
 73
     0
 74
     0
 75
     0
  3
B-英寸
100
AcDbAlignedDimension
 13
12298.90049748254
 23
2699.191943833472
 33
0.0
 14
12666.90037277958
 24
2699.050760275735
 34
0.0
 50
0.0
100
AcDbRotatedDimension
1001
ACAD_DSTYLE_DIMJOGGED_JOGANGLE_SYMBOL
1070
   384
1040
1.570796326794896
1001
ACAD_DSTYLE_DIMEXT_ENABLED
1070
   383
1070
     1
1001
ACAD_DSTYLE_DIMEXT_LENGTH
1070
   378
1040
5.0
  0
DIMENSION
  5
1633
330
1F
100
AcDbEntity
  8
标注
 62
     1
100
AcDbDimension
280
     0
  2
*D75
 10
12691.90041751001
 20
3027.221807744836
 30
0.0
 11
12284.40045790537
 21
3049.224880370534
 31
0.0
 70
    32
 71
     5
 42
814.9999192092801
 73
     0
 74
     0
 75
     0
  3
B-英寸
100
AcDbAlignedDimension
 13
11876.90049830073
 23
2844.721672128775
 33
0.0
 14
12691.90041751001
 24
2844.721672128775
 34
0.0
 50
0.0
100
AcDbRotatedDimension
1001
ACAD_DSTYLE_DIMJOGGED_JOGANGLE_SYMBOL
1070
   384
1040
1.570796326794896
1001
ACAD_DSTYLE_DIMEXT_ENABLED
1070
   383
1070
     1
1001
ACAD_DSTYLE_DIMEXT_LENGTH
1070
   378
1040
5.0
  0
DIMENSION
  5
1634
330
1F
100
AcDbEntity
  8
标注
 62
     1
100
AcDbDimension
280
     0
  2
*D76
 10
11798.90049830075
 20
2120.26764745055
 30
0.0
 11
11776.89742567505
 21
2234.76746329688
 31
0.0
 70
    32
 71
     5
 42
228.9996316926608
 73
     0
 74
     0
 75
     0
  3
B-英寸
100
AcDbAlignedDimension
 13
11876.90049830073
 23
2349.26727914321
 33
0.0
 14
12085.85558044595
 24
2120.26764745055
 34
0.0
 50
90.0
100
AcDbRotatedDimension
1001
ACAD_DSTYLE_DIMJOGGED_JOGANGLE_SYMBOL
1070
   384
1040
1.570796326794896
1001
ACAD_DSTYLE_DIMEXT_ENABLED
1070
   383
1070
     1
1001
ACAD_DSTYLE_DIMEXT_LENGTH
1070
   378
1040
5.0
  0
DIMENSION
  5
1635
330
1F
100
AcDbEntity
  8
标注
 62
     1
100
AcDbDimension
280
     0
  2
*D77
 10
12604.61731289464
 20
2175.36042893147
 30
0.0
 11
12588.83831969044
 21
2187.745324989801
 31
0.0
 70
   164
 71
     5
 42
49.99999999999411
 73
     0
 74
     0
 75
     0
  3
1-11-L
100
AcDbRadialDimension
 15
12643.94882696272
 25
2144.489212546107
 35
0.0
 40
0.0
1001
ACAD
1000
DSTYLE
1002
{
1070
   288
1070
     1
1002
}
1001
ACAD_DSTYLE_DIMRADIAL_EXTENSION
1070
   387
1070
     1
1070
   388
1040
-1.486431930497199
1070
   390
1040
-0.0698133686055569
1001
ACAD_DSTYLE_DIMEXT_ENABLED
1070
   383
1070
     1
1001
ACAD_DSTYLE_DIMEXT_LENGTH
1070
   378
1040
5.0
  0
DIMENSION
  5
1636
330
1F
100
AcDbEntity
  8
标注
 62
     1
100
AcDbDimension
280
     0
  2
*D78
 10
12207.68736858743
 20
2175.369949187827
 30
0.0
 11
12192.42258860682
 21
2188.383356468663
 31
0.0
 70
   164
 71
     5
 42
50.00000000000511
 73
     0
 74
     0
 75
     0
  3
1-11-L
100
AcDbRadialDimension
 15
12245.73712884681
 25
2142.932074038485
 35
0.0
 40
0.0
1001
ACAD
1000
DSTYLE
1002
{
1070
   288
1070
     1
1002
}
1001
ACAD_DSTYLE_DIMRADIAL_EXTENSION
1070
   387
1070
     1
1070
   388
1040
-1.486356088142194
1070
   390
1040
-0.069425528292291
1001
ACAD_DSTYLE_DIMEXT_ENABLED
1070
   383
1070
     1
1001
ACAD_DSTYLE_DIMEXT_LENGTH
1070
   378
1040
5.0
  0
LWPOLYLINE
  5
1637
330
1F
100
AcDbEntity
  8
外框线1
100
AcDbPolyline
 90
        2
 70
     0
 43
0.0
 10
11876.90049830073
 20
2697.91473311484
 42
0.0001284052312824
 10
11876.90049830073
 20
2697.285547491933
 42
0.0001284052312824
  0
CIRCLE
  5
1638
330
1F
100
AcDbEntity
  8
外框线1
100
AcDbCircle
 10
12085.90045790537
 20
2762.221807744818
 30
0.0
 40
45.0
  0
CIRCLE
  5
1639
330
1F
100
AcDbEntity
  8
外框线1
100
AcDbCircle
 10
12085.90045790537
 20
2762.221807744818
 30
0.0
 40
57.0
  0
LWPOLYLINE
  5
163A
330
1F
100
AcDbEntity
  8
外框线1
100
AcDbPolyline
 90
        2
 70
     0
 43
0.0
 10
12691.9462127267
 20
2698.396208811812
 42
-0.0001284052327929
 10
12691.9462127267
 20
2697.767023181512
 42
-0.0001284052327929
  0
LINE
  5
163B
330
1F
100
AcDbEntity
  8
外框线1
100
AcDbLine
 10
11902.2240254068
 20
2344.614127998166
 30
0.0
 11
11914.34937881358
 21
2170.242158072039
 31
0.0
  0
LINE
  5
163C
330
1F
100
AcDbEntity
  8
外框线1
100
AcDbLine
 10
11876.90049830073
 20
2349.26727914321
 30
0.0
 11
12691.90041751001
 21
2349.267279143182
 31
0.0
  0
ARC
  5
163D
330
1F
100
AcDbEntity
  8
外框线1
100
AcDbCircle
 10
12671.56276930215
 20
2344.267279143181
 30
0.0
 40
5.0
100
AcDbArc
 50
90.0
 51
175.9999886253127
  0
ARC
  5
163E
330
1F
100
AcDbEntity
  8
外框线1
100
AcDbCircle
 10
11897.23607032763
 20
2344.267279143181
 30
0.0
 40
5.0
100
AcDbArc
 50
3.977789762035727
 51
90.0
  0
LINE
  5
163F
330
1F
100
AcDbEntity
  8
外框线1
100
AcDbLine
 10
12269.5768893901
 20
2344.61412799818
 30
0.0
 11
12257.45189115142
 21
2170.247265664568
 31
0.0
  0
CIRCLE
  5
1640
330
1F
100
AcDbEntity
  8
外框线1
100
AcDbCircle
 10
12482.90045790537
 20
2762.221807744818
 30
0.0
 40
45.0
  0
CIRCLE
  5
1641
330
1F
100
AcDbEntity
  8
外框线1
100
AcDbCircle
 10
12482.90045790537
 20
2762.221807744818
 30
0.0
 40
57.0
  0
LINE
  5
1642
330
1F
100
AcDbEntity
  8
外框线1
100
AcDbLine
 10
12028.90045790633
 20
2117.627794298138
 30
0.0
 11
12040.90045790633
 21
2115.52615094208
 31
0.0
  0
LINE
  5
1643
330
1F
100
AcDbEntity
  8
外框线1
100
AcDbLine
 10
12024.94192476573
 20
2121.111098554566
 30
0.0
 11
12028.90045790633
 21
2117.627794298138
 31
0.0
  0
LINE
  5
1644
330
1F
100
AcDbEntity
  8
外框线1
100
AcDbLine
 10
12028.90045790633
 20
2117.627794298138
 30
0.0
 11
12142.90045790636
 21
2117.627794298138
 31
0.0
  0
LINE
  5
1645
330
1F
100
AcDbEntity
  8
外框线1
100
AcDbLine
 10
12040.90045790633
 20
2115.52615094208
 30
0.0
 11
12130.90045790636
 21
2115.52615094208
 31
0.0
  0
LINE
  5
1646
330
1F
100
AcDbEntity
  8
外框线1
100
AcDbLine
 10
12142.90045790636
 20
2117.627794298138
 30
0.0
 11
12130.90045790636
 21
2115.52615094208
 31
0.0
  0
LINE
  5
1647
330
1F
100
AcDbEntity
  8
外框线1
100
AcDbLine
 10
12146.86191043122
 20
2121.113667461597
 30
0.0
 11
12142.90045790636
 21
2117.627794298138
 31
0.0
  0
ARC
  5
1648
330
1F
100
AcDbEntity
  8
外框线1
100
AcDbCircle
 10
12085.85558044235
 20
4320.267647450555
 30
0.0
 40
2200.0
100
AcDbArc
 50
266.7570157997709
 51
273.2453893898407
  0
ARC
  5
1649
330
1F
100
AcDbEntity
  8
外框线1
100
AcDbCircle
 10
12207.57234035974
 20
2173.715754214527
 30
0.0
 40
50.0
100
AcDbArc
 50
273.2453893898407
 51
356.0222102379643
  0
ARC
  5
164A
330
1F
100
AcDbEntity
  8
外框线1
100
AcDbCircle
 10
11964.22892960525
 20
2173.710646621983
 30
0.0
 40
50.0
100
AcDbArc
 50
183.9777897620357
 51
266.7570157997709
  0
LINE
  5
164B
330
1F
100
AcDbEntity
  8
外框线1
100
AcDbLine
 10
12666.58686279416
 20
2344.757538690463
 30
0.0
 11
12654.45153699715
 21
2170.242158072039
 31
0.0
  0
LINE
  5
164C
330
1F
100
AcDbEntity
  8
外框线1
100
AcDbLine
 10
12299.22402642065
 20
2344.61412799818
 30
0.0
 11
12311.34902465933
 21
2170.247265664568
 31
0.0
  0
LINE
  5
164D
330
1F
100
AcDbEntity
  8
外框线1
100
AcDbLine
 10
12539.90045790441
 20
2117.627794298138
 30
0.0
 11
12527.90045790441
 21
2115.52615094208
 31
0.0
  0
LINE
  5
164E
330
1F
100
AcDbEntity
  8
外框线1
100
AcDbLine
 10
12543.85899104501
 20
2121.111098554566
 30
0.0
 11
12539.90045790441
 21
2117.627794298138
 31
0.0
  0
LINE
  5
164F
330
1F
100
AcDbEntity
  8
外框线1
100
AcDbLine
 10
12539.90045790441
 20
2117.627794298138
 30
0.0
 11
12425.90045790438
 21
2117.627794298138
 31
0.0
  0
LINE
  5
1650
330
1F
100
AcDbEntity
  8
外框线1
100
AcDbLine
 10
12527.90045790441
 20
2115.52615094208
 30
0.0
 11
12437.90045790438
 21
2115.52615094208
 31
0.0
  0
LINE
  5
1651
330
1F
100
AcDbEntity
  8
外框线1
100
AcDbLine
 10
12425.90045790438
 20
2117.627794298138
 30
0.0
 11
12437.90045790438
 21
2115.52615094208
 31
0.0
  0
LINE
  5
1652
330
1F
100
AcDbEntity
  8
外框线1
100
AcDbLine
 10
12421.93900537951
 20
2121.113667461597
 30
0.0
 11
12425.90045790438
 21
2117.627794298138
 31
0.0
  0
ARC
  5
1653
330
1F
100
AcDbEntity
  8
外框线1
100
AcDbCircle
 10
12482.94533536839
 20
4320.267647450555
 30
0.0
 40
2200.0
100
AcDbArc
 50
266.7546106101593
 51
273.242984200229
  0
ARC
  5
1654
330
1F
100
AcDbEntity
  8
外框线1
100
AcDbCircle
 10
12361.22857545099
 20
2173.715754214527
 30
0.0
 40
50.0
100
AcDbArc
 50
183.9777897620357
 51
266.7546106101593
  0
ARC
  5
1655
330
1F
100
AcDbEntity
  8
外框线1
100
AcDbCircle
 10
12604.57198620548
 20
2173.710646621983
 30
0.0
 40
50.0
100
AcDbArc
 50
273.242984200229
 51
356.0222102379643
  0
LWPOLYLINE
  5
1656
330
1F
100
AcDbEntity
  8
外框线1
100
AcDbPolyline
 90
        8
 70
     1
 43
0.0
 10
11994.86205480709
 20
2896.911180367823
 42
0.3540292969518855
 10
11906.92315241655
 20
2806.898358414268
 42
0.0466460618980273
 10
11906.92315241655
 20
2591.544937062599
 42
0.3540292969518856
 10
11994.86205480709
 20
2501.532115109059
 42
0.058332167413796
 10
12176.93886100368
 20
2501.532115109059
 42
0.3540292969518854
 10
12264.87776339422
 20
2591.544937062599
 42
0.0466460618980272
 10
12264.87776339422
 20
2806.898358414268
 42
0.3540292969518854
 10
12176.93886100368
 20
2896.911180367823
 42
0.0583321674137961
  0
LWPOLYLINE
  5
1657
330
1F
100
AcDbEntity
  8
外框线1
100
AcDbPolyline
 90
        8
 70
     1
 43
0.0
 10
12391.86205480709
 20
2896.911180367823
 42
0.3540292969518855
 10
12303.92315241655
 20
2806.898358414268
 42
0.0466460618980273
 10
12303.92315241655
 20
2591.544937062599
 42
0.3540292969518856
 10
12391.86205480709
 20
2501.532115109059
 42
0.058332167413796
 10
12573.93886100368
 20
2501.532115109059
 42
0.3540292969518854
 10
12661.87776339422
 20
2591.544937062599
 42
0.0466460618980272
 10
12661.87776339422
 20
2806.898358414268
 42
0.3540292969518854
 10
12573.93886100368
 20
2896.911180367823
 42
0.0583321674137961
  0
LINE
  5
1658
330
1F
100
AcDbEntity
  8
外框线1
100
AcDbLine
 10
12483.90045790539
 20
2471.221647738448
 30
0.0
 11
12086.90045790539
 21
2471.221647738448
 31
0.0
  0
LWPOLYLINE
  5
1659
330
1F
100
AcDbEntity
  8
切角线
100
AcDbPolyline
 90
        8
 70
     1
 43
0.0
 10
12609.40041751001
 20
2927.221807744833
 10
11959.40063391684
 20
2927.221807744833
 10
11876.90049830073
 20
2844.721672128768
 10
11876.90049830073
 20
2553.722263373666
 10
11959.40063391684
 20
2471.222127757601
 10
12609.40041751001
 20
2471.222127757601
 10
12691.90041751001
 20
2553.722127757557
 10
12691.90041751001
 20
2844.721807744832
  0
CIRCLE
  5
165A
330
1F
100
AcDbEntity
  8
外框线1
100
AcDbCircle
 10
12085.90045790537
 20
2762.221807744818
 30
0.0
 40
60.0
  0
CIRCLE
  5
165B
330
1F
100
AcDbEntity
  8
外框线1
100
AcDbCircle
 10
12482.90045790537
 20
2762.221807744818
 30
0.0
 40
60.0
  0
DIMENSION
  5
1761
330
1F
100
AcDbEntity
  8
标注
 62
     1
100
AcDbDimension
280
     0
  2
*D79
 10
10148.81757080445
 20
2242.662262818123
 30
0.0
 11
10117.05427816683
 21
2216.283598447073
 31
0.0
 70
   164
 71
     5
 42
49.99999999999989
 73
     0
 74
     0
 75
     0
  3
1-11-L
100
AcDbRadialDimension
 15
10110.35251595445
 25
2210.717943207492
 35
0.0
 40
0.0
1001
ACAD_DSTYLE_DIMRADIAL_EXTENSION
1070
   387
1070
     1
1070
   388
1040
3.211018181880239
1070
   390
1040
4.69193508192078
1001
ACAD
1000
DSTYLE
1002
{
1070
   288
1070
     1
1002
}
1001
ACAD_DSTYLE_DIMINSPECT
1070
   393
1070
     0
1070
   394
1070
     0
1070
   395
1000

1070
   396
1000

  0
LWPOLYLINE
  5
1979
330
1F
100
AcDbEntity
  8
切角线
100
AcDbPolyline
 90
        2
 70
     0
 43
0.0
 10
13735.87294195996
 20
2503.229573907259
 10
13735.87294195996
 20
2794.338310546541
  0
LWPOLYLINE
  5
197A
330
1F
100
AcDbEntity
  8
切角线
100
AcDbPolyline
 90
        2
 70
     0
 43
0.0
 10
13818.31857364032
 20
2876.783942226903
 10
14469.24686409801
 20
2876.783942226903
  0
LWPOLYLINE
  5
197B
330
1F
100
AcDbEntity
  8
切角线
100
AcDbPolyline
 90
        2
 70
     0
 43
0.0
 10
14550.87294195996
 20
2795.157864364949
 10
14550.87294195996
 20
2502.41002008885
  0
LWPOLYLINE
  5
197C
330
1F
100
AcDbEntity
  8
切角线
100
AcDbPolyline
 90
        2
 70
     0
 43
0.0
 10
14469.24686409801
 20
2420.783942226903
 10
13818.31857364032
 20
2420.783942226903
  0
LWPOLYLINE
  5
197D
102
{ACAD_REACTORS
330
19A7
330
19B0
102
}
330
1F
100
AcDbEntity
  8
外框线1
100
AcDbPolyline
 90
        8
 70
     1
 43
0.0
 10
14071.68561681768
 20
2846.705755285934
 42
0.0471019474071185
 10
13856.06026710225
 20
2846.705755285934
 42
0.3603515470297967
 10
13765.89375372224
 20
2756.454503975031
 42
0.0466312395956699
 10
13765.89375372224
 20
2541.113380478776
 42
0.3603515470298069
 10
13856.06026710225
 20
2450.862129167873
 42
0.0471019474071185
 10
14071.68561681768
 20
2450.862129167873
 42
0.3603515470297991
 10
14161.85213019769
 20
2541.113380478776
 42
0.0466312395956711
 10
14161.85213019769
 20
2756.454503975031
 42
0.3603515470297991
  0
LWPOLYLINE
  5
197E
102
{ACAD_REACTORS
330
19AA
102
}
330
1F
100
AcDbEntity
  8
外框线1
100
AcDbPolyline
 90
        8
 70
     1
 43
0.0
 10
14289.23931456234
 20
2847.693047909118
 42
0.3544246852653734
 10
14201.06140927621
 20
2757.761360639889
 42
0.0471997407075935
 10
14201.06140927621
 20
2539.80652381391
 42
0.3544246852653734
 10
14289.23931456234
 20
2449.874836544682
 42
0.0570729111664896
 10
14432.59609220592
 20
2449.874836544682
 42
0.3544246852653732
 10
14520.77399749206
 20
2539.80652381391
 42
0.0471997407075935
 10
14520.77399749206
 20
2757.761360639889
 42
0.3544246852653734
 10
14432.59609220592
 20
2847.693047909118
 42
0.0570729111664898
  0
LINE
  5
197F
102
{ACAD_REACTORS
330
19B6
330
19B9
102
}
330
1F
100
AcDbEntity
  8
外框线1
100
AcDbLine
 10
13735.87294195996
 20
2320.783942226903
 30
0.0
 11
14550.87294195996
 21
2320.783942226903
 31
0.0
  0
ARC
  5
1980
330
1F
100
AcDbEntity
  8
外框线1
100
AcDbCircle
 10
14171.53551739065
 20
2315.783942226903
 30
0.0
 40
5.0
100
AcDbArc
 50
90.0
 51
176.0000000001204
  0
ARC
  5
1981
330
1F
100
AcDbEntity
  8
外框线1
100
AcDbCircle
 10
14530.58027881481
 20
2315.783942226903
 30
0.0
 40
5.0
100
AcDbArc
 50
90.0
 51
176.0000000001204
  0
LINE
  5
1982
330
1F
100
AcDbEntity
  8
外框线1
100
AcDbLine
 10
13760.87294195996
 20
2320.783942226903
 30
0.0
 11
13779.77123026321
 21
2140.97873974887
 31
0.0
  0
ARC
  5
1983
330
1F
100
AcDbEntity
  8
外框线1
100
AcDbCircle
 10
13756.37092173847
 20
2315.783942226903
 30
0.0
 40
5.0
100
AcDbArc
 50
5.999999999799515
 51
90.0
  0
LINE
  5
1984
330
1F
100
AcDbEntity
  8
外框线1
100
AcDbLine
 10
14166.87294195996
 20
2320.783942226903
 30
0.0
 11
14166.87294195996
 21
2320.783942226903
 31
0.0
  0
LINE
  5
1985
330
1F
100
AcDbEntity
  8
外框线1
100
AcDbLine
 10
14166.87294195996
 20
2320.783942226903
 30
0.0
 11
14154.45113365299
 21
2143.143807324072
 31
0.0
  0
LINE
  5
1986
330
1F
100
AcDbEntity
  8
外框线1
100
AcDbLine
 10
14195.91770338413
 20
2320.783942226903
 30
0.0
 11
14204.86611856786
 21
2192.815643157847
 31
0.0
  0
ARC
  5
1987
330
1F
100
AcDbEntity
  8
外框线1
100
AcDbCircle
 10
14191.25512795344
 20
2315.783942226903
 30
0.0
 40
5.0
100
AcDbArc
 50
3.99999999987955
 51
90.0
  0
LINE
  5
1988
330
1F
100
AcDbEntity
  8
外框线1
100
AcDbLine
 10
14525.91770338413
 20
2320.783942226903
 30
0.0
 11
14516.9692882004
 21
2192.815643157847
 31
0.0
  0
CIRCLE
  5
1989
330
1F
100
AcDbEntity
  8
外框线1
100
AcDbCircle
 10
13963.87294195996
 20
2648.783942226888
 30
0.0
 40
57.0
  0
CIRCLE
  5
198A
330
1F
100
AcDbEntity
  8
外框线1
100
AcDbCircle
 10
13963.87294195996
 20
2648.783942226888
 30
0.0
 40
45.0
  0
CIRCLE
  5
198B
330
1F
100
AcDbEntity
  8
外框线1
100
AcDbCircle
 10
14360.61770338413
 20
2648.783942226896
 30
0.0
 40
57.0
  0
CIRCLE
  5
198C
330
1F
100
AcDbEntity
  8
外框线1
100
AcDbCircle
 10
14360.61770338413
 20
2648.783942226896
 30
0.0
 40
45.0
  0
ARC
  5
198D
330
1F
100
AcDbEntity
  8
外框线1
100
AcDbCircle
 10
13963.87294195996
 20
4186.055751266628
 30
0.0
 40
2094.271809039724
100
AcDbArc
 50
266.2310731350921
 51
273.946585675921
  0
ARC
  5
198E
102
{ACAD_REACTORS
330
19C1
102
}
330
1F
100
AcDbEntity
  8
外框线1
100
AcDbCircle
 10
14104.57293114
 20
2146.631631011275
 30
0.0
 40
50.0
100
AcDbArc
 50
273.946585675921
 51
356.0000000001204
  0
ARC
  5
198F
330
1F
100
AcDbEntity
  8
外框线1
100
AcDbCircle
 10
13829.49732503162
 20
2146.205162912251
 30
0.0
 40
50.0
100
AcDbArc
 50
185.9999999997995
 51
266.2310731350921
  0
ARC
  5
1990
102
{ACAD_REACTORS
330
19B9
102
}
330
1F
100
AcDbEntity
  8
外框线1
100
AcDbCircle
 10
14360.91770338413
 20
3796.008153973475
 30
0.0
 40
1653.22421174657
100
AcDbArc
 50
266.2028130097543
 51
273.7971869902457
  0
ARC
  5
1991
102
{ACAD_REACTORS
330
19BE
102
}
330
1F
100
AcDbEntity
  8
外框线1
100
AcDbCircle
 10
14467.09108568741
 20
2196.303466845042
 30
0.0
 40
50.0
100
AcDbArc
 50
273.7971869902457
 51
356.0000000001204
  0
ARC
  5
1992
330
1F
100
AcDbEntity
  8
外框线1
100
AcDbCircle
 10
14254.74432108086
 20
2196.303466845042
 30
0.0
 40
50.0
100
AcDbArc
 50
183.9999999998795
 51
266.2028130097543
  0
LINE
  5
1993
330
1F
100
AcDbEntity
  8
外框线1
100
AcDbLine
 10
13903.87294195996
 20
2091.783942226903
 30
0.0
 11
14023.87294195996
 21
2091.783942226903
 31
0.0
  0
LINE
  5
1994
330
1F
100
AcDbEntity
  8
外框线1
100
AcDbLine
 10
13906.87294195995
 20
2089.144097517252
 30
0.0
 11
13918.87294195995
 21
2087.042454161172
 31
0.0
  0
LINE
  5
1995
330
1F
100
AcDbEntity
  8
外框线1
100
AcDbLine
 10
13903.87294195996
 20
2091.783942226903
 30
0.0
 11
13906.87294195995
 21
2089.144097517252
 31
0.0
  0
LINE
  5
1996
330
1F
100
AcDbEntity
  8
外框线1
100
AcDbLine
 10
13906.87294195995
 20
2089.144097517252
 30
0.0
 11
14020.87294195996
 21
2089.144097517252
 31
0.0
  0
LINE
  5
1997
330
1F
100
AcDbEntity
  8
外框线1
100
AcDbLine
 10
13918.87294195995
 20
2087.042454161172
 30
0.0
 11
14008.87294195998
 21
2087.042454161172
 31
0.0
  0
LINE
  5
1998
330
1F
100
AcDbEntity
  8
外框线1
100
AcDbLine
 10
14020.87294195998
 20
2089.144097517252
 30
0.0
 11
14008.87294195998
 21
2087.042454161172
 31
0.0
  0
LINE
  5
1999
330
1F
100
AcDbEntity
  8
外框线1
100
AcDbLine
 10
14023.87294195996
 20
2091.783942226903
 30
0.0
 11
14020.87294195998
 21
2089.144097517252
 31
0.0
  0
LINE
  5
199A
330
1F
100
AcDbEntity
  8
外框线1
100
AcDbLine
 10
14300.91770338413
 20
2142.783942226903
 30
0.0
 11
14420.91770338413
 21
2142.783942226903
 31
0.0
  0
LINE
  5
199B
330
1F
100
AcDbEntity
  8
外框线1
100
AcDbLine
 10
14303.91770338411
 20
2140.144097517252
 30
0.0
 11
14315.91770338411
 21
2138.042454161173
 31
0.0
  0
LINE
  5
199C
330
1F
100
AcDbEntity
  8
外框线1
100
AcDbLine
 10
14300.91770338413
 20
2142.783942226903
 30
0.0
 11
14303.91770338411
 21
2140.144097517252
 31
0.0
  0
LINE
  5
199D
330
1F
100
AcDbEntity
  8
外框线1
100
AcDbLine
 10
14303.91770338411
 20
2140.144097517252
 30
0.0
 11
14417.91770338413
 21
2140.144097517252
 31
0.0
  0
LINE
  5
199E
330
1F
100
AcDbEntity
  8
外框线1
100
AcDbLine
 10
14315.91770338411
 20
2138.042454161173
 30
0.0
 11
14405.91770338415
 21
2138.042454161173
 31
0.0
  0
LINE
  5
199F
330
1F
100
AcDbEntity
  8
外框线1
100
AcDbLine
 10
14417.91770338415
 20
2140.144097517252
 30
0.0
 11
14405.91770338415
 21
2138.042454161173
 31
0.0
  0
LINE
  5
19A0
330
1F
100
AcDbEntity
  8
外框线1
100
AcDbLine
 10
14420.91770338413
 20
2142.783942226903
 30
0.0
 11
14417.91770338415
 21
2140.144097517252
 31
0.0
  0
LINE
  5
19A1
102
{ACAD_REACTORS
330
19AD
330
19B3
102
}
330
1F
100
AcDbEntity
  8
切角线
100
AcDbLine
 10
13818.31857364032
 20
2876.783942226903
 30
0.0
 11
13735.87294195996
 21
2794.338310546541
 31
0.0
  0
LINE
  5
19A2
102
{ACAD_REACTORS
330
19AD
102
}
330
1F
100
AcDbEntity
  8
切角线
100
AcDbLine
 10
14469.24686409801
 20
2876.783942226903
 30
0.0
 11
14550.87294195996
 21
2795.157864364949
 31
0.0
  0
LINE
  5
19A3
102
{ACAD_REACTORS
330
19B3
102
}
330
1F
100
AcDbEntity
  8
切角线
100
AcDbLine
 10
13818.31857364032
 20
2420.783942226903
 30
0.0
 11
13735.87294195996
 21
2503.229573907259
 31
0.0
  0
LINE
  5
19A4
330
1F
100
AcDbEntity
  8
切角线
100
AcDbLine
 10
14469.24686409801
 20
2420.783942226903
 30
0.0
 11
14550.87294195996
 21
2502.41002008885
 31
0.0
  0
DIMENSION
  5
19A5
102
{ACAD_XDICTIONARY
360
19A6
102
}
102
{ACAD_REACTORS
330
19A7
102
}
330
1F
100
AcDbEntity
  8
标注
 62
     1
100
AcDbDimension
280
     0
  2
*D89
 10
14166.87294195997
 20
2916.783942226922
 30
0.0
 11
13963.87294195997
 21
2938.78701485262
 31
0.0
 70
    32
 71
     5
 42
406.0000000000072
 73
     0
 74
     0
 75
     0
  3
B-英寸
100
AcDbAlignedDimension
 13
13760.87294195996
 23
2648.783942226903
 33
0.0
 14
14166.87294195997
 24
2648.783942226893
 34
0.0
 50
0.0
100
AcDbRotatedDimension
1001
ACAD_DSTYLE_DIMJOGGED_JOGANGLE_SYMBOL
1070
   384
1040
1.570796326794896
1001
ACAD_DSTYLE_DIMEXT_ENABLED
1070
   383
1070
     1
1001
ACAD_DSTYLE_DIMEXT_LENGTH
1070
   378
1040
5.0
  0
DIMENSION
  5
19A8
102
{ACAD_XDICTIONARY
360
19A9
102
}
102
{ACAD_REACTORS
330
19AA
102
}
330
1F
100
AcDbEntity
  8
标注
 62
     1
100
AcDbDimension
280
     0
  2
*D90
 10
14525.91770338414
 20
2916.783942226884
 30
0.0
 11
14360.91770338414
 21
2938.787014852582
 31
0.0
 70
    32
 71
     5
 42
330.0000000000073
 73
     0
 74
     0
 75
     0
  3
B-英寸
100
AcDbAlignedDimension
 13
14195.91770338413
 23
2648.783942226862
 33
0.0
 14
14525.91770338414
 24
2648.783942226842
 34
0.0
 50
0.0
100
AcDbRotatedDimension
1001
ACAD_DSTYLE_DIMJOGGED_JOGANGLE_SYMBOL
1070
   384
1040
1.570796326794896
1001
ACAD_DSTYLE_DIMEXT_ENABLED
1070
   383
1070
     1
1001
ACAD_DSTYLE_DIMEXT_LENGTH
1070
   378
1040
5.0
  0
DIMENSION
  5
19AB
102
{ACAD_XDICTIONARY
360
19AC
102
}
102
{ACAD_REACTORS
330
19AD
102
}
330
1F
100
AcDbEntity
  8
标注
 62
     1
100
AcDbDimension
280
     0
  2
*D91
 10
13735.87294195996
 20
2976.783942226903
 30
0.0
 11
14143.37294195996
 21
2998.787014852601
 31
0.0
 70
    32
 71
     5
 42
815.0
 73
     0
 74
     0
 75
     0
  3
B-英寸
100
AcDbAlignedDimension
 13
14550.87294195996
 23
2795.157864364949
 33
0.0
 14
13735.87294195996
 24
2794.338310546541
 34
0.0
 50
0.0
100
AcDbRotatedDimension
1001
ACAD_DSTYLE_DIMJOGGED_JOGANGLE_SYMBOL
1070
   384
1040
1.570796326794896
1001
ACAD_DSTYLE_DIMEXT_ENABLED
1070
   383
1070
     1
1001
ACAD_DSTYLE_DIMEXT_LENGTH
1070
   378
1040
5.0
  0
DIMENSION
  5
19AE
102
{ACAD_XDICTIONARY
360
19AF
102
}
102
{ACAD_REACTORS
330
19B0
102
}
330
1F
100
AcDbEntity
  8
标注
 62
     1
100
AcDbDimension
280
     0
  2
*D92
 10
13695.87294196
 20
2445.783942226904
 30
0.0
 11
13673.8698693343
 21
2648.783942226903
 31
0.0
 70
    32
 71
     5
 42
405.999999999998
 73
     0
 74
     0
 75
     0
  3
B-英寸
100
AcDbAlignedDimension
 13
13963.87294195996
 23
2851.783942226902
 33
0.0
 14
13963.87294195996
 24
2445.783942226904
 34
0.0
 50
90.0
100
AcDbRotatedDimension
1001
ACAD_DSTYLE_DIMJOGGED_JOGANGLE_SYMBOL
1070
   384
1040
1.570796326794896
1001
ACAD_DSTYLE_DIMEXT_ENABLED
1070
   383
1070
     1
1001
ACAD_DSTYLE_DIMEXT_LENGTH
1070
   378
1040
5.0
  0
DIMENSION
  5
19B1
102
{ACAD_XDICTIONARY
360
19B2
102
}
102
{ACAD_REACTORS
330
19B3
102
}
330
1F
100
AcDbEntity
  8
标注
 62
     1
100
AcDbDimension
280
     0
  2
*D93
 10
13635.87294196
 20
2420.783942226903
 30
0.0
 11
13613.8698693343
 21
2648.783942226903
 31
0.0
 70
    32
 71
     5
 42
456.0
 73
     0
 74
     0
 75
     0
  3
B-英寸
100
AcDbAlignedDimension
 13
13818.31857364032
 23
2876.783942226903
 33
0.0
 14
13818.31857364032
 24
2420.783942226903
 34
0.0
 50
90.0
100
AcDbRotatedDimension
1001
ACAD_DSTYLE_DIMJOGGED_JOGANGLE_SYMBOL
1070
   384
1040
1.570796326794896
1001
ACAD_DSTYLE_DIMEXT_ENABLED
1070
   383
1070
     1
1001
ACAD_DSTYLE_DIMEXT_LENGTH
1070
   378
1040
5.0
  0
DIMENSION
  5
19B4
102
{ACAD_XDICTIONARY
360
19B5
102
}
102
{ACAD_REACTORS
330
19B6
102
}
330
1F
100
AcDbEntity
  8
标注
 62
     1
100
AcDbDimension
280
     0
  2
*D94
 10
13657.87294196
 20
2091.786459157332
 30
0.0
 11
13635.8698693343
 21
2206.285200692118
 31
0.0
 70
    32
 71
     5
 42
228.997483069571
 73
     0
 74
     0
 75
     0
  3
B-英寸
100
AcDbAlignedDimension
 13
13735.87294195996
 23
2320.783942226903
 33
0.0
 14
13967.11982762979
 24
2091.786459157332
 34
0.0
 50
90.0
100
AcDbRotatedDimension
1001
ACAD_DSTYLE_DIMJOGGED_JOGANGLE_SYMBOL
1070
   384
1040
1.570796326794896
1001
ACAD_DSTYLE_DIMEXT_ENABLED
1070
   383
1070
     1
1001
ACAD_DSTYLE_DIMEXT_LENGTH
1070
   378
1040
5.0
  0
DIMENSION
  5
19B7
102
{ACAD_XDICTIONARY
360
19B8
102
}
102
{ACAD_REACTORS
330
19B9
102
}
330
1F
100
AcDbEntity
  8
标注
 62
     1
100
AcDbDimension
280
     0
  2
*D95
 10
14643.93107508056
 20
2142.783942226906
 30
0.0
 11
14643.93107508056
 21
2231.783942226905
 31
0.0
 70
   160
 71
     5
 42
177.9999999999972
 73
     0
 74
     0
 75
     0
  3
B-英寸
100
AcDbAlignedDimension
 13
14550.87294195996
 23
2320.783942226903
 33
0.0
 14
14360.91770338413
 24
2142.783942226906
 34
0.0
 50
90.0
100
AcDbRotatedDimension
1001
ACAD_DSTYLE_DIMJOGGED_JOGANGLE_SYMBOL
1070
   384
1040
1.570796326794896
1001
ACAD_DSTYLE_DIMEXT_ENABLED
1070
   383
1070
     1
1001
ACAD_DSTYLE_DIMEXT_LENGTH
1070
   378
1040
5.0
  0
CIRCLE
  5
19BA
330
1F
100
AcDbEntity
  8
标注
100
AcDbCircle
 10
14360.61770338413
 20
2648.783942226896
 30
0.0
 40
60.0
  0
CIRCLE
  5
19BB
330
1F
100
AcDbEntity
  8
标注
100
AcDbCircle
 10
13963.87294195996
 20
2648.783942226888
 30
0.0
 40
60.0
  0
DIMENSION
  5
19BC
102
{ACAD_XDICTIONARY
360
19BD
102
}
102
{ACAD_REACTORS
330
19BE
102
}
330
1F
100
AcDbEntity
  8
标注
 62
     1
100
AcDbDimension
280
     0
  2
*D96
 10
14467.09108568741
 20
2196.303466845043
 30
0.0
 11
14450.76796173512
 21
2207.961850152867
 31
0.0
 70
   164
 71
     5
 42
49.9999999999958
 73
     0
 74
     0
 75
     0
  3
1-11-L
100
AcDbRadialDimension
 15
14507.77892749429
 25
2167.243192773765
 35
0.0
 40
0.0
1001
ACAD
1000
DSTYLE
1002
{
1070
   288
1070
     1
1002
}
1001
ACAD_DSTYLE_DIMRADIAL_EXTENSION
1070
   387
1070
     1
1070
   388
1040
4.77866239567837
1070
   390
1040
6.213372137101915
1001
ACAD_DSTYLE_DIMEXT_ENABLED
1070
   383
1070
     1
1001
ACAD_DSTYLE_DIMEXT_LENGTH
1070
   378
1040
5.0
  0
DIMENSION
  5
19BF
102
{ACAD_XDICTIONARY
360
19C0
102
}
102
{ACAD_REACTORS
330
19C1
102
}
330
1F
100
AcDbEntity
  8
标注
 62
     1
100
AcDbDimension
280
     0
  2
*D97
 10
14104.57293114001
 20
2146.631631011276
 30
0.0
 11
14088.04119889503
 21
2157.992269456995
 31
0.0
 70
   164
 71
     5
 42
49.99999999999957
 73
     0
 74
     0
 75
     0
  3
1-11-L
100
AcDbRadialDimension
 15
14145.78076049568
 25
2118.313530796149
 35
0.0
 40
0.0
1001
ACAD
1000
DSTYLE
1002
{
1070
   288
1070
     1
1002
}
1001
ACAD_DSTYLE_DIMRADIAL_EXTENSION
1070
   387
1070
     1
1070
   388
1040
4.781269894641556
1070
   390
1040
6.213372137101915
1001
ACAD_DSTYLE_DIMEXT_ENABLED
1070
   383
1070
     1
1001
ACAD_DSTYLE_DIMEXT_LENGTH
1070
   378
1040
5.0
  0
ENDSEC
  0
SECTION
  2
OBJECTS
  0
DICTIONARY
  5
C
330
0
100
AcDbDictionary
281
     1
  3
ACAD_CIP_PREVIOUS_PRODUCT_INFO
350
164
  3
ACAD_COLOR
350
6C
  3
ACAD_DETAILVIEWSTYLE
350
1D7
  3
ACAD_GROUP
350
D
  3
ACAD_IMAGE_VARS
350
1475
  3
ACAD_LAYOUT
350
1A
  3
ACAD_MATERIAL
350
6B
  3
ACAD_MLEADERSTYLE
350
DE
  3
ACAD_MLINESTYLE
350
17
  3
ACAD_PLOTSETTINGS
350
19
  3
ACAD_PLOTSTYLENAME
350
E
  3
ACAD_SCALELIST
350
B7
  3
ACAD_SECTIONVIEWSTYLE
350
1D5
  3
ACAD_TABLESTYLE
350
92
  3
ACAD_VISUALSTYLE
350
145
  3
AcDbVariableDictionary
350
59
  0
DICTIONARY
  5
FA
330
2
100
AcDbDictionary
280
     1
281
     1
  3
ACAD_LAYERSTATES
360
FB
  3
ACLYDICTIONARY
360
D80
  0
DICTIONARY
  5
123F
330
123E
100
AcDbDictionary
280
     1
281
     1
  3
ACAD_SORTENTS
360
1240
  0
DICTIONARY
  5
63C
330
63B
100
AcDbDictionary
280
     1
281
     1
  3
ACAD_DIMASSOC
360
63D
  0
DICTIONARY
  5
63F
330
63E
100
AcDbDictionary
280
     1
281
     1
  3
ACAD_DIMASSOC
360
640
  0
DICTIONARY
  5
642
330
641
100
AcDbDictionary
280
     1
281
     1
  3
ACAD_DIMASSOC
360
643
  0
DICTIONARY
  5
645
330
644
100
AcDbDictionary
280
     1
281
     1
  3
ACAD_DIMASSOC
360
646
  0
DICTIONARY
  5
13D1
330
13D0
100
AcDbDictionary
280
     1
281
     1
  3
ACAD_DIMASSOC
360
13D2
  0
DICTIONARY
  5
13D4
330
13D3
100
AcDbDictionary
280
     1
281
     1
  3
ACAD_DIMASSOC
360
13D5
  0
DICTIONARY
  5
13D7
330
13D6
100
AcDbDictionary
280
     1
281
     1
  3
ACAD_DIMASSOC
360
13D8
  0
DICTIONARY
  5
13DA
330
13D9
100
AcDbDictionary
280
     1
281
     1
  3
ACAD_DIMASSOC
360
13DB
  0
DICTIONARY
  5
13DD
330
13DC
100
AcDbDictionary
280
     1
281
     1
  3
ACAD_DIMASSOC
360
13DE
  0
DICTIONARY
  5
19A6
330
19A5
100
AcDbDictionary
280
     1
281
     1
  3
ACAD_DIMASSOC
360
19A7
  0
DICTIONARY
  5
19A9
330
19A8
100
AcDbDictionary
280
     1
281
     1
  3
ACAD_DIMASSOC
360
19AA
  0
DICTIONARY
  5
19AC
330
19AB
100
AcDbDictionary
280
     1
281
     1
  3
ACAD_DIMASSOC
360
19AD
  0
DICTIONARY
  5
19AF
330
19AE
100
AcDbDictionary
280
     1
281
     1
  3
ACAD_DIMASSOC
360
19B0
  0
DICTIONARY
  5
19B2
330
19B1
100
AcDbDictionary
280
     1
281
     1
  3
ACAD_DIMASSOC
360
19B3
  0
DICTIONARY
  5
19B5
330
19B4
100
AcDbDictionary
280
     1
281
     1
  3
ACAD_DIMASSOC
360
19B6
  0
DICTIONARY
  5
19B8
330
19B7
100
AcDbDictionary
280
     1
281
     1
  3
ACAD_DIMASSOC
360
19B9
  0
DICTIONARY
  5
19BD
330
19BC
100
AcDbDictionary
280
     1
281
     1
  3
ACAD_DIMASSOC
360
19BE
  0
DICTIONARY
  5
19C0
330
19BF
100
AcDbDictionary
280
     1
281
     1
  3
ACAD_DIMASSOC
360
19C1
  0
XRECORD
  5
164
102
{ACAD_REACTORS
330
C
102
}
330
C
100
AcDbXrecord
280
     1
300
ACD
300
2013
300
ACD_F_S
  0
DICTIONARY
  5
6C
102
{ACAD_REACTORS
330
C
102
}
330
C
100
AcDbDictionary
281
     1
  0
DICTIONARY
  5
1D7
102
{ACAD_REACTORS
330
C
102
}
330
C
100
AcDbDictionary
281
     1
  3
Metric50
350
1D8
  0
DICTIONARY
  5
D
102
{ACAD_REACTORS
330
C
102
}
330
C
100
AcDbDictionary
281
     1
  0
RASTERVARIABLES
  5
1475
102
{ACAD_REACTORS
330
C
102
}
330
C
100
AcDbRasterVariables
 90
        0
 70
     1
 71
     1
 72
     1
  0
DICTIONARY
  5
1A
102
{ACAD_REACTORS
330
C
102
}
330
C
100
AcDbDictionary
281
     1
  3
Model
350
22
  3
布局1
350
1C8
  3
布局2
350
1CD
  0
DICTIONARY
  5
6B
102
{ACAD_REACTORS
330
C
102
}
330
C
100
AcDbDictionary
281
     1
  3
ByBlock
350
135
  3
ByLayer
350
12D
  3
Global
350
13D
  0
DICTIONARY
  5
DE
102
{ACAD_REACTORS
330
C
102
}
330
C
100
AcDbDictionary
281
     1
  3
Annotative
350
228
  3
Standard
350
E1
  0
DICTIONARY
  5
17
102
{ACAD_REACTORS
330
C
102
}
330
C
100
AcDbDictionary
281
     1
  3
Standard
350
18
  0
DICTIONARY
  5
19
102
{ACAD_REACTORS
330
C
102
}
330
C
100
AcDbDictionary
281
     1
  0
ACDBDICTIONARYWDFLT
  5
E
102
{ACAD_REACTORS
330
C
102
}
330
C
100
AcDbDictionary
281
     1
  3
Color_1
350
F56
  3
Color_3
350
F27
  3
Color_6
350
F41
  3
Normal
350
F
100
AcDbDictionaryWithDefault
340
F
  0
DICTIONARY
  5
B7
102
{ACAD_REACTORS
330
C
102
}
330
C
100
AcDbDictionary
281
     1
  3
A0
350
B8
  3
A1
350
204
  3
A2
350
205
  3
A3
350
206
  3
A4
350
207
  3
A5
350
208
  3
A6
350
209
  3
A7
350
20A
  3
A8
350
20B
  3
A9
350
20C
  3
B0
350
20D
  3
B1
350
20E
  3
B2
350
20F
  3
B3
350
210
  3
B4
350
211
  3
B5
350
212
  3
B6
350
213
  0
DICTIONARY
  5
1D5
102
{ACAD_REACTORS
330
C
102
}
330
C
100
AcDbDictionary
281
     1
  3
Metric50
350
1D6
  0
DICTIONARY
  5
92
102
{ACAD_REACTORS
330
C
102
}
330
C
100
AcDbDictionary
281
     1
  3
Standard
350
93
  0
DICTIONARY
  5
145
102
{ACAD_REACTORS
330
C
102
}
330
C
100
AcDbDictionary
281
     1
  3
2dWireframe
350
14B
  3
Basic
350
14A
  3
Brighten
350
151
  3
ColorChange
350
155
  3
Conceptual
350
14E
  3
Dim
350
150
  3
EdgeColorOff
350
15D
  3
Facepattern
350
154
  3
Flat
350
146
  3
FlatWithEdges
350
147
  3
Gouraud
350
148
  3
GouraudWithEdges
350
149
  3
Hidden
350
14D
  3
JitterOff
350
15B
  3
Linepattern
350
153
  3
OverhangOff
350
15C
  3
Realistic
350
14F
  3
Shaded
350
15A
  3
Shaded with edges
350
159
  3
Shades of Gray
350
156
  3
Sketchy
350
157
  3
Thicken
350
152
  3
Wireframe
350
14C
  3
X-Ray
350
158
  0
DICTIONARY
  5
59
102
{ACAD_REACTORS
330
C
102
}
330
C
100
AcDbDictionary
281
     1
  3
CANNOSCALE
350
DD
  3
CMLEADERSTYLE
350
E9
  3
CTABLESTYLE
350
98
  3
CVIEWDETAILSTYLE
350
1EE
  3
CVIEWSECTIONSTYLE
350
1EF
  3
DIMASSOC
350
43
  3
HIDETEXT
350
5E
  3
MSLTSCALE
350
DD2
  3
PROJECTNAME
350
B6
  0
DICTIONARY
  5
FB
102
{ACAD_REACTORS
330
FA
102
}
330
FA
100
AcDbDictionary
281
     1
  0
DICTIONARY
  5
D80
102
{ACAD_REACTORS
330
FA
102
}
330
FA
100
AcDbDictionary
281
     1
1001
ACAD
1000
<All
  0
SORTENTSTABLE
  5
1240
102
{ACAD_REACTORS
330
123F
102
}
330
123F
100
AcDbSortentsTable
330
123E
  0
DIMASSOC
  5
63D
102
{ACAD_REACTORS
330
63C
102
}
330
63C
100
AcDbDimAssoc
330
63B
 90
        3
 70
     0
 71
     0
  1
AcDbOsnapPointRef
 72
     2
331
639
 73
     2
 91
        9
 40
3.141592653589426
 10
0.0
 20
0.0
 30
0.0
 75
     0
  1
AcDbOsnapPointRef
 72
     5
331
639
 73
     2
 91
        3
 40
6.283185307179586
 10
0.0
 20
0.0
 30
0.0
 75
     0
  0
DIMASSOC
  5
640
102
{ACAD_REACTORS
330
63F
102
}
330
63F
100
AcDbDimAssoc
330
63E
 90
        3
 70
     0
 71
     0
  1
AcDbOsnapPointRef
 72
     8
331
63A
 73
     2
 91
        9
 40
3.141592653589811
 10
0.0
 20
0.0
 30
0.0
 75
     1
  1
AcDbOsnapPointRef
 72
     0
 40
0.0
 10
9649.688882225412
 20
16751.92881983072
 30
0.0
 75
     0
  1
AcDbOsnapPointRef
 72
     8
331
63A
 73
     2
 91
        3
 40
6.283185307179576
 10
0.0
 20
0.0
 30
0.0
 75
     1
  1
AcDbOsnapPointRef
 72
     8
331
63A
 73
     2
 91
        9
 40
3.141592653589811
 10
0.0
 20
0.0
 30
0.0
 75
     1
  1
AcDbOsnapPointRef
 72
     0
 40
0.0
 10
9649.688882225412
 20
16751.92881983072
 30
0.0
 75
     0
  0
DIMASSOC
  5
643
102
{ACAD_REACTORS
330
642
102
}
330
642
100
AcDbDimAssoc
330
641
 90
        3
 70
     0
 71
     0
  1
AcDbOsnapPointRef
 72
     8
331
639
 73
     2
 91
        6
 40
0.4999999831760601
 10
0.0
 20
0.0
 30
0.0
 75
     1
  1
AcDbOsnapPointRef
 72
     0
 40
0.0
 10
9497.357641359991
 20
17020.38178642737
 30
0.0
 75
     0
  1
AcDbOsnapPointRef
 72
     2
331
639
 73
     2
 91
       12
 40
0.5
 10
0.0
 20
0.0
 30
0.0
 75
     0
  0
DIMASSOC
  5
646
102
{ACAD_REACTORS
330
645
102
}
330
645
100
AcDbDimAssoc
330
644
 90
        3
 70
     0
 71
     0
  1
AcDbOsnapPointRef
 72
     2
331
63A
 73
     2
 91
        6
 40
0.5000000000000023
 10
0.0
 20
0.0
 30
0.0
 75
     0
  1
AcDbOsnapPointRef
 72
     2
331
63A
 73
     2
 91
       12
 40
0.5000000000000023
 10
0.0
 20
0.0
 30
0.0
 75
     0
  0
DIMASSOC
  5
13D2
102
{ACAD_REACTORS
330
13D1
102
}
330
13D1
100
AcDbDimAssoc
330
13D0
 90
        3
 70
     0
 71
     0
  1
AcDbOsnapPointRef
 72
     2
331
13AE
 73
     2
 91
        9
 40
3.141592653589793
 10
0.0
 20
0.0
 30
0.0
 75
     0
  1
AcDbOsnapPointRef
 72
     2
331
13AE
 73
     2
 91
        3
 40
6.283185307179586
 10
0.0
 20
0.0
 30
0.0
 75
     0
  0
DIMASSOC
  5
13D5
102
{ACAD_REACTORS
330
13D4
102
}
330
13D4
100
AcDbDimAssoc
330
13D3
 90
        3
 70
     0
 71
     0
  1
AcDbOsnapPointRef
 72
     1
331
13B8
 73
     2
 91
        0
 40
0.9999999999999998
 10
0.0
 20
0.0
 30
2.000000000000000E+50
 75
     0
  1
AcDbOsnapPointRef
 72
     1
331
13B6
 73
     2
 91
        0
 40
1.0
 10
0.0
 20
0.0
 30
2.000000000000000E+50
 75
     0
  0
DIMASSOC
  5
13D8
102
{ACAD_REACTORS
330
13D7
102
}
330
13D7
100
AcDbDimAssoc
330
13D6
 90
        3
 70
     0
 71
     0
  1
AcDbOsnapPointRef
 72
     2
331
13AE
 73
     2
 91
        6
 40
0.5
 10
0.0
 20
0.0
 30
0.0
 75
     0
  1
AcDbOsnapPointRef
 72
     2
331
13AE
 73
     2
 91
       12
 40
0.5
 10
0.0
 20
0.0
 30
0.0
 75
     0
  0
DIMASSOC
  5
13DB
102
{ACAD_REACTORS
330
13DA
102
}
330
13DA
100
AcDbDimAssoc
330
13D9
 90
        3
 70
     0
 71
     0
  1
AcDbOsnapPointRef
 72
     1
331
13BA
 73
     2
 91
        0
 40
1.0
 10
0.0
 20
0.0
 30
2.000000000000000E+50
 75
     0
  1
AcDbOsnapPointRef
 72
     1
331
13CE
 73
     2
 91
        0
 40
1.0
 10
0.0
 20
0.0
 30
2.000000000000000E+50
 75
     0
  0
DIMASSOC
  5
13DE
102
{ACAD_REACTORS
330
13DD
102
}
330
13DD
100
AcDbDimAssoc
330
13DC
 90
        1
 70
     0
 71
     0
  1
AcDbOsnapPointRef
 72
    13
331
13BC
 73
     2
 91
        0
 40
0.0
 10
0.0
 20
0.0
 30
2.000000000000000E+50
 75
     0
  0
DIMASSOC
  5
19A7
102
{ACAD_REACTORS
330
19A6
102
}
330
19A6
100
AcDbDimAssoc
330
19A5
 90
        3
 70
     0
 71
     0
  1
AcDbOsnapPointRef
 72
     5
331
197D
 73
     2
 91
        3
 40
3.141592653589793
 10
0.0
 20
0.0
 30
0.0
 75
     0
  1
AcDbOsnapPointRef
 72
     8
331
197D
 73
     2
 91
        7
 40
6.283185307179561
 10
0.0
 20
0.0
 30
0.0
 75
     1
  1
AcDbOsnapPointRef
 72
     5
331
197D
 73
     2
 91
        3
 40
3.141592653589793
 10
0.0
 20
0.0
 30
0.0
 75
     0
  0
DIMASSOC
  5
19AA
102
{ACAD_REACTORS
330
19A9
102
}
330
19A9
100
AcDbDimAssoc
330
19A8
 90
        3
 70
     0
 71
     0
  1
AcDbOsnapPointRef
 72
     5
331
197E
 73
     2
 91
        2
 40
3.141592653589793
 10
0.0
 20
0.0
 30
0.0
 75
     0
  1
AcDbOsnapPointRef
 72
     5
331
197E
 73
     2
 91
        6
 40
6.283185307179586
 10
0.0
 20
0.0
 30
0.0
 75
     0
  0
DIMASSOC
  5
19AD
102
{ACAD_REACTORS
330
19AC
102
}
330
19AC
100
AcDbDimAssoc
330
19AB
 90
        3
 70
     0
 71
     0
  1
AcDbOsnapPointRef
 72
     1
331
19A2
 73
     2
 91
        0
 40
1.0
 10
0.0
 20
0.0
 30
2.000000000000000E+50
 75
     0
  1
AcDbOsnapPointRef
 72
     1
331
19A1
 73
     2
 91
        0
 40
1.0
 10
0.0
 20
0.0
 30
2.000000000000000E+50
 75
     0
  0
DIMASSOC
  5
19B0
102
{ACAD_REACTORS
330
19AF
102
}
330
19AF
100
AcDbDimAssoc
330
19AE
 90
        3
 70
     0
 71
     0
  1
AcDbOsnapPointRef
 72
     2
331
197D
 73
     2
 91
        1
 40
1.570796326794896
 10
0.0
 20
0.0
 30
0.0
 75
     0
  1
AcDbOsnapPointRef
 72
     2
331
197D
 73
     2
 91
        5
 40
4.712388980384689
 10
0.0
 20
0.0
 30
0.0
 75
     0
  0
DIMASSOC
  5
19B3
102
{ACAD_REACTORS
330
19B2
102
}
330
19B2
100
AcDbDimAssoc
330
19B1
 90
        3
 70
     0
 71
     0
  1
AcDbOsnapPointRef
 72
    13
331
19A1
 73
     2
 91
        0
 40
0.0
 10
0.0
 20
0.0
 30
2.000000000000000E+50
 75
     0
  1
AcDbOsnapPointRef
 72
    13
331
19A3
 73
     2
 91
        0
 40
0.0
 10
0.0
 20
0.0
 30
2.000000000000000E+50
 75
     0
  0
DIMASSOC
  5
19B6
102
{ACAD_REACTORS
330
19B5
102
}
330
19B5
100
AcDbDimAssoc
330
19B4
 90
        1
 70
     0
 71
     0
  1
AcDbOsnapPointRef
 72
    13
331
197F
 73
     2
 91
        0
 40
0.0
 10
0.0
 20
0.0
 30
2.000000000000000E+50
 75
     0
  0
DIMASSOC
  5
19B9
102
{ACAD_REACTORS
330
19B8
102
}
330
19B8
100
AcDbDimAssoc
330
19B7
 90
        3
 70
     0
 71
     0
  1
AcDbOsnapPointRef
 72
     1
331
197F
 73
     2
 91
        0
 40
1.0
 10
0.0
 20
0.0
 30
2.000000000000000E+50
 75
     0
  1
AcDbOsnapPointRef
 72
     5
331
1990
 73
     2
 91
        0
 40
4.712388980384689
 10
0.0
 20
0.0
 30
0.0
 75
     0
  0
DIMASSOC
  5
19BE
102
{ACAD_REACTORS
330
19BD
102
}
330
19BD
100
AcDbDimAssoc
330
19BC
 90
        2
 70
     0
 71
     0
  1
AcDbOsnapPointRef
 72
     3
331
1991
 73
     2
 91
        0
 40
0.0
 10
0.0
 20
0.0
 30
0.0
 75
     0
  0
DIMASSOC
  5
19C1
102
{ACAD_REACTORS
330
19C0
102
}
330
19C0
100
AcDbDimAssoc
330
19BF
 90
        2
 70
     0
 71
     0
  1
AcDbOsnapPointRef
 72
     3
331
198E
 73
     2
 91
        0
 40
0.0
 10
0.0
 20
0.0
 30
0.0
 75
     0
  0
ACDBDETAILVIEWSTYLE
  5
1D8
102
{ACAD_REACTORS
330
1D7
102
}
330
1D7
100
AcDbModelDocViewStyle
 70
     0
  3
Metric50
290
     1
100
AcDbDetailViewStyle
 70
     0
 71
     0
 90
        3
 71
     1
340
11
 62
   256
 40
5.0
340
0
 62
   256
 40
5.0
300

 40
0.0
280
     1
 71
     2
340
16
 90
       25
 62
   256
 71
     3
340
11
 62
   256
 40
5.0
 90
        0
 40
15.0
 90
        1
300
%<\AcVar ViewDetailId>% (%<\AcVar ViewScale \f "%sn">%)
 71
     4
340
16
 90
       25
 62
   256
340
16
 90
       25
 62
   256
280
     0
  0
LAYOUT
  5
22
102
{ACAD_REACTORS
330
1A
102
}
330
1A
100
AcDbPlotSettings
  1

  2
None
  4
none_user_media
  6

 40
6.349999904632568
 41
6.349999904632568
 42
6.350006103515625
 43
6.350006103515625
 44
215.8999938964844
 45
279.3999938964844
 46
0.0
 47
81.57875845973331
 48
0.0
 49
0.0
140
0.0
141
0.0
142
1.0
143
3.58370404617982
 70
 11445
 72
     1
 73
     0
 74
     0
  7

 75
     0
 76
     0
 77
     2
 78
   300
147
0.2790408993359779
148
154.1043093895605
149
1.549288692994196
100
AcDbLayout
  1
Model
 70
     1
 71
     0
 10
0.0
 20
0.0
 11
420.0
 21
297.0
 12
0.0
 22
0.0
 32
0.0
 14
1.000000000000000E+20
 24
1.000000000000000E+20
 34
1.000000000000000E+20
 15
-1.000000000000000E+20
 25
-1.000000000000000E+20
 35
-1.000000000000000E+20
146
0.0
 13
0.0
 23
0.0
 33
0.0
 16
1.0
 26
0.0
 36
0.0
 17
0.0
 27
1.0
 37
0.0
 76
     0
330
1F
331
1BA
1001
ACAD_PSEXT
1000
无
1000
无
1000
不可用
1000
在选择新的绘图仪配置名称之前，不能打印该布局。
1070
     0
  0
LAYOUT
  5
1C8
102
{ACAD_REACTORS
330
1A
102
}
330
1A
100
AcDbPlotSettings
  1

  2
Microsoft XPS Document Writer#:1
  4

  6

 40
0.0
 41
0.0
 42
0.0
 43
0.0
 44
0.0
 45
0.0
 46
0.0
 47
0.0
 48
0.0
 49
0.0
140
0.0
141
0.0
142
1.0
143
1.0
 70
   688
 72
     0
 73
     0
 74
     5
  7

 75
    16
 76
     0
 77
     2
 78
   300
147
1.0
148
0.0
149
0.0
100
AcDbLayout
  1
布局1
 70
     1
 71
     1
 10
0.0
 20
0.0
 11
12.0
 21
9.0
 12
0.0
 22
0.0
 32
0.0
 14
0.0
 24
0.0
 34
0.0
 15
0.0
 25
0.0
 35
0.0
146
0.0
 13
0.0
 23
0.0
 33
0.0
 16
1.0
 26
0.0
 36
0.0
 17
0.0
 27
1.0
 37
0.0
 76
     0
330
1C7
  0
LAYOUT
  5
1CD
102
{ACAD_REACTORS
330
1A
102
}
330
1A
100
AcDbPlotSettings
  1

  2
Microsoft XPS Document Writer#:1
  4

  6

 40
0.0
 41
0.0
 42
0.0
 43
0.0
 44
0.0
 45
0.0
 46
0.0
 47
0.0
 48
0.0
 49
0.0
140
0.0
141
0.0
142
1.0
143
1.0
 70
   688
 72
     0
 73
     0
 74
     5
  7

 75
    16
 76
     0
 77
     2
 78
   300
147
1.0
148
0.0
149
0.0
100
AcDbLayout
  1
布局2
 70
     1
 71
     2
 10
0.0
 20
0.0
 11
12.0
 21
9.0
 12
0.0
 22
0.0
 32
0.0
 14
0.0
 24
0.0
 34
0.0
 15
0.0
 25
0.0
 35
0.0
146
0.0
 13
0.0
 23
0.0
 33
0.0
 16
1.0
 26
0.0
 36
0.0
 17
0.0
 27
1.0
 37
0.0
 76
     0
330
1CC
  0
MATERIAL
  5
135
102
{ACAD_REACTORS
330
6B
102
}
330
6B
100
AcDbMaterial
  1
ByBlock
 72
     0
 73
     2
 43
0.0008202099737533
 43
0.0
 43
0.0
 43
0.0
 43
0.0
 43
0.0008202099737533
 43
0.0
 43
0.0
 43
0.0
 43
0.0
 43
1.0
 43
0.0
 43
0.0
 43
0.0
 43
0.0
 43
1.0
 77
     0
 78
     2
 47
0.0008202099737533
 47
0.0
 47
0.0
 47
0.0
 47
0.0
 47
0.0008202099737533
 47
0.0
 47
0.0
 47
0.0
 47
0.0
 47
1.0
 47
0.0
 47
0.0
 47
0.0
 47
0.0
 47
1.0
171
     0
172
     2
 49
0.0008202099737533
 49
0.0
 49
0.0
 49
0.0
 49
0.0
 49
0.0008202099737533
 49
0.0
 49
0.0
 49
0.0
 49
0.0
 49
1.0
 49
0.0
 49
0.0
 49
0.0
 49
0.0
 49
1.0
175
     0
176
     2
142
0.0008202099737533
142
0.0
142
0.0
142
0.0
142
0.0
142
0.0008202099737533
142
0.0
142
0.0
142
0.0
142
0.0
142
1.0
142
0.0
142
0.0
142
0.0
142
0.0
142
1.0
179
     0
270
     2
144
0.0008202099737533
144
0.0
144
0.0
144
0.0
144
0.0
144
0.0008202099737533
144
0.0
144
0.0
144
0.0
144
0.0
144
1.0
144
0.0
144
0.0
144
0.0
144
0.0
144
1.0
274
     2
147
0.0008202099737533
147
0.0
147
0.0
147
0.0
147
0.0
147
0.0008202099737533
147
0.0
147
0.0
147
0.0
147
0.0
147
1.0
147
0.0
147
0.0
147
0.0
147
0.0
147
1.0
 94
      127
  0
MATERIAL
  5
12D
102
{ACAD_REACTORS
330
6B
102
}
330
6B
100
AcDbMaterial
  1
ByLayer
 72
     0
 73
     2
 43
0.0008202099737533
 43
0.0
 43
0.0
 43
0.0
 43
0.0
 43
0.0008202099737533
 43
0.0
 43
0.0
 43
0.0
 43
0.0
 43
1.0
 43
0.0
 43
0.0
 43
0.0
 43
0.0
 43
1.0
 77
     0
 78
     2
 47
0.0008202099737533
 47
0.0
 47
0.0
 47
0.0
 47
0.0
 47
0.0008202099737533
 47
0.0
 47
0.0
 47
0.0
 47
0.0
 47
1.0
 47
0.0
 47
0.0
 47
0.0
 47
0.0
 47
1.0
171
     0
172
     2
 49
0.0008202099737533
 49
0.0
 49
0.0
 49
0.0
 49
0.0
 49
0.0008202099737533
 49
0.0
 49
0.0
 49
0.0
 49
0.0
 49
1.0
 49
0.0
 49
0.0
 49
0.0
 49
0.0
 49
1.0
175
     0
176
     2
142
0.0008202099737533
142
0.0
142
0.0
142
0.0
142
0.0
142
0.0008202099737533
142
0.0
142
0.0
142
0.0
142
0.0
142
1.0
142
0.0
142
0.0
142
0.0
142
0.0
142
1.0
179
     0
270
     2
144
0.0008202099737533
144
0.0
144
0.0
144
0.0
144
0.0
144
0.0008202099737533
144
0.0
144
0.0
144
0.0
144
0.0
144
1.0
144
0.0
144
0.0
144
0.0
144
0.0
144
1.0
274
     2
147
0.0008202099737533
147
0.0
147
0.0
147
0.0
147
0.0
147
0.0008202099737533
147
0.0
147
0.0
147
0.0
147
0.0
147
1.0
147
0.0
147
0.0
147
0.0
147
0.0
147
1.0
 94
      127
  0
MATERIAL
  5
13D
102
{ACAD_REACTORS
330
6B
102
}
330
6B
100
AcDbMaterial
  1
Global
 72
     0
 73
     2
 43
0.0008202099737533
 43
0.0
 43
0.0
 43
0.0
 43
0.0
 43
0.0008202099737533
 43
0.0
 43
0.0
 43
0.0
 43
0.0
 43
1.0
 43
0.0
 43
0.0
 43
0.0
 43
0.0
 43
1.0
 77
     0
 78
     2
 47
0.0008202099737533
 47
0.0
 47
0.0
 47
0.0
 47
0.0
 47
0.0008202099737533
 47
0.0
 47
0.0
 47
0.0
 47
0.0
 47
1.0
 47
0.0
 47
0.0
 47
0.0
 47
0.0
 47
1.0
171
     0
172
     2
 49
0.0008202099737533
 49
0.0
 49
0.0
 49
0.0
 49
0.0
 49
0.0008202099737533
 49
0.0
 49
0.0
 49
0.0
 49
0.0
 49
1.0
 49
0.0
 49
0.0
 49
0.0
 49
0.0
 49
1.0
175
     0
176
     2
142
0.0008202099737533
142
0.0
142
0.0
142
0.0
142
0.0
142
0.0008202099737533
142
0.0
142
0.0
142
0.0
142
0.0
142
1.0
142
0.0
142
0.0
142
0.0
142
0.0
142
1.0
179
     0
270
     2
144
0.0008202099737533
144
0.0
144
0.0
144
0.0
144
0.0
144
0.0008202099737533
144
0.0
144
0.0
144
0.0
144
0.0
144
1.0
144
0.0
144
0.0
144
0.0
144
0.0
144
1.0
274
     2
147
0.0008202099737533
147
0.0
147
0.0
147
0.0
147
0.0
147
0.0008202099737533
147
0.0
147
0.0
147
0.0
147
0.0
147
1.0
147
0.0
147
0.0
147
0.0
147
0.0
147
1.0
 94
      127
  0
MLEADERSTYLE
  5
228
102
{ACAD_REACTORS
330
DE
102
}
330
DE
100
AcDbMLeaderStyle
179
     2
170
     2
171
     1
172
     0
 90
        2
 40
0.0
 41
0.0
173
     1
 91
-1056964608
340
14
 92
       -2
290
     1
 42
2.0
291
     1
 43
8.0
  3
Standard
 44
4.0
300

342
11
174
     1
178
     1
175
     1
176
     0
 93
-1056964608
 45
4.0
292
     0
297
     0
 46
0.18
 94
-1056964608
 47
1.0
 49
1.0
140
1.0
293
     1
141
0.0
294
     1
177
     0
142
1.0
295
     0
296
     1
143
3.75
271
     0
272
     9
273
     9
298
     0
  0
MLEADERSTYLE
  5
E1
102
{ACAD_REACTORS
330
DE
102
}
330
DE
100
AcDbMLeaderStyle
179
     2
170
     2
171
     1
172
     0
 90
        2
 40
0.0
 41
0.0
173
     1
 91
-1056964608
340
14
 92
       -2
290
     1
 42
2.0
291
     1
 43
8.0
  3
Standard
 44
4.0
300

342
11
174
     1
178
     1
175
     1
176
     0
 93
-1056964608
 45
4.0
292
     0
297
     0
 46
0.18
 94
-1056964608
 47
1.0
 49
1.0
140
1.0
293
     1
141
0.0
294
     1
177
     0
142
1.0
295
     0
296
     0
143
3.75
271
     0
272
     9
273
     9
298
     0
  0
MLINESTYLE
  5
18
102
{ACAD_REACTORS
330
17
102
}
330
17
100
AcDbMlineStyle
  2
STANDARD
 70
     0
  3

 62
   256
 51
90.0
 52
90.0
 71
     2
 49
0.5
 62
   256
  6
BYLAYER
 49
-0.5
 62
   256
  6
BYLAYER
  0
ACDBPLACEHOLDER
  5
F56
102
{ACAD_REACTORS
330
E
102
}
330
E
  0
ACDBPLACEHOLDER
  5
F27
102
{ACAD_REACTORS
330
E
102
}
330
E
  0
ACDBPLACEHOLDER
  5
F41
102
{ACAD_REACTORS
330
E
102
}
330
E
  0
ACDBPLACEHOLDER
  5
F
102
{ACAD_REACTORS
330
E
102
}
330
E
  0
SCALE
  5
B8
102
{ACAD_REACTORS
330
B7
102
}
330
B7
100
AcDbScale
 70
     0
300
1:1
140
1.0
141
1.0
290
     1
  0
SCALE
  5
204
102
{ACAD_REACTORS
330
B7
102
}
330
B7
100
AcDbScale
 70
     0
300
1:2
140
1.0
141
2.0
290
     0
  0
SCALE
  5
205
102
{ACAD_REACTORS
330
B7
102
}
330
B7
100
AcDbScale
 70
     0
300
1:4
140
1.0
141
4.0
290
     0
  0
SCALE
  5
206
102
{ACAD_REACTORS
330
B7
102
}
330
B7
100
AcDbScale
 70
     0
300
1:5
140
1.0
141
5.0
290
     0
  0
SCALE
  5
207
102
{ACAD_REACTORS
330
B7
102
}
330
B7
100
AcDbScale
 70
     0
300
1:8
140
1.0
141
8.0
290
     0
  0
SCALE
  5
208
102
{ACAD_REACTORS
330
B7
102
}
330
B7
100
AcDbScale
 70
     0
300
1:10
140
1.0
141
10.0
290
     0
  0
SCALE
  5
209
102
{ACAD_REACTORS
330
B7
102
}
330
B7
100
AcDbScale
 70
     0
300
1:16
140
1.0
141
16.0
290
     0
  0
SCALE
  5
20A
102
{ACAD_REACTORS
330
B7
102
}
330
B7
100
AcDbScale
 70
     0
300
1:20
140
1.0
141
20.0
290
     0
  0
SCALE
  5
20B
102
{ACAD_REACTORS
330
B7
102
}
330
B7
100
AcDbScale
 70
     0
300
1:30
140
1.0
141
30.0
290
     0
  0
SCALE
  5
20C
102
{ACAD_REACTORS
330
B7
102
}
330
B7
100
AcDbScale
 70
     0
300
1:40
140
1.0
141
40.0
290
     0
  0
SCALE
  5
20D
102
{ACAD_REACTORS
330
B7
102
}
330
B7
100
AcDbScale
 70
     0
300
1:50
140
1.0
141
50.0
290
     0
  0
SCALE
  5
20E
102
{ACAD_REACTORS
330
B7
102
}
330
B7
100
AcDbScale
 70
     0
300
1:100
140
1.0
141
100.0
290
     0
  0
SCALE
  5
20F
102
{ACAD_REACTORS
330
B7
102
}
330
B7
100
AcDbScale
 70
     0
300
2:1
140
2.0
141
1.0
290
     0
  0
SCALE
  5
210
102
{ACAD_REACTORS
330
B7
102
}
330
B7
100
AcDbScale
 70
     0
300
4:1
140
4.0
141
1.0
290
     0
  0
SCALE
  5
211
102
{ACAD_REACTORS
330
B7
102
}
330
B7
100
AcDbScale
 70
     0
300
8:1
140
8.0
141
1.0
290
     0
  0
SCALE
  5
212
102
{ACAD_REACTORS
330
B7
102
}
330
B7
100
AcDbScale
 70
     0
300
10:1
140
10.0
141
1.0
290
     0
  0
SCALE
  5
213
102
{ACAD_REACTORS
330
B7
102
}
330
B7
100
AcDbScale
 70
     0
300
100:1
140
100.0
141
1.0
290
     0
  0
ACDBSECTIONVIEWSTYLE
  5
1D6
102
{ACAD_REACTORS
330
1D5
102
}
330
1D5
100
AcDbModelDocViewStyle
 70
     0
  3
Metric50
290
     1
100
AcDbSectionViewStyle
 70
     0
 71
     0
 90
      102
 71
     1
340
11
 62
   256
 40
5.0
340
0
340
0
 62
   256
 40
5.0
300
I, O, Q, S, X, Z
 40
10.0
 90
        0
 40
2.5
 90
        0
 71
     2
340
16
 90
       25
 62
   256
340
16
 90
       50
 62
   256
 40
5.0
 40
2.5
 40
5.0
 71
     3
340
11
 62
   256
 40
5.0
 90
        0
 40
15.0
 90
        1
300
%<\AcVar ViewSectionStartId>%-%<\AcVar ViewSectionEndId>% (%<\AcVar ViewScale \f "%sn">%)
 71
     4
 62
   256
 62
   257
300
ANSI31
 40
1.0
 90
        0
290
     0
290
     0
 90
        6
 40
0.0
 40
1.570796326794896
 40
0.2617993877991494
 40
1.308996938995747
 40
-0.2617993877991494
 40
1.832595714594046
  0
TABLESTYLE
  5
93
102
{ACAD_REACTORS
330
92
102
}
330
92
100
AcDbTableStyle
  3
Standard
 70
     0
 71
     0
 40
1.5
 41
1.5
280
     0
281
     0
  7
Standard
140
4.5
170
     2
 62
     0
 63
   257
283
     0
 90
      512
 91
        0
  1

274
    -2
284
     1
 64
     0
275
    -2
285
     1
 65
     0
276
    -2
286
     1
 66
     0
277
    -2
287
     1
 67
     0
278
    -2
288
     1
 68
     0
279
    -2
289
     1
 69
     0
  7
Standard
140
6.0
170
     5
 62
     0
 63
   257
283
     0
 90
      512
 91
        0
  1

274
    -2
284
     1
 64
     0
275
    -2
285
     1
 65
     0
276
    -2
286
     1
 66
     0
277
    -2
287
     1
 67
     0
278
    -2
288
     1
 68
     0
279
    -2
289
     1
 69
     0
  7
Standard
140
4.5
170
     5
 62
     0
 63
   257
283
     0
 90
      512
 91
        0
  1

274
    -2
284
     1
 64
     0
275
    -2
285
     1
 65
     0
276
    -2
286
     1
 66
     0
277
    -2
287
     1
 67
     0
278
    -2
288
     1
 68
     0
279
    -2
289
     1
 69
     0
1001
ACAD
1000
AcRTDxfName
1000
TABLESTYLE
  0
VISUALSTYLE
  5
14B
102
{ACAD_REACTORS
330
145
102
}
330
145
100
AcDbVisualStyle
  2
2dWireframe
 70
     4
177
     3
291
     0
 70
    58
 90
        0
176
     1
 90
        2
176
     1
 90
        0
176
     1
 90
        0
176
     1
 40
0.6
176
     1
 40
30.0
176
     1
 62
     7
420
 16777215
176
     1
 90
        1
176
     1
 90
        4
176
     1
 62
     7
176
     1
 62
   257
176
     1
 90
        1
176
     1
 90
        1
176
     1
 40
1.0
176
     1
 90
        0
176
     1
 62
   257
176
     1
 40
1.0
176
     1
 90
        1
176
     1
 90
        6
176
     1
 90
        2
176
     1
 62
     7
176
     1
 90
        5
176
     1
 90
        0
176
     1
 90
        0
176
     1
290
     0
176
     1
 90
        1
176
     1
 40
0.0
176
     1
 90
        0
176
     1
290
     1
176
     1
290
     1
176
     1
290
     0
176
     1
290
     0
176
     1
290
     0
176
     1
290
     0
176
     1
290
     0
176
     1
290
     0
176
     1
290
     0
176
     1
 90
       50
176
     1
 40
0.0
176
     1
 40
1.0
176
     1
 90
        0
176
     1
 62
    18
420
        0
176
     1
 90
       50
176
     1
 90
        3
176
     1
 62
     5
420
      255
176
     1
290
     0
176
     1
 90
       50
176
     1
 90
       50
176
     1
 90
       50
176
     1
290
     0
176
     1
 90
       50
176
     1
 62
   256
176
     0
 40
1.0
176
     0
 90
        0
176
     1
  1
strokes_ogs.tif
176
     1
290
     0
176
     1
 40
1.0
176
     1
 40
1.0
176
     1
  0
VISUALSTYLE
  5
14A
102
{ACAD_REACTORS
330
145
102
}
330
145
100
AcDbVisualStyle
  2
Basic
 70
     7
177
     3
291
     1
 70
    58
 90
        1
176
     1
 90
        0
176
     1
 90
        1
176
     1
 90
        0
176
     1
 40
0.6
176
     1
 40
30.0
176
     1
 62
     7
420
 16777215
176
     1
 90
        0
176
     1
 90
        4
176
     1
 62
     7
176
     1
 62
   257
176
     1
 90
        1
176
     1
 90
        1
176
     1
 40
1.0
176
     1
 90
        8
176
     1
 62
     7
176
     1
 40
1.0
176
     1
 90
        1
176
     1
 90
        6
176
     1
 90
        2
176
     1
 62
     7
176
     1
 90
        5
176
     1
 90
        0
176
     1
 90
        0
176
     1
290
     0
176
     1
 90
        1
176
     1
 40
0.0
176
     1
 90
        0
176
     1
290
     0
176
     1
290
     1
176
     1
290
     1
176
     1
290
     0
176
     1
290
     0
176
     1
290
     0
176
     1
290
     0
176
     1
290
     0
176
     1
290
     0
176
     1
 90
       50
176
     1
 40
0.0
176
     1
 40
1.0
176
     1
 90
        0
176
     1
 62
    18
420
        0
176
     1
 90
       50
176
     1
 90
        3
176
     1
 62
     5
420
      255
176
     1
290
     0
176
     1
 90
       50
176
     1
 90
       50
176
     1
 90
       50
176
     1
290
     0
176
     1
 90
       50
176
     1
 62
   256
176
     0
 40
1.0
176
     0
 90
        0
176
     1
  1
strokes_ogs.tif
176
     1
290
     0
176
     1
 40
1.0
176
     1
 40
1.0
176
     1
  0
VISUALSTYLE
  5
151
102
{ACAD_REACTORS
330
145
102
}
330
145
100
AcDbVisualStyle
  2
Brighten
 70
    12
177
     3
291
     1
 70
    58
 90
        2
176
     1
 90
        2
176
     1
 90
        0
176
     1
 90
        0
176
     1
 40
0.6
176
     1
 40
30.0
176
     1
 62
     7
420
 16777215
176
     1
 90
        1
176
     1
 90
        4
176
     1
 62
     7
176
     1
 62
   257
176
     1
 90
        1
176
     1
 90
        1
176
     1
 40
1.0
176
     1
 90
        8
176
     1
 62
     7
176
     1
 40
1.0
176
     1
 90
        1
176
     1
 90
        6
176
     1
 90
        2
176
     1
 62
     7
176
     1
 90
        5
176
     1
 90
        0
176
     1
 90
        0
176
     1
290
     0
176
     1
 90
        1
176
     1
 40
50.0
176
     1
 90
        0
176
     1
290
     0
176
     1
290
     1
176
     1
290
     1
176
     1
290
     0
176
     1
290
     0
176
     1
290
     0
176
     1
290
     0
176
     1
290
     0
176
     1
290
     0
176
     1
 90
       50
176
     1
 40
0.0
176
     1
 40
1.0
176
     1
 90
        0
176
     1
 62
    18
420
        0
176
     1
 90
       50
176
     1
 90
        3
176
     1
 62
     5
420
      255
176
     1
290
     0
176
     1
 90
       50
176
     1
 90
       50
176
     1
 90
       50
176
     1
290
     0
176
     1
 90
       50
176
     1
 62
   256
176
     0
 40
1.0
176
     0
 90
        0
176
     1
  1
strokes_ogs.tif
176
     1
290
     0
176
     1
 40
1.0
176
     1
 40
1.0
176
     1
  0
VISUALSTYLE
  5
155
102
{ACAD_REACTORS
330
145
102
}
330
145
100
AcDbVisualStyle
  2
ColorChange
 70
    16
177
     3
291
     1
 70
    58
 90
        2
176
     1
 90
        2
176
     1
 90
        3
176
     1
 90
        0
176
     1
 40
0.6
176
     1
 40
30.0
176
     1
 62
     8
420
  8421504
176
     1
 90
        1
176
     1
 90
        4
176
     1
 62
     7
176
     1
 62
   257
176
     1
 90
        1
176
     1
 90
        1
176
     1
 40
1.0
176
     1
 90
        8
176
     1
 62
     8
420
  8421504
176
     1
 40
1.0
176
     1
 90
        1
176
     1
 90
        6
176
     1
 90
        2
176
     1
 62
     7
176
     1
 90
        5
176
     1
 90
        0
176
     1
 90
        0
176
     1
290
     0
176
     1
 90
        1
176
     1
 40
0.0
176
     1
 90
        0
176
     1
290
     0
176
     1
290
     1
176
     1
290
     1
176
     1
290
     0
176
     1
290
     0
176
     1
290
     0
176
     1
290
     0
176
     1
290
     0
176
     1
290
     0
176
     1
 90
       50
176
     1
 40
0.0
176
     1
 40
1.0
176
     1
 90
        0
176
     1
 62
    18
420
        0
176
     1
 90
       50
176
     1
 90
        3
176
     1
 62
     5
420
      255
176
     1
290
     0
176
     1
 90
       50
176
     1
 90
       50
176
     1
 90
       50
176
     1
290
     0
176
     1
 90
       50
176
     1
 62
   256
176
     0
 40
1.0
176
     0
 90
        0
176
     1
  1
strokes_ogs.tif
176
     1
290
     0
176
     1
 40
1.0
176
     1
 40
1.0
176
     1
  0
VISUALSTYLE
  5
14E
102
{ACAD_REACTORS
330
145
102
}
330
145
100
AcDbVisualStyle
  2
Conceptual
 70
     9
177
     3
291
     0
 70
    58
 90
        3
176
     1
 90
        2
176
     1
 90
        0
176
     1
 90
        0
176
     1
 40
0.6
176
     1
 40
30.0
176
     1
 62
     7
420
 16777215
176
     1
 90
        2
176
     1
 90
        2
176
     1
 62
     7
176
     1
 62
   257
176
     1
 90
        1
176
     1
 90
        1
176
     1
 40
179.0
176
     1
 90
        8
176
     1
 62
     7
176
     1
 40
1.0
176
     1
 90
        1
176
     1
 90
        6
176
     1
 90
        2
176
     1
 62
     7
176
     1
 90
        3
176
     1
 90
        0
176
     1
 90
        0
176
     1
290
     0
176
     1
 90
        1
176
     1
 40
0.0
176
     1
 90
        0
176
     1
290
     0
176
     1
290
     1
176
     1
290
     1
176
     1
290
     0
176
     1
290
     0
176
     1
290
     0
176
     1
290
     0
176
     1
290
     0
176
     1
290
     0
176
     1
 90
       50
176
     1
 40
0.0
176
     1
 40
1.0
176
     1
 90
        0
176
     1
 62
    18
420
        0
176
     1
 90
       50
176
     1
 90
        3
176
     1
 62
     5
420
      255
176
     1
290
     0
176
     1
 90
       50
176
     1
 90
       50
176
     1
 90
       50
176
     1
290
     0
176
     1
 90
       50
176
     1
 62
   256
176
     0
 40
1.0
176
     0
 90
        0
176
     1
  1
strokes_ogs.tif
176
     1
290
     0
176
     1
 40
1.0
176
     1
 40
1.0
176
     1
  0
VISUALSTYLE
  5
150
102
{ACAD_REACTORS
330
145
102
}
330
145
100
AcDbVisualStyle
  2
Dim
 70
    11
177
     3
291
     1
 70
    58
 90
        2
176
     1
 90
        2
176
     1
 90
        0
176
     1
 90
        0
176
     1
 40
0.6
176
     1
 40
30.0
176
     1
 62
     7
420
 16777215
176
     1
 90
        1
176
     1
 90
        4
176
     1
 62
     7
176
     1
 62
   257
176
     1
 90
        1
176
     1
 90
        1
176
     1
 40
1.0
176
     1
 90
        8
176
     1
 62
     7
176
     1
 40
1.0
176
     1
 90
        1
176
     1
 90
        6
176
     1
 90
        2
176
     1
 62
     7
176
     1
 90
        5
176
     1
 90
        0
176
     1
 90
        0
176
     1
290
     0
176
     1
 90
        1
176
     1
 40
-50.0
176
     1
 90
        0
176
     1
290
     0
176
     1
290
     1
176
     1
290
     1
176
     1
290
     0
176
     1
290
     0
176
     1
290
     0
176
     1
290
     0
176
     1
290
     0
176
     1
290
     0
176
     1
 90
       50
176
     1
 40
0.0
176
     1
 40
1.0
176
     1
 90
        0
176
     1
 62
    18
420
        0
176
     1
 90
       50
176
     1
 90
        3
176
     1
 62
     5
420
      255
176
     1
290
     0
176
     1
 90
       50
176
     1
 90
       50
176
     1
 90
       50
176
     1
290
     0
176
     1
 90
       50
176
     1
 62
   256
176
     0
 40
1.0
176
     0
 90
        0
176
     1
  1
strokes_ogs.tif
176
     1
290
     0
176
     1
 40
1.0
176
     1
 40
1.0
176
     1
  0
VISUALSTYLE
  5
15D
102
{ACAD_REACTORS
330
145
102
}
330
145
100
AcDbVisualStyle
  2
EdgeColorOff
 70
    22
177
     3
291
     1
 70
    58
 90
        2
176
     0
 90
        2
176
     0
 90
        0
176
     0
 90
        0
176
     0
 40
0.6
176
     0
 40
30.0
176
     0
 62
     7
420
 16777215
176
     0
 90
        1
176
     0
 90
        4
176
     0
 62
     7
176
     0
 62
   257
176
     0
 90
        1
176
     0
 90
        1
176
     0
 40
1.0
176
     0
 90
        8
176
     2
 62
     7
176
     0
 40
1.0
176
     0
 90
        1
176
     0
 90
        6
176
     0
 90
        2
176
     0
 62
     7
176
     0
 90
        5
176
     0
 90
        0
176
     0
 90
        0
176
     0
290
     0
176
     0
 90
        1
176
     0
 40
0.0
176
     0
 90
        0
176
     0
290
     0
176
     1
290
     1
176
     1
290
     1
176
     1
290
     0
176
     1
290
     0
176
     1
290
     0
176
     1
290
     0
176
     1
290
     0
176
     1
290
     0
176
     1
 90
       50
176
     1
 40
0.0
176
     1
 40
1.0
176
     1
 90
        0
176
     1
 62
    18
420
        0
176
     1
 90
       50
176
     1
 90
        3
176
     1
 62
     5
420
      255
176
     1
290
     0
176
     1
 90
       50
176
     1
 90
       50
176
     1
 90
       50
176
     1
290
     0
176
     1
 90
       50
176
     1
 62
   256
176
     0
 40
1.0
176
     0
 90
        0
176
     1
  1
strokes_ogs.tif
176
     1
290
     0
176
     1
 40
1.0
176
     1
 40
1.0
176
     1
  0
VISUALSTYLE
  5
154
102
{ACAD_REACTORS
330
145
102
}
330
145
100
AcDbVisualStyle
  2
Facepattern
 70
    15
177
     3
291
     1
 70
    58
 90
        2
176
     1
 90
        2
176
     1
 90
        0
176
     1
 90
        0
176
     1
 40
0.6
176
     1
 40
30.0
176
     1
 62
     7
420
 16777215
176
     1
 90
        1
176
     1
 90
        4
176
     1
 62
     7
176
     1
 62
   257
176
     1
 90
        1
176
     1
 90
        1
176
     1
 40
1.0
176
     1
 90
        8
176
     1
 62
     7
176
     1
 40
1.0
176
     1
 90
        1
176
     1
 90
        6
176
     1
 90
        2
176
     1
 62
     7
176
     1
 90
        5
176
     1
 90
        0
176
     1
 90
        0
176
     1
290
     0
176
     1
 90
        1
176
     1
 40
0.0
176
     1
 90
        0
176
     1
290
     0
176
     1
290
     1
176
     1
290
     1
176
     1
290
     0
176
     1
290
     0
176
     1
290
     0
176
     1
290
     0
176
     1
290
     0
176
     1
290
     0
176
     1
 90
       50
176
     1
 40
0.0
176
     1
 40
1.0
176
     1
 90
        0
176
     1
 62
    18
420
        0
176
     1
 90
       50
176
     1
 90
        3
176
     1
 62
     5
420
      255
176
     1
290
     0
176
     1
 90
       50
176
     1
 90
       50
176
     1
 90
       50
176
     1
290
     0
176
     1
 90
       50
176
     1
 62
   256
176
     0
 40
1.0
176
     0
 90
        0
176
     1
  1
strokes_ogs.tif
176
     1
290
     0
176
     1
 40
1.0
176
     1
 40
1.0
176
     1
  0
VISUALSTYLE
  5
146
102
{ACAD_REACTORS
330
145
102
}
330
145
100
AcDbVisualStyle
  2
Flat
 70
     0
177
     3
291
     1
 70
    58
 90
        2
176
     1
 90
        1
176
     1
 90
        1
176
     1
 90
        2
176
     1
 40
0.6
176
     1
 40
30.0
176
     1
 62
     7
420
 16777215
176
     1
 90
        0
176
     1
 90
        0
176
     1
 62
     7
176
     1
 62
   257
176
     1
 90
        1
176
     1
 90
        1
176
     1
 40
1.0
176
     1
 90
        8
176
     1
 62
     7
176
     1
 40
1.0
176
     1
 90
        1
176
     1
 90
        6
176
     1
 90
        2
176
     1
 62
     7
176
     1
 90
        5
176
     1
 90
        0
176
     1
 90
        0
176
     1
290
     0
176
     1
 90
       13
176
     1
 40
0.0
176
     1
 90
        0
176
     1
290
     0
176
     1
290
     1
176
     1
290
     1
176
     1
290
     0
176
     1
290
     0
176
     1
290
     0
176
     1
290
     0
176
     1
290
     0
176
     1
290
     0
176
     1
 90
       50
176
     1
 40
0.0
176
     1
 40
1.0
176
     1
 90
        0
176
     1
 62
    18
420
        0
176
     1
 90
       50
176
     1
 90
        3
176
     1
 62
     5
420
      255
176
     1
290
     0
176
     1
 90
       50
176
     1
 90
       50
176
     1
 90
       50
176
     1
290
     0
176
     1
 90
       50
176
     1
 62
   256
176
     0
 40
1.0
176
     0
 90
        0
176
     1
  1
strokes_ogs.tif
176
     1
290
     0
176
     1
 40
1.0
176
     1
 40
1.0
176
     1
  0
VISUALSTYLE
  5
147
102
{ACAD_REACTORS
330
145
102
}
330
145
100
AcDbVisualStyle
  2
FlatWithEdges
 70
     1
177
     3
291
     1
 70
    58
 90
        2
176
     1
 90
        1
176
     1
 90
        1
176
     1
 90
        2
176
     1
 40
0.6
176
     1
 40
30.0
176
     1
 62
     7
420
 16777215
176
     1
 90
        1
176
     1
 90
        0
176
     1
 62
     7
176
     1
 62
   257
176
     1
 90
        1
176
     1
 90
        1
176
     1
 40
1.0
176
     1
 90
        0
176
     1
 62
   257
176
     1
 40
1.0
176
     1
 90
        1
176
     1
 90
        6
176
     1
 90
        2
176
     1
 62
     7
176
     1
 90
        5
176
     1
 90
        0
176
     1
 90
        0
176
     1
290
     0
176
     1
 90
       13
176
     1
 40
0.0
176
     1
 90
        0
176
     1
290
     0
176
     1
290
     1
176
     1
290
     1
176
     1
290
     0
176
     1
290
     0
176
     1
290
     0
176
     1
290
     0
176
     1
290
     0
176
     1
290
     0
176
     1
 90
       50
176
     1
 40
0.0
176
     1
 40
1.0
176
     1
 90
        0
176
     1
 62
    18
420
        0
176
     1
 90
       50
176
     1
 90
        3
176
     1
 62
     5
420
      255
176
     1
290
     0
176
     1
 90
       50
176
     1
 90
       50
176
     1
 90
       50
176
     1
290
     0
176
     1
 90
       50
176
     1
 62
   256
176
     0
 40
1.0
176
     0
 90
        0
176
     1
  1
strokes_ogs.tif
176
     1
290
     0
176
     1
 40
1.0
176
     1
 40
1.0
176
     1
  0
VISUALSTYLE
  5
148
102
{ACAD_REACTORS
330
145
102
}
330
145
100
AcDbVisualStyle
  2
Gouraud
 70
     2
177
     3
291
     1
 70
    58
 90
        2
176
     1
 90
        2
176
     1
 90
        1
176
     1
 90
        2
176
     1
 40
0.6
176
     1
 40
30.0
176
     1
 62
     7
420
 16777215
176
     1
 90
        0
176
     1
 90
        0
176
     1
 62
     7
176
     1
 62
   257
176
     1
 90
        1
176
     1
 90
        1
176
     1
 40
1.0
176
     1
 90
        0
176
     1
 62
     7
176
     1
 40
1.0
176
     1
 90
        1
176
     1
 90
        6
176
     1
 90
        2
176
     1
 62
     7
176
     1
 90
        5
176
     1
 90
        0
176
     1
 90
        0
176
     1
290
     0
176
     1
 90
       13
176
     1
 40
0.0
176
     1
 90
        0
176
     1
290
     0
176
     1
290
     1
176
     1
290
     1
176
     1
290
     0
176
     1
290
     0
176
     1
290
     0
176
     1
290
     0
176
     1
290
     0
176
     1
290
     0
176
     1
 90
       50
176
     1
 40
0.0
176
     1
 40
1.0
176
     1
 90
        0
176
     1
 62
    18
420
        0
176
     1
 90
       50
176
     1
 90
        3
176
     1
 62
     5
420
      255
176
     1
290
     0
176
     1
 90
       50
176
     1
 90
       50
176
     1
 90
       50
176
     1
290
     0
176
     1
 90
       50
176
     1
 62
   256
176
     0
 40
1.0
176
     0
 90
        0
176
     1
  1
strokes_ogs.tif
176
     1
290
     0
176
     1
 40
1.0
176
     1
 40
1.0
176
     1
  0
VISUALSTYLE
  5
149
102
{ACAD_REACTORS
330
145
102
}
330
145
100
AcDbVisualStyle
  2
GouraudWithEdges
 70
     3
177
     3
291
     1
 70
    58
 90
        2
176
     1
 90
        2
176
     1
 90
        1
176
     1
 90
        2
176
     1
 40
0.6
176
     1
 40
30.0
176
     1
 62
     7
420
 16777215
176
     1
 90
        1
176
     1
 90
        0
176
     1
 62
     7
176
     1
 62
   257
176
     1
 90
        1
176
     1
 90
        1
176
     1
 40
1.0
176
     1
 90
        0
176
     1
 62
   257
176
     1
 40
1.0
176
     1
 90
        1
176
     1
 90
        6
176
     1
 90
        2
176
     1
 62
     7
176
     1
 90
        5
176
     1
 90
        0
176
     1
 90
        0
176
     1
290
     0
176
     1
 90
       13
176
     1
 40
0.0
176
     1
 90
        0
176
     1
290
     0
176
     1
290
     1
176
     1
290
     1
176
     1
290
     0
176
     1
290
     0
176
     1
290
     0
176
     1
290
     0
176
     1
290
     0
176
     1
290
     0
176
     1
 90
       50
176
     1
 40
0.0
176
     1
 40
1.0
176
     1
 90
        0
176
     1
 62
    18
420
        0
176
     1
 90
       50
176
     1
 90
        3
176
     1
 62
     5
420
      255
176
     1
290
     0
176
     1
 90
       50
176
     1
 90
       50
176
     1
 90
       50
176
     1
290
     0
176
     1
 90
       50
176
     1
 62
   256
176
     0
 40
1.0
176
     0
 90
        0
176
     1
  1
strokes_ogs.tif
176
     1
290
     0
176
     1
 40
1.0
176
     1
 40
1.0
176
     1
  0
VISUALSTYLE
  5
14D
102
{ACAD_REACTORS
330
145
102
}
330
145
100
AcDbVisualStyle
  2
Hidden
 70
     6
177
     3
291
     0
 70
    58
 90
        1
176
     1
 90
        2
176
     1
 90
        2
176
     1
 90
        0
176
     1
 40
0.6
176
     1
 40
30.0
176
     1
 62
     7
420
 16777215
176
     1
 90
        2
176
     1
 90
        2
176
     1
 62
     7
176
     1
 62
   257
176
     1
 90
        2
176
     1
 90
        1
176
     1
 40
40.0
176
     1
 90
        0
176
     1
 62
   257
176
     1
 40
1.0
176
     1
 90
        1
176
     1
 90
        6
176
     1
 90
        2
176
     1
 62
     7
176
     1
 90
        3
176
     1
 90
        0
176
     1
 90
        0
176
     1
290
     0
176
     1
 90
        1
176
     1
 40
0.0
176
     1
 90
        0
176
     1
290
     0
176
     1
290
     1
176
     1
290
     1
176
     1
290
     0
176
     1
290
     0
176
     1
290
     0
176
     1
290
     0
176
     1
290
     0
176
     1
290
     0
176
     1
 90
       50
176
     1
 40
0.0
176
     1
 40
1.0
176
     1
 90
        0
176
     1
 62
    18
420
        0
176
     1
 90
       50
176
     1
 90
        3
176
     1
 62
     5
420
      255
176
     1
290
     0
176
     1
 90
       50
176
     1
 90
       50
176
     1
 90
       50
176
     1
290
     0
176
     1
 90
       50
176
     1
 62
   256
176
     0
 40
1.0
176
     0
 90
        0
176
     1
  1
strokes_ogs.tif
176
     1
290
     0
176
     1
 40
1.0
176
     1
 40
1.0
176
     1
  0
VISUALSTYLE
  5
15B
102
{ACAD_REACTORS
330
145
102
}
330
145
100
AcDbVisualStyle
  2
JitterOff
 70
    20
177
     3
291
     1
 70
    58
 90
        2
176
     0
 90
        2
176
     0
 90
        0
176
     0
 90
        0
176
     0
 40
0.6
176
     0
 40
30.0
176
     0
 62
     7
420
 16777215
176
     0
 90
        1
176
     0
 90
        4
176
     0
 62
     7
176
     0
 62
   257
176
     0
 90
        1
176
     0
 90
        1
176
     0
 40
1.0
176
     0
 90
       10
176
     2
 62
     7
176
     0
 40
1.0
176
     0
 90
        1
176
     0
 90
        6
176
     0
 90
        2
176
     0
 62
     7
176
     0
 90
        5
176
     0
 90
        0
176
     0
 90
        0
176
     0
290
     0
176
     0
 90
        1
176
     0
 40
0.0
176
     0
 90
        0
176
     0
290
     0
176
     1
290
     1
176
     1
290
     1
176
     1
290
     0
176
     1
290
     0
176
     1
290
     0
176
     1
290
     0
176
     1
290
     0
176
     1
290
     0
176
     1
 90
       50
176
     1
 40
0.0
176
     1
 40
1.0
176
     1
 90
        0
176
     1
 62
    18
420
        0
176
     1
 90
       50
176
     1
 90
        3
176
     1
 62
     5
420
      255
176
     1
290
     0
176
     1
 90
       50
176
     1
 90
       50
176
     1
 90
       50
176
     1
290
     0
176
     1
 90
       50
176
     1
 62
   256
176
     0
 40
1.0
176
     0
 90
        0
176
     1
  1
strokes_ogs.tif
176
     1
290
     0
176
     1
 40
1.0
176
     1
 40
1.0
176
     1
  0
VISUALSTYLE
  5
153
102
{ACAD_REACTORS
330
145
102
}
330
145
100
AcDbVisualStyle
  2
Linepattern
 70
    14
177
     3
291
     1
 70
    58
 90
        2
176
     1
 90
        2
176
     1
 90
        0
176
     1
 90
        0
176
     1
 40
0.6
176
     1
 40
30.0
176
     1
 62
     7
420
 16777215
176
     1
 90
        1
176
     1
 90
        4
176
     1
 62
     7
176
     1
 62
   257
176
     1
 90
        7
176
     1
 90
        7
176
     1
 40
1.0
176
     1
 90
        8
176
     1
 62
     7
176
     1
 40
1.0
176
     1
 90
        1
176
     1
 90
        6
176
     1
 90
        2
176
     1
 62
     7
176
     1
 90
        5
176
     1
 90
        0
176
     1
 90
        0
176
     1
290
     0
176
     1
 90
        1
176
     1
 40
0.0
176
     1
 90
        0
176
     1
290
     0
176
     1
290
     1
176
     1
290
     1
176
     1
290
     0
176
     1
290
     0
176
     1
290
     0
176
     1
290
     0
176
     1
290
     0
176
     1
290
     0
176
     1
 90
       50
176
     1
 40
0.0
176
     1
 40
1.0
176
     1
 90
        0
176
     1
 62
    18
420
        0
176
     1
 90
       50
176
     1
 90
        3
176
     1
 62
     5
420
      255
176
     1
290
     0
176
     1
 90
       50
176
     1
 90
       50
176
     1
 90
       50
176
     1
290
     0
176
     1
 90
       50
176
     1
 62
   256
176
     0
 40
1.0
176
     0
 90
        0
176
     1
  1
strokes_ogs.tif
176
     1
290
     0
176
     1
 40
1.0
176
     1
 40
1.0
176
     1
  0
VISUALSTYLE
  5
15C
102
{ACAD_REACTORS
330
145
102
}
330
145
100
AcDbVisualStyle
  2
OverhangOff
 70
    21
177
     3
291
     1
 70
    58
 90
        2
176
     0
 90
        2
176
     0
 90
        0
176
     0
 90
        0
176
     0
 40
0.6
176
     0
 40
30.0
176
     0
 62
     7
420
 16777215
176
     0
 90
        1
176
     0
 90
        4
176
     0
 62
     7
176
     0
 62
   257
176
     0
 90
        1
176
     0
 90
        1
176
     0
 40
1.0
176
     0
 90
        9
176
     2
 62
     7
176
     0
 40
1.0
176
     0
 90
        1
176
     0
 90
        6
176
     0
 90
        2
176
     0
 62
     7
176
     0
 90
        5
176
     0
 90
        0
176
     0
 90
        0
176
     0
290
     0
176
     0
 90
        1
176
     0
 40
0.0
176
     0
 90
        0
176
     0
290
     0
176
     1
290
     1
176
     1
290
     1
176
     1
290
     0
176
     1
290
     0
176
     1
290
     0
176
     1
290
     0
176
     1
290
     0
176
     1
290
     0
176
     1
 90
       50
176
     1
 40
0.0
176
     1
 40
1.0
176
     1
 90
        0
176
     1
 62
    18
420
        0
176
     1
 90
       50
176
     1
 90
        3
176
     1
 62
     5
420
      255
176
     1
290
     0
176
     1
 90
       50
176
     1
 90
       50
176
     1
 90
       50
176
     1
290
     0
176
     1
 90
       50
176
     1
 62
   256
176
     0
 40
1.0
176
     0
 90
        0
176
     1
  1
strokes_ogs.tif
176
     1
290
     0
176
     1
 40
1.0
176
     1
 40
1.0
176
     1
  0
VISUALSTYLE
  5
14F
102
{ACAD_REACTORS
330
145
102
}
330
145
100
AcDbVisualStyle
  2
Realistic
 70
     8
177
     3
291
     0
 70
    58
 90
        2
176
     1
 90
        3
176
     1
 90
        0
176
     1
 90
        2
176
     1
 40
0.6
176
     1
 40
30.0
176
     1
 62
     7
420
 16777215
176
     1
 90
        0
176
     1
 90
        0
176
     1
 62
     7
176
     1
 62
   257
176
     1
 90
        1
176
     1
 90
        1
176
     1
 40
1.0
176
     1
 90
        8
176
     1
 62
   257
176
     1
 40
1.0
176
     1
 90
        1
176
     1
 90
        6
176
     1
 90
        2
176
     1
 62
     7
176
     1
 90
        3
176
     1
 90
        0
176
     1
 90
        0
176
     1
290
     0
176
     1
 90
       13
176
     1
 40
0.0
176
     1
 90
        0
176
     1
290
     0
176
     1
290
     1
176
     1
290
     1
176
     1
290
     0
176
     1
290
     0
176
     1
290
     0
176
     1
290
     0
176
     1
290
     0
176
     1
290
     0
176
     1
 90
       50
176
     1
 40
0.0
176
     1
 40
1.0
176
     1
 90
        0
176
     1
 62
    18
420
        0
176
     1
 90
       50
176
     1
 90
        3
176
     1
 62
     5
420
      255
176
     1
290
     0
176
     1
 90
       50
176
     1
 90
       50
176
     1
 90
       50
176
     1
290
     0
176
     1
 90
       50
176
     1
 62
   256
176
     0
 40
1.0
176
     0
 90
        0
176
     1
  1
strokes_ogs.tif
176
     1
290
     0
176
     1
 40
1.0
176
     1
 40
1.0
176
     1
  0
VISUALSTYLE
  5
15A
102
{ACAD_REACTORS
330
145
102
}
330
145
100
AcDbVisualStyle
  2
Shaded
 70
    27
177
     3
291
     0
 70
    58
 90
        2
176
     1
 90
        2
176
     1
 90
        1
176
     1
 90
        2
176
     1
 40
0.6
176
     1
 40
30.0
176
     1
 62
     7
420
 16777215
176
     1
 90
        0
176
     1
 90
        4
176
     1
 62
     7
176
     1
 62
   257
176
     1
 90
        1
176
     1
 90
        1
176
     1
 40
1.0
176
     1
 90
        8
176
     1
 62
   257
176
     1
 40
1.0
176
     1
 90
        1
176
     1
 90
        6
176
     1
 90
        2
176
     1
 62
     8
420
  7895160
176
     1
 90
        3
176
     1
 90
        0
176
     1
 90
        0
176
     1
290
     0
176
     1
 90
        5
176
     1
 40
0.0
176
     1
 90
        0
176
     1
290
     0
176
     1
290
     1
176
     1
290
     1
176
     1
290
     0
176
     1
290
     0
176
     1
290
     0
176
     1
290
     0
176
     1
290
     0
176
     1
290
     0
176
     1
 90
       50
176
     1
 40
0.0
176
     1
 40
1.0
176
     1
 90
        0
176
     1
 62
    18
420
        0
176
     1
 90
       50
176
     1
 90
        3
176
     1
 62
     5
420
      255
176
     1
290
     0
176
     1
 90
       50
176
     1
 90
       50
176
     1
 90
       50
176
     1
290
     0
176
     1
 90
       50
176
     1
 62
   256
176
     0
 40
1.0
176
     0
 90
        0
176
     1
  1
strokes_ogs.tif
176
     1
290
     0
176
     1
 40
1.0
176
     1
 40
1.0
176
     1
  0
VISUALSTYLE
  5
159
102
{ACAD_REACTORS
330
145
102
}
330
145
100
AcDbVisualStyle
  2
Shaded with edges
 70
    26
177
     3
291
     0
 70
    58
 90
        2
176
     1
 90
        2
176
     1
 90
        1
176
     1
 90
        2
176
     1
 40
0.6
176
     1
 40
30.0
176
     1
 62
     7
420
 16777215
176
     1
 90
        1
176
     1
 90
       10
176
     1
 62
     7
176
     1
 62
   257
176
     1
 90
        2
176
     1
 90
        1
176
     1
 40
1.0
176
     1
 90
        8
176
     1
 62
   257
176
     1
 40
1.0
176
     1
 90
        1
176
     1
 90
        6
176
     1
 90
        2
176
     1
 62
     7
176
     1
 90
        3
176
     1
 90
        0
176
     1
 90
        0
176
     1
290
     0
176
     1
 90
        5
176
     1
 40
0.0
176
     1
 90
        0
176
     1
290
     0
176
     1
290
     1
176
     1
290
     1
176
     1
290
     0
176
     1
290
     0
176
     1
290
     0
176
     1
290
     0
176
     1
290
     0
176
     1
290
     0
176
     1
 90
       50
176
     1
 40
0.0
176
     1
 40
1.0
176
     1
 90
        0
176
     1
 62
    18
420
        0
176
     1
 90
       50
176
     1
 90
        3
176
     1
 62
     5
420
      255
176
     1
290
     0
176
     1
 90
       50
176
     1
 90
       50
176
     1
 90
       50
176
     1
290
     0
176
     1
 90
       50
176
     1
 62
   256
176
     0
 40
1.0
176
     0
 90
        0
176
     1
  1
strokes_ogs.tif
176
     1
290
     0
176
     1
 40
1.0
176
     1
 40
1.0
176
     1
  0
VISUALSTYLE
  5
156
102
{ACAD_REACTORS
330
145
102
}
330
145
100
AcDbVisualStyle
  2
Shades of Gray
 70
    23
177
     3
291
     0
 70
    58
 90
        2
176
     1
 90
        2
176
     1
 90
        3
176
     1
 90
        0
176
     1
 40
0.6
176
     1
 40
30.0
176
     1
 62
     7
420
 16777215
176
     1
 90
        2
176
     1
 90
        2
176
     1
 62
     7
176
     1
 62
     7
176
     1
 90
        1
176
     1
 90
        1
176
     1
 40
40.0
176
     1
 90
        8
176
     1
 62
     7
176
     1
 40
1.0
176
     1
 90
        1
176
     1
 90
        6
176
     1
 90
        2
176
     1
 62
     7
176
     1
 90
        3
176
     1
 90
        0
176
     1
 90
        0
176
     1
290
     0
176
     1
 90
        1
176
     1
 40
0.0
176
     1
 90
        0
176
     1
290
     0
176
     1
290
     1
176
     1
290
     1
176
     1
290
     0
176
     1
290
     0
176
     1
290
     0
176
     1
290
     0
176
     1
290
     0
176
     1
290
     0
176
     1
 90
       50
176
     1
 40
0.0
176
     1
 40
1.0
176
     1
 90
        0
176
     1
 62
    18
420
        0
176
     1
 90
       50
176
     1
 90
        3
176
     1
 62
     5
420
      255
176
     1
290
     0
176
     1
 90
       50
176
     1
 90
       50
176
     1
 90
       50
176
     1
290
     0
176
     1
 90
       50
176
     1
 62
   256
176
     0
 40
1.0
176
     0
 90
        0
176
     1
  1
strokes_ogs.tif
176
     1
290
     0
176
     1
 40
1.0
176
     1
 40
1.0
176
     1
  0
VISUALSTYLE
  5
157
102
{ACAD_REACTORS
330
145
102
}
330
145
100
AcDbVisualStyle
  2
Sketchy
 70
    24
177
     3
291
     0
 70
    58
 90
        1
176
     1
 90
        2
176
     1
 90
        2
176
     1
 90
        0
176
     1
 40
0.6
176
     1
 40
30.0
176
     1
 62
     7
420
 16777215
176
     1
 90
        2
176
     1
 90
        2
176
     1
 62
     7
176
     1
 62
     7
176
     1
 90
        1
176
     1
 90
        1
176
     1
 40
40.0
176
     1
 90
       11
176
     1
 62
     7
176
     1
 40
1.0
176
     1
 90
        1
176
     1
 90
        6
176
     1
 90
        2
176
     1
 62
     7
176
     1
 90
        6
176
     1
 90
        0
176
     1
 90
        0
176
     1
290
     0
176
     1
 90
        1
176
     1
 40
0.0
176
     1
 90
        0
176
     1
290
     0
176
     1
290
     1
176
     1
290
     1
176
     1
290
     0
176
     1
290
     0
176
     1
290
     0
176
     1
290
     0
176
     1
290
     0
176
     1
290
     0
176
     1
 90
       50
176
     1
 40
0.0
176
     1
 40
1.0
176
     1
 90
        0
176
     1
 62
    18
420
        0
176
     1
 90
       50
176
     1
 90
        3
176
     1
 62
     5
420
      255
176
     1
290
     0
176
     1
 90
       50
176
     1
 90
       50
176
     1
 90
       50
176
     1
290
     0
176
     1
 90
       50
176
     1
 62
   256
176
     0
 40
1.0
176
     0
 90
        0
176
     1
  1
strokes_ogs.tif
176
     1
290
     0
176
     1
 40
1.0
176
     1
 40
1.0
176
     1
  0
VISUALSTYLE
  5
152
102
{ACAD_REACTORS
330
145
102
}
330
145
100
AcDbVisualStyle
  2
Thicken
 70
    13
177
     3
291
     1
 70
    58
 90
        2
176
     1
 90
        2
176
     1
 90
        0
176
     1
 90
        0
176
     1
 40
0.6
176
     1
 40
30.0
176
     1
 62
     7
420
 16777215
176
     1
 90
        1
176
     1
 90
        4
176
     1
 62
     7
176
     1
 62
   257
176
     1
 90
        1
176
     1
 90
        1
176
     1
 40
1.0
176
     1
 90
       12
176
     1
 62
     7
176
     1
 40
1.0
176
     1
 90
        1
176
     1
 90
        6
176
     1
 90
        2
176
     1
 62
     7
176
     1
 90
        5
176
     1
 90
        0
176
     1
 90
        0
176
     1
290
     0
176
     1
 90
        1
176
     1
 40
0.0
176
     1
 90
        0
176
     1
290
     0
176
     1
290
     1
176
     1
290
     1
176
     1
290
     0
176
     1
290
     0
176
     1
290
     0
176
     1
290
     0
176
     1
290
     0
176
     1
290
     0
176
     1
 90
       50
176
     1
 40
0.0
176
     1
 40
1.0
176
     1
 90
        0
176
     1
 62
    18
420
        0
176
     1
 90
       50
176
     1
 90
        3
176
     1
 62
     5
420
      255
176
     1
290
     0
176
     1
 90
       50
176
     1
 90
       50
176
     1
 90
       50
176
     1
290
     0
176
     1
 90
       50
176
     1
 62
   256
176
     0
 40
1.0
176
     0
 90
        0
176
     1
  1
strokes_ogs.tif
176
     1
290
     0
176
     1
 40
1.0
176
     1
 40
1.0
176
     1
  0
VISUALSTYLE
  5
14C
102
{ACAD_REACTORS
330
145
102
}
330
145
100
AcDbVisualStyle
  2
Wireframe
 70
     5
177
     3
291
     0
 70
    58
 90
        0
176
     1
 90
        2
176
     1
 90
        0
176
     1
 90
        0
176
     1
 40
0.6
176
     1
 40
30.0
176
     1
 62
     7
420
 16777215
176
     1
 90
        1
176
     1
 90
        4
176
     1
 62
     7
176
     1
 62
   257
176
     1
 90
        1
176
     1
 90
        1
176
     1
 40
1.0
176
     1
 90
        0
176
     1
 62
   257
176
     1
 40
1.0
176
     1
 90
        1
176
     1
 90
        6
176
     1
 90
        2
176
     1
 62
     7
176
     1
 90
        3
176
     1
 90
        0
176
     1
 90
        0
176
     1
290
     0
176
     1
 90
        1
176
     1
 40
0.0
176
     1
 90
        0
176
     1
290
     0
176
     1
290
     1
176
     1
290
     1
176
     1
290
     0
176
     1
290
     0
176
     1
290
     0
176
     1
290
     0
176
     1
290
     0
176
     1
290
     0
176
     1
 90
       50
176
     1
 40
0.0
176
     1
 40
1.0
176
     1
 90
        0
176
     1
 62
    18
420
        0
176
     1
 90
       50
176
     1
 90
        3
176
     1
 62
     5
420
      255
176
     1
290
     0
176
     1
 90
       50
176
     1
 90
       50
176
     1
 90
       50
176
     1
290
     0
176
     1
 90
       50
176
     1
 62
   256
176
     0
 40
1.0
176
     0
 90
        0
176
     1
  1
strokes_ogs.tif
176
     1
290
     0
176
     1
 40
1.0
176
     1
 40
1.0
176
     1
  0
VISUALSTYLE
  5
158
102
{ACAD_REACTORS
330
145
102
}
330
145
100
AcDbVisualStyle
  2
X-Ray
 70
    25
177
     3
291
     0
 70
    58
 90
        2
176
     1
 90
        2
176
     1
 90
        1
176
     1
 90
        1
176
     1
 40
0.5
176
     1
 40
30.0
176
     1
 62
     7
420
 16777215
176
     1
 90
        1
176
     1
 90
        0
176
     1
 62
     7
176
     1
 62
   257
176
     1
 90
        1
176
     1
 90
        1
176
     1
 40
1.0
176
     1
 90
        8
176
     1
 62
     7
176
     1
 40
1.0
176
     1
 90
        1
176
     1
 90
        6
176
     1
 90
        2
176
     1
 62
     7
176
     1
 90
        3
176
     1
 90
        0
176
     1
 90
        0
176
     1
290
     0
176
     1
 90
       13
176
     1
 40
0.0
176
     1
 90
        0
176
     1
290
     0
176
     1
290
     1
176
     1
290
     1
176
     1
290
     0
176
     1
290
     0
176
     1
290
     0
176
     1
290
     0
176
     1
290
     0
176
     1
290
     0
176
     1
 90
       50
176
     1
 40
0.0
176
     1
 40
1.0
176
     1
 90
        0
176
     1
 62
    18
420
        0
176
     1
 90
       50
176
     1
 90
        3
176
     1
 62
     5
420
      255
176
     1
290
     0
176
     1
 90
       50
176
     1
 90
       50
176
     1
 90
       50
176
     1
290
     0
176
     1
 90
       50
176
     1
 62
   256
176
     0
 40
1.0
176
     0
 90
        0
176
     1
  1
strokes_ogs.tif
176
     1
290
     0
176
     1
 40
1.0
176
     1
 40
1.0
176
     1
  0
DICTIONARYVAR
  5
DD
102
{ACAD_REACTORS
330
59
102
}
330
59
100
DictionaryVariables
280
     0
  1
1:1
  0
DICTIONARYVAR
  5
E9
102
{ACAD_REACTORS
330
59
102
}
330
59
100
DictionaryVariables
280
     0
  1
STANDARD
  0
DICTIONARYVAR
  5
98
102
{ACAD_REACTORS
330
59
102
}
330
59
100
DictionaryVariables
280
     0
  1
STANDARD
  0
DICTIONARYVAR
  5
1EE
102
{ACAD_REACTORS
330
59
102
}
330
59
100
DictionaryVariables
280
     0
  1
Metric50
  0
DICTIONARYVAR
  5
1EF
102
{ACAD_REACTORS
330
59
102
}
330
59
100
DictionaryVariables
280
     0
  1
Metric50
  0
DICTIONARYVAR
  5
43
102
{ACAD_REACTORS
330
59
102
}
330
59
100
DictionaryVariables
280
     0
  1
2
  0
DICTIONARYVAR
  5
5E
102
{ACAD_REACTORS
330
59
102
}
330
59
100
DictionaryVariables
280
     0
  1
1
  0
DICTIONARYVAR
  5
DD2
102
{ACAD_REACTORS
330
59
102
}
330
59
100
DictionaryVariables
280
     0
  1
1
  0
DICTIONARYVAR
  5
B6
102
{ACAD_REACTORS
330
59
102
}
330
59
100
DictionaryVariables
280
     0
  1

  0
ENDSEC
  0
SECTION
  2
ACDSDATA
 70
     2
 71
     2
  0
ACDSSCHEMA
 90
        0
  1
AcDb3DSolid_ASM_Data
  2
AcDbDs::ID
280
    10
 91
        0
  2
ASM_Data
280
    15
 91
        0
101
ACDSRECORD
 95
        0
 90
        1
  2
AcDbDs::TreatedAsObjectData
280
     1
291
     1
101
ACDSRECORD
 95
        0
 90
        2
  2
AcDbDs::Legacy
280
     1
291
     1
101
ACDSRECORD
  1
AcDbDs::ID
 90
        3
  2
AcDs:Indexable
280
     1
291
     1
101
ACDSRECORD
  1
AcDbDs::ID
 90
        4
  2
AcDbDs::HandleAttribute
280
     7
282
     1
  0
ACDSSCHEMA
 90
        1
  1
AcDbDs::TreatedAsObjectDataSchema
  2
AcDbDs::TreatedAsObjectData
280
     1
 91
        0
  0
ACDSSCHEMA
 90
        2
  1
AcDbDs::LegacySchema
  2
AcDbDs::Legacy
280
     1
 91
        0
  0
ACDSSCHEMA
 90
        3
  1
AcDbDs::IndexedPropertySchema
  2
AcDs:Indexable
280
     1
 91
        0
  0
ACDSSCHEMA
 90
        4
  1
AcDbDs::HandleAttributeSchema
  2
AcDbDs::HandleAttribute
280
     7
 91
        8
  0
ACDSRECORD
 90
        0
  2
AcDbDs::ID
280
    10
320
22
  2
ASM_Data
280
    15
 94
      884
310
89504E470D0A1A0A0000000D49484452000001000000005F08030000003003E9C200000300504C5445212830000000C8C8C80000000000000000000000000000000000000000000000000000330000660000990000CC0000FF0033000033330033660033990033CC0033FF0066000066330066660066990066CC0066FF0099
310
000099330099660099990099CC0099FF00CC0000CC3300CC6600CC9900CCCC00CCFF00FF0000FF3300FF6600FF9900FFCC00FFFF3300003300333300663300993300CC3300FF3333003333333333663333993333CC3333FF3366003366333366663366993366CC3366FF3399003399333399663399993399CC3399FF33CC00
310
33CC3333CC6633CC9933CCCC33CCFF33FF0033FF3333FF6633FF9933FFCC33FFFF6600006600336600666600996600CC6600FF6633006633336633666633996633CC6633FF6666006666336666666666996666CC6666FF6699006699336699666699996699CC6699FF66CC0066CC3366CC6666CC9966CCCC66CCFF66FF0066
310
FF3366FF6666FF9966FFCC66FFFF9900009900339900669900999900CC9900FF9933009933339933669933999933CC9933FF9966009966339966669966999966CC9966FF9999009999339999669999999999CC9999FF99CC0099CC3399CC6699CC9999CCCC99CCFF99FF0099FF3399FF6699FF9999FFCC99FFFFCC0000CC00
310
33CC0066CC0099CC00CCCC00FFCC3300CC3333CC3366CC3399CC33CCCC33FFCC6600CC6633CC6666CC6699CC66CCCC66FFCC9900CC9933CC9966CC9999CC99CCCC99FFCCCC00CCCC33CCCC66CCCC99CCCCCCCCCCFFCCFF00CCFF33CCFF66CCFF99CCFFCCCCFFFFFF0000FF0033FF0066FF0099FF00CCFF00FFFF3300FF3333
310
FF3366FF3399FF33CCFF33FFFF6600FF6633FF6666FF6699FF66CCFF66FFFF9900FF9933FF9966FF9999FF99CCFF99FFFFCC00FFCC33FFCC66FFCC99FFCCCCFFCCFFFFFF00FFFF33FFFF66FFFF99FFFFCCFFFFFF0000000D0D0D1A1A1A2828283535354343435050505D5D5D6B6B6B787878868686939393A1A1A1AEAEAEBB
310
BBBBC9C9C9D6D6D6E4E4E4F1F1F1FFFFFF000000000000000000000000000000000000000000000000000000000000B21171F60000002F4944415478DAEDC13101000000C2A0F54F6D0D0FA00000000000000000000000000000000000000000000000E0DE005F5F0001B38822CD0000000049454E44AE426082
  0
ENDSEC
  0
EOF
